#VERSION:0.83;
#TITLE:Homosapien;
#SUBTITLE:;
#ARTIST:Pete Shelley;
#TITLETRANSLIT:;
#SUBTITLETRANSLIT:;
#ARTISTTRANSLIT:;
#GENRE:;
#ORIGIN:;
#CREDIT:BadWolf;
#BANNER:Homosapien.png;
#BACKGROUND:Homosapien-bg.png;
#PREVIEWVID:;
#JACKET:Homosapien-jacket.png;
#CDIMAGE:;
#DISCIMAGE:;
#LYRICSPATH:;
#CDTITLE:cdtitle.png;
#MUSIC:Homosapien.ogg;
#OFFSET:0.010000;
#SAMPLESTART:25.284458;
#SAMPLELENGTH:14.437832;
#SELECTABLE:YES;
#BPMS:0.000=132.800;
#STOPS:;
#DELAYS:;
#WARPS:;
#TIMESIGNATURES:0.000=4=4;
#TICKCOUNTS:0.000=4;
#COMBOS:0.000=1;
#SPEEDS:0.000=1.000=0.000=0;
#SCROLLS:0.000=1.000;
#FAKES:;
#LABELS:0.000=Song Start;
#BGCHANGES:0.000=Homosapien.mp4=1.000=0=0=1===CrossFade_Fastest==,
272.000=Homosapien-bg.png=1.000=0=0=1===CrossFade_Fastest==,
99999=-nosongbg-=1.000=0=0=0 // don't automatically add -songbackground-
;
#KEYSOUNDS:;
#ATTACKS:
;

//---------------dance-single - ----------------
#NOTEDATA:;
#CHARTNAME:;
#STEPSTYPE:dance-single;
#DESCRIPTION:;
#CHARTSTYLE:;
#DIFFICULTY:Edit;
#METER:9;
#RADARVALUES:0.636236,0.598155,0.195051,0.000000,0.223495,548.000000,524.000000,24.000000,0.000000,0.000000,0.000000,0.000000,0.000000,0.000000,0.636236,0.598155,0.195051,0.000000,0.223495,548.000000,524.000000,24.000000,0.000000,0.000000,0.000000,0.000000,0.000000,0.000000;
#CREDIT:;
#NOTES:
0000
0000
0000
0000
,
0000
0000
0000
0000
,
0000
0000
0000
0000
,
0000
0000
0000
0000
,
1000
0100
1000
0100
0001
0100
0001
0100
,
1000
0010
1000
0010
0001
0010
0001
0010
,
1000
0100
1000
0100
0010
0001
0010
0001
,
1000
0010
1010
0000
0001
0010
0110
0100
,
1000
0000
0010
0000
1000
0000
0010
0000
0100
0000
0001
0000
0100
0000
0001
1000
,
0001
0000
0010
0000
0001
0000
0010
0000
0100
0000
1000
0000
0100
0000
1000
0001
,
1000
0000
0010
0000
1000
0000
0010
0000
0001
0000
0010
0000
0001
0000
0010
1000
,
0001
0000
0100
0000
0101
0000
0000
0000
1000
0000
0100
0000
0110
0000
0010
0001
,
1000
0000
0010
0000
0100
0000
0010
0000
1000
0000
0100
0000
0010
0000
0001
1000
,
0001
0000
0100
0000
0010
0000
0100
0000
0001
0000
0010
0000
0100
0000
1000
0001
,
1000
0000
0010
0000
0001
0000
0010
0000
1000
0000
0010
0000
0100
0000
0010
1000
,
0001
0000
0010
0000
1000
0000
0010
0000
0001
0000
0010
0000
0100
0000
0010
0001
,
1000
0000
0010
0000
0100
0000
0001
0000
1000
0000
0100
0000
0010
0000
0001
1000
,
0001
0000
0100
0000
0101
0000
0000
0000
1000
0000
0100
0000
0110
0000
0010
0001
,
1000
0000
0010
0000
0100
0000
0010
0000
0001
0000
0010
0000
0100
0000
0010
1000
,
0001
0000
0010
0000
0011
0000
0000
0000
1000
0000
0010
0000
0110
0000
0100
0001
,
1000
0000
0010
0000
0100
0000
0001
0000
1000
0000
0100
0000
0010
0000
0001
1000
,
0001
0000
0100
0000
0101
0000
0000
0000
1000
0000
0100
0000
0110
0000
0010
0001
,
1000
0000
0010
0000
0100
0000
0010
0000
0001
0000
0010
0000
0100
0000
0010
1000
,
0001
0000
0010
0000
0011
0000
0000
0000
1000
0000
0010
0000
0110
0000
0100
0001
,
1000
0000
0100
0000
0010
0000
0100
0000
1000
0000
0010
0000
0100
0000
0001
1000
,
0001
0000
0010
0000
0100
0000
0010
0000
0001
0000
0100
0000
0010
0000
1000
0001
,
1000
0100
0100
0010
0001
0100
0010
1000
,
0001
0000
0010
0000
0100
0000
0100
0000
1000
0000
0010
0000
0100
0000
0001
1000
,
0001
1000
0100
0000
0010
0000
0100
0000
1000
0000
0100
0000
0001
0000
0100
1000
,
0001
0000
0100
0000
0010
0000
0100
0000
0001
0000
0100
0000
1000
0000
0100
0001
,
1000
0100
0100
0010
0001
0100
0010
1000
,
0001
0000
0010
0000
0100
0000
0100
0000
1000
0000
0010
0000
0100
0000
0001
1000
,
0001
0000
0010
0000
0100
0000
0010
0000
0001
0000
0010
0000
1000
0000
0010
0001
,
1000
0001
0100
0000
0010
0000
0100
0001
1000
0000
0010
0000
0001
0000
0010
1000
,
0001
0010
0010
0100
1000
0010
0001
0010
,
1000
0000
0001
0000
0010
0000
0010
0000
0100
0000
1000
0000
0001
0000
0100
0001
,
1000
0000
0010
0000
0100
0000
0010
0000
1000
0000
0010
0000
0001
0000
0010
1000
,
0001
0000
0100
0000
0010
0000
0100
0000
0001
0000
0100
0000
1000
0000
0100
0001
,
1000
0100
0100
0010
0001
0100
1000
0100
,
0001
0000
1000
0000
0100
0000
0100
0000
0010
0000
0001
0000
1000
0000
0010
1000
,
0001
0000
0010
0000
0100
0000
1000
0010
1000
0010
1000
0000
0001
0000
1000
0001
,
1000
0000
0100
0000
0010
0000
0001
0100
0001
0100
0001
0000
1000
0000
0001
1000
,
0001
0010
0001
0010
1000
0010
1000
0010
,
0001
0100
0001
0100
1000
0100
1000
0100
,
0001
0010
0001
0010
0100
1000
0100
1000
,
0001
0100
0101
0000
1000
0100
0110
0010
,
0001
0000
0100
0000
0001
0000
0100
0000
0010
0000
1000
0000
0010
0000
1000
0001
,
1000
0000
0100
0000
1000
0000
0100
0000
0010
0000
0001
0000
0010
0000
0001
1000
,
0001
0000
0100
0000
0001
0000
0100
0000
1000
0000
0100
0000
1000
0000
0100
0001
,
1000
0000
0010
0000
1010
0000
0000
0000
0001
0000
0010
0000
0110
0000
0100
1000
,
0001
0000
0100
0000
0010
0000
0100
0000
0001
0000
0010
0000
0100
0000
1000
0001
,
1000
0000
0010
0000
0100
0000
0010
0000
1000
0000
0100
0000
0010
0000
0001
1000
,
0001
0000
0100
0000
1000
0000
0100
0000
0001
0000
0100
0000
0010
0000
0100
0001
,
1000
0000
0100
0000
0001
0000
0100
0000
1000
0000
0100
0000
0010
0000
0100
1000
,
0001
0000
0100
0000
0010
0000
1000
0000
0001
0000
0010
0000
0100
0000
1000
0001
,
1000
0000
0010
0000
1010
0000
0000
0000
0001
0000
0010
0000
0110
0000
0100
1000
,
0001
0000
0100
0000
0010
0000
0100
0000
1000
0000
0100
0000
0010
0000
0100
0001
,
1000
0000
0100
0000
1100
0000
0000
0000
0001
0000
0100
0000
0110
0000
0010
1000
,
0001
0000
0100
0000
0010
0000
1000
0000
0001
0000
0010
0000
0100
0000
1000
0001
,
1000
0000
0010
0000
1010
0000
0000
0000
0001
0000
0010
0000
0110
0000
0100
1000
,
0001
0000
0100
0000
0010
0000
0100
0000
1000
0000
0100
0000
0010
0000
0100
0001
,
1000
0000
0100
0000
1100
0000
0000
0000
0001
0000
0100
0000
0110
0000
0010
1000
,
0001
0000
0010
0000
0100
0000
0010
0000
0001
0000
0100
0000
0010
0000
1000
0001
,
1000
0000
0100
0000
0010
0000
0100
0000
1000
0000
0010
0000
0100
0000
0001
1000
,
0001
0000
0000
0000
;

//---------------dance-single - ----------------
#NOTEDATA:;
#CHARTNAME:;
#STEPSTYPE:dance-single;
#DESCRIPTION:;
#CHARTSTYLE:;
#DIFFICULTY:Challenge;
#METER:7;
#RADARVALUES:0.496915,0.442115,0.130034,0.000000,0.000000,428.000000,412.000000,16.000000,0.000000,0.000000,0.000000,0.000000,0.000000,0.000000,0.496915,0.442115,0.130034,0.000000,0.000000,428.000000,412.000000,16.000000,0.000000,0.000000,0.000000,0.000000,0.000000,0.000000;
#CREDIT:;
#NOTES:
0000
0000
0000
0000
,
0000
0000
0000
0000
,
0000
0000
0000
0000
,
0000
0000
0000
0000
,
1000
0100
0010
0000
0001
0100
0010
0100
,
0001
0010
0100
0000
1000
0010
0100
0010
,
1000
0001
0010
0000
0100
1000
0001
0000
,
1000
0001
1001
0000
0001
0100
1000
0100
,
0001
0010
0100
0000
1000
0010
0100
0010
,
1000
0100
0010
0000
0001
0100
0010
0100
,
0001
1000
0100
0000
0010
0001
1000
0000
,
0001
1000
1001
0000
1000
0010
0001
0010
,
1000
0100
1000
0100
0010
0001
1000
0000
,
0001
0100
0001
0100
0010
1000
0001
0000
,
1000
0100
0010
0100
1000
0000
1001
0000
,
0001
0100
0010
0100
0001
0000
1001
0000
,
1000
0010
0001
0010
1000
0001
1000
0000
,
0001
1000
1001
0000
1000
0010
0001
0010
,
1000
0100
0000
0010
0001
1000
0001
0000
,
1000
0001
1001
0000
0001
0100
1000
0100
,
0001
0010
1000
0010
0001
1000
0001
0000
,
1000
0001
1001
0000
0001
0010
1000
0010
,
0001
0100
0000
0010
1000
0001
1000
0000
,
0001
1000
1001
0000
1000
0100
0001
0100
,
1000
0010
1000
0010
0100
0001
1000
0000
,
0001
0010
0001
0010
0100
1000
0001
0100
,
0000
0010
1000
0001
0000
0010
0001
1000
,
0000
0100
1000
0001
0000
0100
0010
1000
,
0001
0010
0001
0010
0100
1000
0001
0100
,
0010
0100
0001
1000
0100
1000
0010
0001
,
0000
1000
0100
0001
0000
0010
0100
1000
,
0000
0001
0100
0010
0000
1000
0001
1000
,
0001
0010
0100
0010
0001
0010
0100
1000
,
0001
0100
0010
0100
0001
0100
0010
1000
,
0000
0100
0010
0001
0000
1000
0010
0001
,
0000
1000
0100
0001
0000
0010
0100
1000
,
0001
0100
0001
0100
0010
1000
0001
0010
,
0100
0010
0001
1000
0010
1000
0010
0100
,
0001
0010
1000
0010
0000
0001
0100
0010
,
0000
1000
0001
0010
0000
0100
0010
0001
,
1000
0010
0100
0010
1000
0010
0001
0010
,
1000
0100
0010
0100
1000
0100
0001
0100
,
1000
0010
0100
0000
0001
0010
0100
0010
,
0001
0100
0010
0000
1000
0100
0010
0100
,
1000
0001
0100
0000
0010
1000
0001
0000
,
1000
0001
1001
0000
0001
0010
1000
0010
,
0001
0100
0010
0000
1000
0100
0010
0100
,
1000
0010
0100
0000
0001
0010
0100
0010
,
0001
1000
0010
0000
0100
0001
1000
0000
,
0001
1000
1001
0000
1000
0100
0001
0100
,
1000
0010
1000
0010
0100
0001
1000
0000
,
0001
0010
0001
0010
0100
1000
0001
0000
,
1000
0010
0100
0010
1000
0000
1001
0000
,
0001
0010
0100
0010
0001
0000
1001
0000
,
1000
0100
0001
0100
1000
0001
1000
0000
,
0001
1000
1001
0000
1000
0100
0001
0100
,
1000
0010
0000
0100
0001
1000
0001
0000
,
1000
0001
1001
0000
0001
0010
1000
0010
,
0001
0100
1000
0100
0001
1000
0001
0000
,
1000
0001
1001
0000
0001
0100
1000
0100
,
0001
0010
0000
0100
1000
0001
1000
0000
,
0001
1000
1001
0000
1000
0010
0001
0010
,
1000
0100
1000
0100
0010
0001
1000
0000
,
0001
0100
0001
0100
0010
1000
0001
0010
,
0001
0000
0000
0000
;

//---------------dance-single - ----------------
#NOTEDATA:;
#CHARTNAME:;
#STEPSTYPE:dance-single;
#DESCRIPTION:;
#CHARTSTYLE:;
#DIFFICULTY:Hard;
#METER:5;
#RADARVALUES:0.363398,0.390101,0.195051,0.000000,0.000000,313.000000,289.000000,24.000000,0.000000,0.000000,0.000000,0.000000,0.000000,0.000000,0.363398,0.390101,0.195051,0.000000,0.000000,313.000000,289.000000,24.000000,0.000000,0.000000,0.000000,0.000000,0.000000,0.000000;
#CREDIT:;
#NOTES:
0000
0000
0000
0000
,
0000
0000
0000
0000
,
0000
0000
0000
0000
,
0000
0000
0000
0000
,
1000
0000
0001
0100
0001
0000
1000
0000
,
0001
0000
0010
0100
1000
0000
0001
0000
,
0100
0000
0010
1000
0010
0000
1000
0000
,
1001
0000
0110
0000
0001
0010
0100
1000
,
0001
0000
1000
0010
1000
0000
0001
0000
,
1000
0000
0100
0010
0001
0000
1000
0000
,
0010
0000
0100
0001
0100
0000
0001
0000
,
1001
0000
0110
0000
1000
0100
0010
0001
,
1000
0010
0100
0001
,
0010
0100
1000
0001
,
1000
0000
0010
0100
0010
0000
1000
0000
,
0001
0000
1000
0100
0010
0000
0001
0000
,
0100
0000
0001
1000
0001
0000
1000
0000
,
1001
0000
0110
0000
0001
0010
0100
1000
,
0001
0100
0010
1000
,
1001
0000
0110
0000
1000
0100
0010
0001
,
0100
0000
0001
1000
0001
0000
1000
0000
,
1001
0000
0110
0000
0001
0010
0100
1000
,
0001
0100
0010
1000
,
1001
0000
0110
0000
1000
0100
0010
0001
,
1000
1000
0001
0001
,
0100
0010
1000
0001
,
1000
0000
0100
0000
0010
0001
0010
0000
,
0001
0100
1000
0100
,
0001
0010
0100
1000
,
0010
0100
0001
1000
,
0001
0000
0010
0000
0100
1000
0100
0000
,
1000
0010
0001
0010
,
1000
0100
0010
0001
,
0100
0010
1000
0001
,
1000
0000
0001
0000
0010
0100
1000
0000
,
0010
0100
0001
1000
,
0100
0010
0100
1000
,
0010
0001
0010
1000
,
0001
0000
1000
0000
0100
0010
0001
0000
,
0100
0010
1000
0001
,
0010
0100
0010
0001
,
0100
1000
0100
0001
,
1000
0000
0001
0010
0001
0000
1000
0000
,
0001
0000
0100
0010
1000
0000
0001
0000
,
0010
0000
0100
1000
0100
0000
1000
0000
,
1001
0000
0110
0000
0001
0100
0010
1000
,
0001
0000
1000
0100
1000
0000
0001
0000
,
1000
0000
0010
0100
0001
0000
1000
0000
,
0100
0000
0010
0001
0010
0000
0001
0000
,
1001
0000
0110
0000
1000
0010
0100
0001
,
1000
0100
0010
0001
,
0100
0010
1000
0001
,
1000
0000
0100
0010
0100
0000
1000
0000
,
0001
0000
1000
0010
0100
0000
0001
0000
,
0010
0000
0001
1000
0001
0000
1000
0000
,
1001
0000
0110
0000
0001
0100
0010
1000
,
0001
0010
0100
1000
,
1001
0000
0110
0000
1000
0010
0100
0001
,
0010
0000
0001
1000
0001
0000
1000
0000
,
1001
0000
0110
0000
0001
0100
0010
1000
,
0001
0010
0100
1000
,
1001
0000
0110
0000
1000
0010
0100
0001
,
1000
1000
0001
0001
,
0010
0100
1000
0001
,
1000
0000
0000
0000
;

//---------------dance-single - ----------------
#NOTEDATA:;
#CHARTNAME:;
#STEPSTYPE:dance-single;
#DESCRIPTION:;
#CHARTSTYLE:;
#DIFFICULTY:Medium;
#METER:3;
#RADARVALUES:0.282127,0.312081,0.195051,0.000000,0.000000,243.000000,219.000000,24.000000,0.000000,0.000000,0.000000,0.000000,0.000000,0.000000,0.282127,0.312081,0.195051,0.000000,0.000000,243.000000,219.000000,24.000000,0.000000,0.000000,0.000000,0.000000,0.000000,0.000000;
#CREDIT:;
#NOTES:
0000
0000
0000
0000
,
0000
0000
0000
0000
,
0000
0000
0000
0000
,
0000
0000
0000
0000
,
0000
1000
0001
1000
,
0000
0010
0100
0010
,
0000
1000
0100
0010
,
0001
1001
1000
1001
,
0000
0001
1000
0001
,
0000
0100
0010
0100
,
0000
0001
0010
0100
,
1000
1001
0001
1001
,
1000
1000
0010
0010
,
0100
0100
0001
0001
,
1000
0001
1000
0001
,
0000
0100
0010
0100
,
0000
0001
0010
0100
,
1000
1001
0001
1001
,
1000
1000
0010
0010
,
0100
0110
0010
0110
,
1000
0001
0010
0100
,
1000
1001
0001
1001
,
1000
1000
0010
0010
,
0100
0110
0010
0110
,
0100
0100
0001
0001
,
1000
0100
0010
0001
,
1000
0010
0001
0010
,
1000
0100
0010
0001
,
1000
0010
1000
0000
,
0001
0100
0001
0000
,
1000
0100
0001
0100
,
1000
0010
0100
0001
,
1000
0100
1000
0000
,
0001
0010
0001
0000
,
1000
0010
0100
0001
,
0010
0100
1000
0001
,
1000
0010
1000
0000
,
0001
0100
0001
0000
,
1000
0100
0010
0001
,
0100
0010
1000
0001
,
1000
1000
0001
0001
,
0010
0010
0100
0100
,
0000
1000
0001
1000
,
0000
0010
0100
0010
,
0000
1000
0100
0010
,
0001
1001
1000
1001
,
0000
0001
1000
0001
,
0000
0100
0010
0100
,
0000
0001
0010
0100
,
1000
1001
0001
1001
,
1000
1000
0010
0010
,
0100
0100
0001
0001
,
1000
0001
1000
0001
,
0000
0100
0010
0100
,
0000
0001
0010
0100
,
1000
1001
0001
1001
,
1000
1000
0010
0010
,
0100
0110
0010
0110
,
1000
0001
0010
0100
,
1000
1001
0001
1001
,
1000
1000
0010
0010
,
0100
0110
0010
0110
,
0100
0100
0001
0001
,
1000
0100
0010
0001
,
1000
0000
0000
0000
;

//---------------dance-single - ----------------
#NOTEDATA:;
#CHARTNAME:;
#STEPSTYPE:dance-single;
#DESCRIPTION:;
#CHARTSTYLE:;
#DIFFICULTY:Easy;
#METER:1;
#RADARVALUES:0.095203,0.129018,0.097525,0.016254,0.000000,82.000000,70.000000,12.000000,2.000000,0.000000,0.000000,0.000000,0.000000,0.000000,0.095203,0.129018,0.097525,0.016254,0.000000,82.000000,70.000000,12.000000,2.000000,0.000000,0.000000,0.000000,0.000000,0.000000;
#CREDIT:;
#NOTES:
0000
0000
0000
0000
,
0000
0000
0000
0000
,
0000
0000
0000
0000
,
0000
0000
0000
0000
,
1000
0000
0000
0000
,
0001
0000
0000
0000
,
1000
0000
0000
0000
,
1001
0000
0000
0000
,
0001
0000
0000
0000
,
1000
0000
0000
0000
,
0001
0000
0000
0000
,
1001
0000
0000
0000
,
0100
0000
0000
0000
,
0010
0000
0000
0000
,
1000
0000
0000
0000
,
0100
0000
0000
0000
,
0010
0000
0000
0000
,
1001
0000
0000
0000
,
1000
0000
0000
0000
,
1001
0000
0000
0000
,
0001
0000
0000
0000
,
1001
0000
0000
0000
,
1000
0000
0000
0000
,
1001
0000
0000
0000
,
0002
0000
0000
0000
,
0000
0000
0003
0000
,
1000
0000
0001
0000
,
1000
0000
0000
0000
,
0001
0000
0001
0000
,
1000
0000
1000
0000
,
0010
0000
0100
0000
,
0010
0000
0000
0000
,
0100
0000
0100
0000
,
0010
0000
0010
0000
,
1000
0000
0001
0000
,
1000
0000
0000
0000
,
0001
0000
0001
0000
,
1000
0000
1000
0000
,
0100
0000
0010
0000
,
0100
0000
0000
0000
,
1000
0000
1000
0000
,
0001
0000
0001
0000
,
1000
0000
0000
0000
,
0001
0000
0000
0000
,
1000
0000
0000
0000
,
1001
0000
0000
0000
,
0001
0000
0000
0000
,
1000
0000
0000
0000
,
0001
0000
0000
0000
,
1001
0000
0000
0000
,
0100
0000
0000
0000
,
0010
0000
0000
0000
,
1000
0000
0000
0000
,
0100
0000
0000
0000
,
0010
0000
0000
0000
,
1001
0000
0000
0000
,
1000
0000
0000
0000
,
1001
0000
0000
0000
,
0001
0000
0000
0000
,
1001
0000
0000
0000
,
1000
0000
0000
0000
,
1001
0000
0000
0000
,
0002
0000
0000
0000
,
0000
0000
0003
0000
;

//---------------dance-single - ----------------
#NOTEDATA:;
#CHARTNAME:;
#STEPSTYPE:dance-single;
#DESCRIPTION:;
#CHARTSTYLE:;
#DIFFICULTY:Beginner;
#METER:1;
#RADARVALUES:0.095203,0.129018,0.097525,0.016254,0.000000,82.000000,70.000000,12.000000,2.000000,0.000000,0.000000,0.000000,0.000000,0.000000,0.095203,0.129018,0.097525,0.016254,0.000000,82.000000,70.000000,12.000000,2.000000,0.000000,0.000000,0.000000,0.000000,0.000000;
#CREDIT:;
#NOTES:
// measure 0
0000
0000
0000
0000
,  // measure 1
0000
0000
0000
0000
,  // measure 2
0000
0000
0000
0000
,  // measure 3
0000
0000
0000
0000
,  // measure 4
1000
0000
0000
0000
,  // measure 5
0001
0000
0000
0000
,  // measure 6
1000
0000
0000
0000
,  // measure 7
1001
0000
0000
0000
,  // measure 8
0001
0000
0000
0000
,  // measure 9
1000
0000
0000
0000
,  // measure 10
0001
0000
0000
0000
,  // measure 11
1001
0000
0000
0000
,  // measure 12
1000
0000
0000
0000
,  // measure 13
0001
0000
0000
0000
,  // measure 14
1000
0000
0000
0000
,  // measure 15
1000
0000
0000
0000
,  // measure 16
0001
0000
0000
0000
,  // measure 17
1001
0000
0000
0000
,  // measure 18
1000
0000
0000
0000
,  // measure 19
1001
0000
0000
0000
,  // measure 20
0001
0000
0000
0000
,  // measure 21
1001
0000
0000
0000
,  // measure 22
1000
0000
0000
0000
,  // measure 23
1001
0000
0000
0000
,  // measure 24
0002
0000
0000
0000
,  // measure 25
0000
0000
0003
0000
,  // measure 26
1000
0000
0001
0000
,  // measure 27
1000
0000
0000
0000
,  // measure 28
0001
0000
0001
0000
,  // measure 29
1000
0000
1000
0000
,  // measure 30
0001
0000
1000
0000
,  // measure 31
0001
0000
0000
0000
,  // measure 32
1000
0000
1000
0000
,  // measure 33
0001
0000
0001
0000
,  // measure 34
1000
0000
0001
0000
,  // measure 35
1000
0000
0000
0000
,  // measure 36
0001
0000
0001
0000
,  // measure 37
1000
0000
1000
0000
,  // measure 38
1000
0000
0001
0000
,  // measure 39
1000
0000
0000
0000
,  // measure 40
1000
0000
1000
0000
,  // measure 41
0001
0000
0001
0000
,  // measure 42
1000
0000
0000
0000
,  // measure 43
0001
0000
0000
0000
,  // measure 44
1000
0000
0000
0000
,  // measure 45
1001
0000
0000
0000
,  // measure 46
0001
0000
0000
0000
,  // measure 47
1000
0000
0000
0000
,  // measure 48
0001
0000
0000
0000
,  // measure 49
1001
0000
0000
0000
,  // measure 50
1000
0000
0000
0000
,  // measure 51
0001
0000
0000
0000
,  // measure 52
1000
0000
0000
0000
,  // measure 53
1000
0000
0000
0000
,  // measure 54
0001
0000
0000
0000
,  // measure 55
1001
0000
0000
0000
,  // measure 56
1000
0000
0000
0000
,  // measure 57
1001
0000
0000
0000
,  // measure 58
0001
0000
0000
0000
,  // measure 59
1001
0000
0000
0000
,  // measure 60
1000
0000
0000
0000
,  // measure 61
1001
0000
0000
0000
,  // measure 62
0002
0000
0000
0000
,  // measure 63
0000
0000
0003
0000
;
