#VERSION:0.83;
#TITLE:Book of Love;
#SUBTITLE:;
#ARTIST:Hit'n'Hide;
#TITLETRANSLIT:;
#SUBTITLETRANSLIT:;
#ARTISTTRANSLIT:;
#GENRE:;
#ORIGIN:;
#CREDIT:BadWolf;
#BANNER:Book of Love.png;
#BACKGROUND:Book of Love-bg.png;
#PREVIEWVID:;
#JACKET:Book of Love-jacket.png;
#CDIMAGE:;
#DISCIMAGE:;
#LYRICSPATH:;
#CDTITLE:cdtitle.png;
#MUSIC:Book of Love.ogg;
#OFFSET:-1.720000;
#SAMPLESTART:32.580399;
#SAMPLELENGTH:13.714287;
#SELECTABLE:YES;
#BPMS:0.000=140.000,
200.000=139.300,
204.000=139.700;
#STOPS:;
#DELAYS:;
#WARPS:;
#TIMESIGNATURES:0.000=4=4;
#TICKCOUNTS:0.000=4;
#COMBOS:0.000=1;
#SPEEDS:0.000=1.000=0.000=0;
#SCROLLS:0.000=1.000;
#FAKES:;
#LABELS:0.000=Song Start;
#BGCHANGES:-4.013=Book of Love.mp4=1.000=0=0=1===CrossFade_Fastest==,
275.000=Book of Love-bg.png=1.000=0=0=1===CrossFade_Fastest==,
99999=-nosongbg-=1.000=0=0=0 // don't automatically add -songbackground-
;
#KEYSOUNDS:;
#ATTACKS:
;

//---------------dance-single - ----------------
#NOTEDATA:;
#CHARTNAME:;
#STEPSTYPE:dance-single;
#DESCRIPTION:;
#CHARTSTYLE:;
#DIFFICULTY:Edit;
#METER:9;
#RADARVALUES:0.487555,0.650968,0.041318,0.206591,0.177668,413.000000,408.000000,5.000000,25.000000,0.000000,0.000000,0.000000,0.000000,0.000000,0.487555,0.650968,0.041318,0.206591,0.177668,413.000000,408.000000,5.000000,25.000000,0.000000,0.000000,0.000000,0.000000,0.000000;
#CREDIT:;
#NOTES:
0000
0000
0000
0000
,
0000
0000
0000
0000
,
0000
0000
0000
0000
,
0000
0000
0000
0000
,
0000
0000
0000
0000
,
0000
0000
0000
0000
,
0000
0000
0000
0000
,
0000
0000
0000
0000
,
2002
0000
0000
3003
,
2000
3020
0230
0000
,
0300
0001
0000
0010
0100
0000
1000
0000
,
0020
0230
0302
0000
,
0003
1000
0100
0010
0100
0000
1000
0000
,
1001
0002
0203
0300
,
1001
0000
0100
0010
0001
0000
1000
0000
,
1001
0010
1001
0100
,
0001
0000
0010
0000
0001
0000
0010
0000
0100
1000
0100
1000
0001
1000
0001
1000
,
0002
0000
0003
0000
,
1000
0010
0100
0010
0001
0010
0100
0001
,
1000
0100
0001
1000
0010
0001
1000
0001
,
0100
0010
1000
0001
0010
0000
0100
1000
,
0001
0100
0010
1000
0100
0010
0001
1000
,
0001
0100
0010
0100
1000
0100
0010
1000
,
0001
0010
1000
0001
0100
1000
0001
1000
,
0010
0100
0001
1000
0100
0000
0010
0001
,
1000
0000
0010
0000
0100
0000
0001
0000
1000
0100
1000
0100
0010
0001
0010
0001
,
1000
0000
0010
0000
0100
0000
0001
0000
0100
0000
0010
1000
0001
0000
0010
0000
,
0100
1000
0000
1000
0010
0000
0100
0000
0001
0000
1000
0000
0100
0000
0010
0000
,
0001
0000
0100
0000
0010
0000
1000
0000
0010
0000
0100
0001
1000
0000
0100
0000
,
0010
0001
0000
0001
0100
0000
0010
0000
1000
0000
0001
0000
0010
0000
0100
0000
,
1000
0000
0010
0000
0001
0000
0010
0000
0100
0000
0001
1000
0001
0000
1000
0000
,
0100
0010
0000
0010
0001
0000
0100
0000
0010
0000
0001
0000
0010
0000
1000
0000
,
0001
0000
0100
0000
1000
0000
0100
0000
0010
0000
1000
0001
1000
0000
0001
0000
,
0010
0100
1000
0001
0100
0010
1000
0001
,
1000
0000
0000
0100
1000
0000
0010
0000
0100
0000
0000
0001
0100
0000
0010
0000
,
1000
0000
0000
0001
0010
0000
0100
0000
1000
0000
0010
0000
0001
0000
0010
0000
,
1000
0000
0000
0001
0010
0000
0001
0000
0100
0000
0000
0010
1000
0000
0001
0000
,
0010
0000
0000
0100
1000
0000
0010
0000
1000
0000
0100
0000
0001
0000
0100
0000
,
1000
0000
0000
0010
1000
0000
0100
0000
0010
0000
0000
0001
0010
0000
0100
0000
,
1000
0000
0000
0001
0100
0000
0010
0000
1000
0000
0100
0000
0001
0000
0100
0000
,
1000
0000
0000
0001
0100
0000
0001
0000
0010
0000
0000
0100
1000
0000
0001
0000
,
0100
0000
0010
0000
1000
0000
0001
0000
0010
0100
0010
0100
1000
0001
1000
0001
,
1000
0010
1000
0010
0001
0010
0001
0010
,
1000
0100
1000
0100
0001
0100
0001
0100
,
1000
0010
0100
0010
1000
0010
0001
0010
,
1000
0100
0010
0100
1000
0100
0001
0100
,
1000
1000
0001
0001
1000
0100
0010
0001
,
0100
0100
0010
0010
1000
0001
0010
0100
,
1000
0010
1000
0010
0100
0010
0100
0001
,
1000
0000
0100
0000
0010
0000
0001
0000
1000
0010
1000
0010
0100
0001
0100
0001
,
2000
0000
0000
0000
,
3002
0000
0000
0000
0000
0000
1003
0010
,
2000
0000
0000
3100
0020
0000
0000
0031
,
2000
0000
3002
0000
,
0203
0000
0000
0310
2000
0000
0000
0000
,
3002
0000
0000
0000
0000
0000
1003
0100
,
2000
0000
0000
3010
0200
0000
0000
0301
,
2000
0000
0000
0000
,
3002
0000
0000
0000
,
1003
0000
0000
0000
0001
0010
0100
1000
0000
0000
0000
0000
0000
0000
0000
0000
,
0001
0100
0010
0100
1000
0100
0010
1000
,
0001
0010
1000
0001
0100
1000
0001
1000
,
0010
0100
0001
1000
0100
0000
0010
0001
,
1000
0010
0100
0001
0010
0100
1000
0001
,
1000
0010
0100
0010
0001
0010
0100
0001
,
1000
0100
0001
1000
0010
0001
1000
0001
,
0100
0010
1000
0001
0010
0000
0100
1000
,
0001
0000
0100
0000
0010
0000
1000
0000
0001
0010
0001
0010
0100
1000
0100
1000
,
0002
0000
0003
0000
;

//---------------dance-single - ----------------
#NOTEDATA:;
#CHARTNAME:;
#STEPSTYPE:dance-single;
#DESCRIPTION:;
#CHARTSTYLE:;
#DIFFICULTY:Challenge;
#METER:7;
#RADARVALUES:0.382489,0.477639,0.140482,0.181800,0.000000,324.000000,307.000000,17.000000,22.000000,0.000000,0.000000,0.000000,0.000000,0.000000,0.382489,0.477639,0.140482,0.181800,0.000000,324.000000,307.000000,17.000000,22.000000,0.000000,0.000000,0.000000,0.000000,0.000000;
#CREDIT:;
#NOTES:
0000
0000
0000
0000
,
0000
0000
0000
0000
,
0000
0000
0000
0000
,
0000
0000
0000
0000
,
0000
0000
0000
0000
,
0000
0000
0000
0000
,
0000
0000
0000
0000
,
0000
0000
0000
0000
,
2002
0000
0000
3003
,
2000
0000
0000
0000
,
3020
0000
0000
0000
,
0230
0000
0000
0000
,
0302
0000
0000
0000
,
1003
0100
0010
0001
,
1001
0010
0100
1000
,
1001
0010
1001
0100
,
1001
0001
1000
0001
1000
0100
0010
0001
,
2000
0000
3002
0000
,
1003
0010
0001
1000
0100
0001
1000
0000
,
0001
0010
0100
1000
0001
0000
1000
0000
,
0001
0100
0010
0100
0001
0000
1000
0100
,
0010
0001
1000
0001
0100
0010
1000
0000
,
0001
0010
1000
0001
0100
1000
0001
0000
,
1000
0010
0100
0001
1000
0000
0001
0000
,
1000
0100
0010
0100
1000
0000
0001
0100
,
0010
1000
0010
1000
0001
0010
0100
1000
,
0001
0000
0001
0010
0100
0000
0100
1000
,
0010
0100
0001
1000
0100
0010
0001
0000
,
1000
0000
1000
0010
0100
0000
0100
0001
,
1000
0100
0010
0001
1000
0001
0010
0100
,
1000
0000
1000
0010
0001
0000
0001
0010
,
1000
0010
0100
0001
1000
0100
0010
0000
,
0001
0000
0001
0100
1000
0000
1000
0100
,
0001
1001
0110
0001
,
1000
0010
1000
0010
0000
0100
0001
1000
,
0000
0000
0001
0010
0100
1000
0100
0010
,
0001
0101
1100
1100
,
0011
0000
1010
0000
0011
0000
0001
1000
,
0001
0100
0001
0100
0000
0010
1000
0001
,
0000
0000
1000
0100
0010
0001
0010
0100
,
1000
1010
0011
0011
,
1000
0001
1000
0001
1000
0100
0010
0001
,
1000
0000
0010
0100
0001
0000
1000
0100
,
0010
0000
0001
1000
0010
0000
0100
0001
,
1000
0000
0001
0010
0100
0000
1000
0001
,
0100
0000
0010
1000
0001
0010
0100
1000
,
0001
0000
0100
0010
1000
0000
0001
0010
,
0100
0000
1000
0001
0100
0000
0010
1000
,
0001
0000
1000
0100
0010
0000
0001
1000
,
0010
0100
0010
0100
0001
0010
0100
1000
,
0002
0000
2003
0000
,
3002
0000
0000
0000
0000
0000
1003
0010
,
2000
0000
0000
3100
0020
0000
0000
0031
,
2000
0000
3002
0000
,
0203
0000
0000
0310
2000
0000
0000
0000
,
3002
0000
0000
0000
0000
0000
1003
0100
,
2000
0000
0000
3010
0200
0000
0000
0301
,
2000
0000
0000
0000
,
3002
0000
0000
0000
,
1003
0000
0000
0000
,
1000
0010
0100
0010
1000
0001
1000
0000
,
0001
0010
0100
1000
0001
0000
1000
0000
,
0001
0100
1000
0100
0001
0000
1000
0001
,
1000
0100
0010
1001
,
0001
0100
0010
0100
0001
1000
0001
0000
,
1000
0100
0010
0001
1000
0000
0001
0000
,
1000
0010
0001
0010
1000
0000
0001
1000
,
0100
0010
0100
0010
0001
0100
0010
1000
,
0001
0000
0000
0000
;

//---------------dance-single - ----------------
#NOTEDATA:;
#CHARTNAME:;
#STEPSTYPE:dance-single;
#DESCRIPTION:;
#CHARTSTYLE:;
#DIFFICULTY:Hard;
#METER:2;
#RADARVALUES:0.092081,0.196675,0.000000,0.049582,0.000000,78.000000,78.000000,0.000000,6.000000,0.000000,0.000000,0.000000,0.000000,0.000000,0.092081,0.196675,0.000000,0.049582,0.000000,78.000000,78.000000,0.000000,6.000000,0.000000,0.000000,0.000000,0.000000,0.000000;
#CREDIT:;
#NOTES:
0000
0000
0000
0000
,
0000
0000
0000
0000
,
0000
0000
0000
0000
,
0000
0000
0000
0000
,
0000
0000
0000
0000
,
0000
0000
0000
0000
,
0000
0000
0000
0000
,
0000
0000
0000
0000
,
0000
0000
0000
0000
,
2000
0000
0000
0000
,
3000
0000
0000
0000
,
0002
0000
0000
0000
,
0003
0000
0000
0000
,
1000
0000
0000
0000
,
0001
0000
0000
0000
,
1000
0000
0001
0000
,
1000
1000
0001
0001
,
1000
0000
0000
0000
,
0001
0000
0100
0000
,
0001
0000
0000
0000
,
1000
0000
0010
0000
,
1000
0000
0000
0000
,
0001
0000
0010
0000
,
0001
0000
0000
0000
,
1000
0000
0100
0000
,
1000
0000
0000
0000
,
0001
0000
0001
0000
,
1000
0000
1000
0000
,
0010
0000
0010
0000
,
0100
0000
0100
0000
,
0001
0000
0001
0000
,
1000
0000
1000
0000
,
0100
0000
0100
0000
,
0010
0000
0010
0000
,
0001
0000
0000
0000
,
1000
0000
0000
0000
,
0010
0000
0000
0000
,
0100
0000
0000
0000
,
0001
0000
0000
0000
,
1000
0000
0000
0000
,
0100
0000
0000
0000
,
0010
0000
0000
0000
,
0001
0000
0000
0000
,
0100
0000
0000
0000
,
0010
0000
0000
0000
,
1000
0000
0000
0000
,
0001
0000
0000
0000
,
0010
0000
0000
0000
,
0100
0000
0000
0000
,
1000
0000
0000
0000
,
0001
0000
0000
0000
,
2000
0000
0000
0000
,
3000
0000
0000
0000
,
0020
0000
0000
0000
,
0030
0000
0000
0000
,
0200
0000
0000
0000
,
0300
0000
0000
0000
,
0002
0000
0000
0000
,
0003
0000
0000
0000
,
1000
0000
0000
0000
,
0001
0000
1000
0000
,
0001
0000
1000
0000
,
0010
0000
0100
0000
,
0010
0000
0100
0000
,
0001
0000
1000
0000
,
0001
0000
1000
0000
,
0100
0000
0010
0000
,
0100
0000
0010
0000
,
0001
0000
0000
0000
;

//---------------dance-single - ----------------
#NOTEDATA:;
#CHARTNAME:;
#STEPSTYPE:dance-single;
#DESCRIPTION:;
#CHARTSTYLE:;
#DIFFICULTY:Medium;
#METER:1;
#RADARVALUES:0.092081,0.196675,0.000000,0.049582,0.000000,78.000000,78.000000,0.000000,6.000000,0.000000,0.000000,0.000000,0.000000,0.000000,0.092081,0.196675,0.000000,0.049582,0.000000,78.000000,78.000000,0.000000,6.000000,0.000000,0.000000,0.000000,0.000000,0.000000;
#CREDIT:;
#NOTES:
// measure 0
0000
0000
0000
0000
,  // measure 1
0000
0000
0000
0000
,  // measure 2
0000
0000
0000
0000
,  // measure 3
0000
0000
0000
0000
,  // measure 4
0000
0000
0000
0000
,  // measure 5
0000
0000
0000
0000
,  // measure 6
0000
0000
0000
0000
,  // measure 7
0000
0000
0000
0000
,  // measure 8
0000
0000
0000
0000
,  // measure 9
2000
0000
0000
0000
,  // measure 10
3000
0000
0000
0000
,  // measure 11
0002
0000
0000
0000
,  // measure 12
0003
0000
0000
0000
,  // measure 13
1000
0000
0000
0000
,  // measure 14
0001
0000
0000
0000
,  // measure 15
1000
0000
0001
0000
,  // measure 16
1000
1000
0001
0001
,  // measure 17
1000
0000
0000
0000
,  // measure 18
0001
0000
1000
0000
,  // measure 19
0001
0000
0000
0000
,  // measure 20
1000
0000
0001
0000
,  // measure 21
1000
0000
0000
0000
,  // measure 22
0001
0000
1000
0000
,  // measure 23
0001
0000
0000
0000
,  // measure 24
1000
0000
1000
0000
,  // measure 25
1000
0000
0000
0000
,  // measure 26
0001
0000
0001
0000
,  // measure 27
1000
0000
1000
0000
,  // measure 28
0001
0000
0001
0000
,  // measure 29
1000
0000
1000
0000
,  // measure 30
0001
0000
0001
0000
,  // measure 31
1000
0000
1000
0000
,  // measure 32
1000
0000
1000
0000
,  // measure 33
0001
0000
0001
0000
,  // measure 34
0001
0000
0000
0000
,  // measure 35
1000
0000
0000
0000
,  // measure 36
0001
0000
0000
0000
,  // measure 37
1000
0000
0000
0000
,  // measure 38
0001
0000
0000
0000
,  // measure 39
1000
0000
0000
0000
,  // measure 40
1000
0000
0000
0000
,  // measure 41
0001
0000
0000
0000
,  // measure 42
0001
0000
0000
0000
,  // measure 43
1000
0000
0000
0000
,  // measure 44
0001
0000
0000
0000
,  // measure 45
1000
0000
0000
0000
,  // measure 46
0001
0000
0000
0000
,  // measure 47
0001
0000
0000
0000
,  // measure 48
1000
0000
0000
0000
,  // measure 49
1000
0000
0000
0000
,  // measure 50
0001
0000
0000
0000
,  // measure 51
2000
0000
0000
0000
,  // measure 52
3000
0000
0000
0000
,  // measure 53
0002
0000
0000
0000
,  // measure 54
0003
0000
0000
0000
,  // measure 55
2000
0000
0000
0000
,  // measure 56
3000
0000
0000
0000
,  // measure 57
0002
0000
0000
0000
,  // measure 58
0003
0000
0000
0000
,  // measure 59
1000
0000
0000
0000
,  // measure 60
0001
0000
1000
0000
,  // measure 61
0001
0000
1000
0000
,  // measure 62
0001
0000
1000
0000
,  // measure 63
0001
0000
1000
0000
,  // measure 64
0001
0000
1000
0000
,  // measure 65
0001
0000
1000
0000
,  // measure 66
1000
0000
0001
0000
,  // measure 67
1000
0000
0001
0000
,  // measure 68
0001
0000
0000
0000
;
