#TITLE:Blue Moon Of Kentucky (Spankox ReVersion);
#SUBTITLE:;
#ARTIST:Elvis Presley vs. Spankox;
#TITLETRANSLIT:;
#SUBTITLETRANSLIT:;
#ARTISTTRANSLIT:;
#GENRE:;
#CREDIT:BadWolf;
#BANNER:Blue Moon Of Kentucky (Spankox ReVersion).png;
#BACKGROUND:Blue Moon Of Kentucky (Spankox ReVersion)-bg.png;
#LYRICSPATH:;
#CDTITLE:cdtitle.png;
#MUSIC:Blue Moon Of Kentucky (Spankox ReVersion).ogg;
#OFFSET:-0.400000;
#SAMPLESTART:51.113445;
#SAMPLELENGTH:18.345322;
#SELECTABLE:YES;
#BPMS:0.000000=111.195000
,192.000000=113.500000
;
#STOPS:
;
#BGCHANGES:-0.741=VJ PACHA MIX BY ANGEL ZORRILLA_0001.MPEG=1.000=0=0=1===CrossFade_Fastest==,
211.000=Blue Moon Of Kentucky (Spankox ReVersion)-bg.png=1.000=0=0=1===CrossFade_Fastest==,
99999=-nosongbg-=1.000=0=0=0 // don't automatically add -songbackground-
;
#KEYSOUNDS:;
#ATTACKS:;

//---------------dance-single - ----------------
#NOTES:
     dance-single:
     :
     Edit:
     9:
     0.594172,0.530686,0.000000,0.061165,0.506794,476.000000,476.000000,0.000000,7.000000,0.000000,0.000000,0.594172,0.530686,0.000000,0.061165,0.506794,476.000000,476.000000,0.000000,7.000000,0.000000,0.000000:
0000
0000
0000
0000
,
0000
0000
0000
0000
,
0000
0000
0000
0000
,
0000
0000
0000
0000
0000
0000
0000
0000
0000
1000
0100
0010
0001
0000
1000
0000
,
0001
0000
0100
0000
0010
1000
0000
1000
0001
0000
1000
0000
0010
0100
0010
0000
,
1000
0000
0100
0000
0010
0001
0000
0001
0100
0000
0010
0000
1000
0001
1000
0000
,
0100
0000
0010
0000
0100
1000
0000
1000
0010
0000
0100
0000
0001
1000
0001
0000
,
0100
0000
0010
0000
0100
0001
0000
0001
1000
0000
0100
0000
0010
0001
0010
0001
,
1000
0000
0010
0000
0001
0000
0010
0000
1000
0001
0000
0001
0100
0000
0010
1000
,
0001
0000
0010
0000
0100
1000
0000
1000
0001
0000
0100
0000
0010
0000
1000
0000
,
0001
0000
1000
0100
0010
0000
0001
0000
0100
0000
0010
0000
1000
0000
0001
0000
,
1000
0000
0001
0000
1000
0100
0000
0100
0010
0000
0001
0000
1000
0001
1000
0000
,
0001
0000
0100
0010
0100
0000
1000
0100
1000
0000
0100
0010
0100
0000
0001
0000
,
1000
0000
0010
0100
0010
0000
1000
0001
0010
0000
0010
0000
0010
0000
0010
0000
,
0001
0000
0100
0010
0100
0000
0010
1000
0001
0000
0100
0001
1000
0000
0100
0000
,
1000
0010
1000
0000
0001
0100
0001
0000
0010
0000
0010
0000
0010
0000
0010
0000
,
0001
1000
0001
0000
0100
0000
0010
1000
0001
0000
0010
0100
0000
0100
1000
0000
,
0001
0100
1000
0100
0010
0100
1000
0100
,
0001
0000
0010
0100
1000
0000
0010
0000
0100
0000
0001
1000
0100
0000
0010
0000
,
0001
0000
1000
0000
0010
0100
0010
0000
1000
0000
0001
0000
0010
0100
0010
0000
,
0002
0100
0100
0103
2000
0100
0100
3100
,
0002
0010
0010
0013
2000
0010
0010
3010
,
0002
1000
1000
1003
2000
0001
0001
3001
,
0002
0000
1000
0000
1000
0000
1003
0000
0000
1000
0100
0010
0001
0000
1000
0000
,
0001
0000
0100
0000
0010
0000
1000
0000
0001
0010
0001
0010
0000
0100
0000
1000
,
0001
0000
0100
0010
0100
0000
0001
1000
0001
0000
1000
0000
0100
0010
0001
0000
,
1000
0000
0010
0000
0100
0001
0000
0001
0100
0000
0010
0000
1000
0001
1000
0000
,
0010
0000
0100
0000
0010
1000
0000
1000
0001
0000
0010
0000
0100
0000
1000
0000
,
0001
0000
0100
0000
1000
0000
0100
0000
0001
1000
0000
1000
0010
0000
0100
0001
,
1000
0000
0100
0000
0010
0001
0000
0001
1000
0000
0010
0000
0100
0000
0001
0000
,
1000
0000
0001
0010
0100
0000
1000
0000
0010
0000
0100
0000
0001
0000
1000
0000
,
0001
0000
1000
0000
0001
0010
0000
0010
0100
0000
1000
0000
0001
1000
0001
0000
,
1000
0000
0010
0100
0010
0000
0001
0010
0001
0000
0010
0100
0010
0000
1000
0000
,
0001
0000
0100
0010
0100
0000
0001
1000
0100
0000
0100
0000
0100
0000
0100
0000
,
1000
0000
0010
0100
0010
0000
0100
0001
1000
0000
0010
1000
0001
0000
0010
0000
,
0001
0100
0001
0000
1000
0010
1000
0000
0100
0000
0100
0000
0100
0000
0100
0000
,
1000
0001
1000
0000
0010
0000
0100
0001
1000
0000
0100
0010
0000
0010
0001
0000
,
1000
0010
0001
0010
0100
0010
0001
0010
,
1000
0000
0100
0010
0001
0000
0100
0000
0010
0000
1000
0001
0010
0000
0100
0000
,
1000
0000
0001
0000
0100
0010
0100
0000
0000
0001
0010
0100
1000
0000
0001
0000
,
1000
0000
0010
0000
0100
0001
0000
0001
1000
0000
0001
0000
0100
0010
0100
0000
,
0001
0000
0010
0000
0100
1000
0000
1000
0010
0000
0100
0000
0001
1000
0001
0000
,
0010
0000
0100
0000
0010
0001
0000
0001
0100
0000
0010
0000
1000
0001
1000
0000
,
0010
0000
0100
0000
0010
1000
0000
1000
0001
0000
0010
0000
0100
1000
0100
1000
,
0001
0000
0100
0000
1000
0000
0100
0000
0001
1000
0000
1000
0010
0000
0100
0001
,
1000
0000
0100
0000
0010
0001
0000
0001
1000
0000
0010
0000
0100
0000
0001
0000
,
1000
0000
0001
0010
0100
0000
1000
0000
0010
0000
0100
0000
0001
0000
1000
0000
,
0001
0000
1000
0000
0001
0010
0000
0010
0100
0000
1000
0000
0001
1000
0001
0000
,
1000
0000
0100
0000
0010
0001
0000
0000
1000
0000
0010
0000
0100
0001
0000
0000
,
0010
0000
0100
0000
1000
0001
0000
0000
0100
0000
0010
0000
1000
0001
0000
0000
,
1000
0000
0100
0000
0010
0001
0000
0000
1000
0000
0010
0000
0100
0001
0000
0000
,
0010
0000
0100
0000
1000
0001
0000
0000
0100
0000
0010
0000
1000
0001
0000
0000
,
1000
0000
0100
0000
0010
0001
0000
0000
1000
0000
0010
0000
0100
0001
0000
0000
;

//---------------dance-single - ----------------
#NOTES:
     dance-single:
     :
     Challenge:
     8:
     0.468098,0.483966,0.000000,0.069903,0.126698,375.000000,375.000000,0.000000,8.000000,0.000000,0.000000,0.468098,0.483966,0.000000,0.069903,0.126698,375.000000,375.000000,0.000000,8.000000,0.000000,0.000000:
0000
0000
0000
0000
,
0000
0000
0000
0000
,
0000
0000
0000
0000
,
0000
0000
0000
0000
0000
0000
0000
0000
0000
1000
0001
1000
0001
0000
1000
0000
,
0001
0100
1000
0100
0001
0010
0100
1000
,
0010
0100
0001
1000
0100
0010
0001
1000
,
0010
0010
0100
0001
1000
0100
0010
0001
,
0100
0000
0100
0000
0010
0000
1000
0000
0001
0000
0010
0000
0100
1000
0100
1000
,
0001
0100
0010
0100
1000
0100
0010
0100
,
0001
0010
0100
1000
0001
1000
0100
0010
,
0001
0000
1000
0010
1000
0000
0100
0000
0010
0000
0100
0000
1000
0000
0001
0000
,
1000
0010
0001
0010
0100
0010
1000
0001
,
1000
0100
0010
0000
0001
0010
0100
0000
,
1000
0010
0001
0010
1000
1000
1000
1000
,
0001
0010
0100
0000
1000
0100
0010
0000
,
0001
0100
1000
0100
0001
0001
0001
0001
,
0100
0010
0100
0000
0010
0000
1000
0000
0001
0000
0010
0100
0000
0100
1000
0000
,
0001
0100
1000
0100
0001
0100
1000
0100
,
0001
1000
0001
0000
1000
0000
0100
0010
0001
0000
1000
0001
0000
0001
1000
0000
,
0001
0010
0100
0000
1000
0100
0010
0000
,
0002
0100
0100
0103
,
2000
0100
0100
3100
,
0002
0010
0010
0013
,
1000
0000
0000
0000
0001
0000
0000
0000
1000
0001
1000
0001
1000
0000
0001
0000
,
1000
0000
0010
0000
0001
0000
0010
0000
1000
0001
1000
0001
1000
0000
0001
0000
,
0100
0010
1000
0001
1000
1000
0001
0001
,
0100
0100
0010
1000
0001
0010
0100
1000
,
0010
0010
0100
0001
1000
0100
0010
0001
,
1000
0010
0100
0010
0001
0010
0100
0010
,
1000
0100
0010
0001
1000
0001
0010
0100
,
1000
0000
0001
0100
0001
0000
0010
0000
0100
0000
0010
0000
0001
0000
1000
0000
,
0001
0100
1000
0100
0010
0100
0001
1000
,
0001
0010
0100
0000
1000
0100
0010
0000
,
0001
0100
1000
0100
0001
0001
0001
0001
,
1000
0100
0010
0000
0001
0010
0100
0000
,
1000
0010
0001
0010
1000
1000
1000
1000
,
0010
0100
0010
0000
0100
0000
0001
0000
1000
0000
0100
0010
0000
0010
0001
0000
,
1000
0010
0001
0010
1000
0010
0001
0010
,
1000
0001
1000
0000
0001
0000
0010
0100
1000
0000
0001
1000
0000
1000
0001
0000
,
1000
0000
0100
0000
0010
0000
0001
0000
0000
1000
0001
1000
0001
0000
1000
0000
,
0001
0100
1000
0100
0001
0010
0100
1000
,
0010
0100
0001
1000
0100
0010
0001
1000
,
0010
0010
0100
0001
1000
0100
0010
0001
,
0100
0000
0100
0000
0010
0000
1000
0000
0001
0000
0010
0000
0100
1000
0100
1000
,
0001
0100
0010
0100
1000
0100
0010
0100
,
0001
0010
0100
1000
0001
1000
0100
0010
,
0001
0000
1000
0010
1000
0000
0100
0000
0010
0000
0100
0000
1000
0000
0001
0000
,
1000
0010
0001
0010
0100
0010
1000
0001
,
2000
0100
0010
3001
,
0002
0100
0010
1003
,
2000
0010
0100
3001
,
0002
0010
0100
1003
,
2000
0100
0010
3001
;

//---------------dance-single - ----------------
#NOTES:
     dance-single:
     :
     Hard:
     6:
     0.333285,0.345690,0.000000,0.209708,0.000000,267.000000,267.000000,0.000000,24.000000,0.000000,0.000000,0.333285,0.345690,0.000000,0.209708,0.000000,267.000000,267.000000,0.000000,24.000000,0.000000,0.000000:
0000
0000
0000
0000
,
0000
0000
0000
0000
,
0000
0000
0000
0000
,
0000
0000
0000
0000
0000
0001
0010
0100
,
2000
0000
3010
0000
1000
0001
1000
0000
,
0200
0000
0310
0000
0001
1000
0001
0000
,
0020
0000
0130
0000
1000
0001
1000
0000
,
0002
0000
1003
0000
0001
1000
0001
0000
,
1000
0100
0010
0000
0100
1000
0001
0000
,
0100
0010
0100
0000
0001
1000
0001
0000
,
0010
0000
0100
0000
1000
0010
0001
0000
,
0010
1000
0001
0000
1000
0001
1000
0000
,
0001
1000
0001
0000
0010
0000
0100
0000
,
2000
0000
3002
0000
1003
1000
0001
0001
,
1000
0001
1000
0000
0100
0000
0010
0000
,
0002
0000
2003
0000
3001
0001
1000
1000
,
0001
0100
0010
0000
1000
0100
0010
0000
,
0001
0100
0001
0100
0010
1000
0010
1000
,
0001
0100
1000
0000
1000
0100
0001
0000
,
1000
0100
0010
0000
0001
1000
0001
0000
,
2000
0000
0010
0000
0010
0000
0010
3000
,
0002
0100
0100
0103
,
2000
0001
0001
3001
,
0001
0000
0010
0000
0100
1000
0001
1000
,
0001
0000
0010
0000
0100
1000
0001
0000
,
1000
0000
0010
0000
1000
1000
0001
0001
,
0010
0000
0100
0000
1000
0001
1000
0000
,
0010
1000
0001
0000
0010
0001
1000
0000
,
0001
0000
0010
0000
0100
1000
0001
0000
,
0100
0000
0010
0000
1000
0001
1000
0000
,
0001
0000
0100
0000
0010
1000
0001
1000
,
0001
0000
1000
0000
0100
0010
0001
0000
,
1000
0001
1000
0000
0100
0000
0010
0000
,
0002
0000
2003
0000
3001
0001
1000
1000
,
0001
1000
0001
0000
0010
0000
0100
0000
,
2000
0000
3002
0000
1003
1000
0001
0001
,
1000
0010
0100
0000
0001
0010
0100
0000
,
1000
0010
1000
0010
0100
0001
0100
0001
,
1000
0010
0001
0000
0001
0010
1000
0000
,
0001
1000
0001
1000
0000
0001
0010
0100
,
2000
0000
3010
0000
1000
0001
1000
0000
,
0200
0000
0310
0000
0001
1000
0001
0000
,
0020
0000
0130
0000
1000
0001
1000
0000
,
0002
0000
1003
0000
0001
1000
0001
0000
,
1000
0100
0010
0000
0100
1000
0001
0000
,
0100
0010
0100
0000
0001
1000
0001
0000
,
0010
0000
0100
0000
1000
0010
0001
0000
,
0010
1000
0001
0000
1000
0001
1000
0000
,
0002
0100
0010
0103
,
2000
0100
0010
3100
,
0002
0010
0100
0013
,
2000
0010
0100
3010
,
0002
0100
0010
0103
;

//---------------dance-single - ----------------
#NOTES:
     dance-single:
     :
     Medium:
     3:
     0.215949,0.230460,0.000000,0.078640,0.000000,173.000000,173.000000,0.000000,9.000000,0.000000,0.000000,0.215949,0.230460,0.000000,0.078640,0.000000,173.000000,173.000000,0.000000,9.000000,0.000000,0.000000:
0000
0000
0000
0000
,
0000
0000
0000
0000
,
0000
0000
0000
0000
,
0000
0000
0000
0000
,
1000
0010
0100
0001
,
0010
0100
1000
0001
,
0100
0010
1000
0001
,
1000
0100
0010
0001
,
0100
0100
0010
0010
,
1000
0001
0010
0100
,
1000
1000
0001
0001
,
1000
0010
0100
0001
,
1000
0001
1000
0001
,
0100
0000
0010
0000
1000
0001
1000
0000
,
0001
1000
0001
1000
,
0100
0000
0010
0000
0001
1000
0001
0000
,
1000
0010
0001
0010
,
1000
1000
0001
0001
,
1000
0100
0010
0001
,
0100
0010
1000
0001
,
2000
0000
0000
0000
,
3002
0000
0000
0000
,
0023
0000
0000
0000
,
0230
0000
0000
0000
,
1300
0010
0100
0001
,
0010
0100
1000
0001
,
0100
0010
1000
0001
,
1000
0100
0010
0001
,
0100
0100
0010
0010
,
1000
0001
0010
0100
,
1000
1000
0001
0001
,
1000
0010
0100
0001
,
1000
0001
1000
0001
,
0100
0000
0010
0000
1000
0001
1000
0000
,
0001
1000
0001
1000
,
0100
0000
0010
0000
0001
1000
0001
0000
,
1000
0010
0001
0010
,
1000
1000
0001
0001
,
1000
0100
0010
0001
,
0100
0010
1000
0001
,
1000
0100
0010
0001
,
0100
0010
1000
0001
,
0010
0100
1000
0001
,
1000
0010
0100
0001
,
0010
0010
0100
0100
,
1000
0001
0100
0010
,
1000
1000
0001
0001
,
1000
0100
0010
0001
,
2000
0000
0000
0000
,
3002
0000
0000
0000
,
0203
0000
0000
0000
,
0320
0000
0000
0000
,
2030
0000
0000
3000
;

//---------------dance-single - ----------------
#NOTES:
     dance-single:
     :
     Easy:
     1:
     0.111095,0.115230,0.000000,0.078640,0.000000,89.000000,89.000000,0.000000,9.000000,0.000000,0.000000,0.111095,0.115230,0.000000,0.078640,0.000000,89.000000,89.000000,0.000000,9.000000,0.000000,0.000000:
0000
0000
0000
0000
,
0000
0000
0000
0000
,
0000
0000
0000
0000
,
0000
0000
0000
0000
,
1000
0000
0001
0000
,
1000
0000
0001
0000
,
0100
0000
0010
0000
,
0100
0000
0010
0000
,
1000
0000
1000
0000
,
0001
0000
0001
0000
,
0010
0000
0010
0000
,
0100
0000
0100
0000
,
1000
0000
0001
0000
,
1000
0000
1000
0000
,
0010
0000
0100
0000
,
0010
0000
0010
0000
,
1000
0000
0100
0000
,
0010
0000
0001
0000
,
1000
0000
0010
0000
,
0100
0000
0001
0000
,
2000
0000
0000
3000
,
0002
0000
0000
0003
,
0200
0000
0000
0300
,
0020
0000
0000
0030
,
1000
0000
0001
0000
,
1000
0000
0001
0000
,
0100
0000
0010
0000
,
0100
0000
0010
0000
,
1000
0000
1000
0000
,
0001
0000
0001
0000
,
0010
0000
0010
0000
,
0100
0000
0100
0000
,
1000
0000
0001
0000
,
1000
0000
1000
0000
,
0010
0000
0100
0000
,
0010
0000
0010
0000
,
1000
0000
0100
0000
,
0010
0000
0001
0000
,
1000
0000
0010
0000
,
0100
0000
0001
0000
,
1000
0000
0001
0000
,
1000
0000
0001
0000
,
0010
0000
0100
0000
,
0010
0000
0100
0000
,
1000
0000
1000
0000
,
0001
0000
0001
0000
,
0100
0000
0100
0000
,
0010
0000
0010
0000
,
2000
0000
0000
3000
,
0002
0000
0000
0003
,
0200
0000
0000
0300
,
0020
0000
0000
0030
,
2000
0000
0000
3000
;

//---------------dance-single - ----------------
#NOTES:
     dance-single:
     :
     Beginner:
     1:
     0.111095,0.115230,0.000000,0.078640,0.000000,89.000000,89.000000,0.000000,9.000000,0.000000,0.000000,0.111095,0.115230,0.000000,0.078640,0.000000,89.000000,89.000000,0.000000,9.000000,0.000000,0.000000:
// measure 0
0000
0000
0000
0000
,  // measure 1
0000
0000
0000
0000
,  // measure 2
0000
0000
0000
0000
,  // measure 3
0000
0000
0000
0000
,  // measure 4
1000
0000
0001
0000
,  // measure 5
1000
0000
0001
0000
,  // measure 6
1000
0000
0001
0000
,  // measure 7
1000
0000
0001
0000
,  // measure 8
1000
0000
1000
0000
,  // measure 9
0001
0000
0001
0000
,  // measure 10
1000
0000
1000
0000
,  // measure 11
1000
0000
1000
0000
,  // measure 12
1000
0000
0001
0000
,  // measure 13
1000
0000
1000
0000
,  // measure 14
0001
0000
1000
0000
,  // measure 15
0001
0000
0001
0000
,  // measure 16
1000
0000
1000
0000
,  // measure 17
0001
0000
0001
0000
,  // measure 18
1000
0000
0001
0000
,  // measure 19
1000
0000
0001
0000
,  // measure 20
2000
0000
0000
3000
,  // measure 21
0002
0000
0000
0003
,  // measure 22
2000
0000
0000
3000
,  // measure 23
0002
0000
0000
0003
,  // measure 24
1000
0000
0001
0000
,  // measure 25
1000
0000
0001
0000
,  // measure 26
1000
0000
0001
0000
,  // measure 27
1000
0000
0001
0000
,  // measure 28
1000
0000
1000
0000
,  // measure 29
0001
0000
0001
0000
,  // measure 30
0001
0000
0001
0000
,  // measure 31
1000
0000
1000
0000
,  // measure 32
1000
0000
0001
0000
,  // measure 33
1000
0000
1000
0000
,  // measure 34
0001
0000
1000
0000
,  // measure 35
0001
0000
0001
0000
,  // measure 36
1000
0000
1000
0000
,  // measure 37
0001
0000
0001
0000
,  // measure 38
1000
0000
0001
0000
,  // measure 39
1000
0000
0001
0000
,  // measure 40
1000
0000
0001
0000
,  // measure 41
1000
0000
0001
0000
,  // measure 42
0001
0000
1000
0000
,  // measure 43
0001
0000
1000
0000
,  // measure 44
1000
0000
1000
0000
,  // measure 45
0001
0000
0001
0000
,  // measure 46
1000
0000
1000
0000
,  // measure 47
0001
0000
0001
0000
,  // measure 48
2000
0000
0000
3000
,  // measure 49
0002
0000
0000
0003
,  // measure 50
2000
0000
0000
3000
,  // measure 51
0002
0000
0000
0003
,  // measure 52
2000
0000
0000
3000
;
