#VERSION:0.83;
#TITLE:Blue (Da Ba Dee);
#SUBTITLE:;
#ARTIST:Eiffel 65;
#TITLETRANSLIT:;
#SUBTITLETRANSLIT:;
#ARTISTTRANSLIT:;
#GENRE:;
#ORIGIN:;
#CREDIT:BadWolf;
#BANNER:Blue (Da Ba Dee).png;
#BACKGROUND:Blue (Da Ba Dee)-bg.png;
#PREVIEWVID:;
#JACKET:Blue (Da Ba Dee)-jacket.png;
#CDIMAGE:;
#DISCIMAGE:;
#LYRICSPATH:;
#CDTITLE:cdtitle.png;
#MUSIC:Blue (Da Ba Dee).ogg;
#OFFSET:-0.280000;
#SAMPLESTART:58.741188;
#SAMPLELENGTH:14.999996;
#SELECTABLE:YES;
#DISPLAYBPM:128.000000;
#BPMS:0.000=128.000,
24.000=170.000,
25.000=128.000;
#STOPS:;
#DELAYS:;
#WARPS:;
#TIMESIGNATURES:0.000=4=4;
#TICKCOUNTS:0.000=4;
#COMBOS:0.000=1;
#SPEEDS:0.000=1.000=0.000=0;
#SCROLLS:0.000=1.000;
#FAKES:;
#LABELS:0.000=Song Start;
#BGCHANGES:-0.597=POP Jr.AVI=1.000=0=0=1===CrossFade_Fastest==,
188.000=Blue (Da Ba Dee)-bg.png=1.000=0=0=1===CrossFade_Fastest==,
99999=-nosongbg-=1.000=0=0=0 // don't automatically add -songbackground-
;
#KEYSOUNDS:;
#ATTACKS:
;

//---------------dance-single - ----------------
#NOTEDATA:;
#CHARTNAME:;
#STEPSTYPE:dance-single;
#DESCRIPTION:;
#CHARTSTYLE:;
#DIFFICULTY:Edit;
#METER:9;
#RADARVALUES:0.573231,0.505655,0.054371,0.000000,0.076120,369.000000,364.000000,5.000000,0.000000,0.000000,0.000000,0.000000,0.000000,0.000000,0.573231,0.505655,0.054371,0.000000,0.076120,369.000000,364.000000,5.000000,0.000000,0.000000,0.000000,0.000000,0.000000,0.000000;
#CREDIT:;
#DISPLAYBPM:128.000000;
#NOTES:
0000
0000
0000
0000
,
0000
0000
0000
0000
,
1000
0100
1000
0100
0010
0001
0010
0100
,
1100
1000
0010
0100
0010
0100
0001
1000
,
0001
0010
0001
0010
0100
1000
1010
0010
,
0110
0100
0001
1000
0100
0010
0001
1000
,
0001
0000
1000
0001
1000
0010
1000
0010
,
0100
0000
0000
0000
0001
0000
1000
0001
1000
0000
0010
0000
0001
0000
0010
0000
,
0100
0001
1000
0100
0010
0001
0100
0010
,
1000
0100
0001
0100
1000
0010
0100
0010
,
0001
0010
0100
0010
1000
0001
0010
0100
,
1000
0010
0001
0010
1000
0100
0001
0100
,
0010
0001
1000
0010
0100
0001
0010
0100
,
1000
0010
0001
0010
1000
0100
0010
0100
,
0001
0100
0010
0100
1000
0001
1000
0001
,
0100
0000
0010
0000
1000
0001
1000
0001
1000
0000
0100
0000
1000
0000
0100
0000
,
0001
0100
0001
0100
1000
0100
0010
0001
,
0100
0000
0010
0000
1000
0000
0001
1000
0001
0000
0010
0000
0001
0000
0010
0000
,
1000
0010
1000
0010
0001
0010
0100
1000
,
0010
0000
0100
0000
0001
0000
1000
0001
1000
0000
0100
0000
0010
0000
0001
0000
,
0010
0100
1000
0010
0100
0001
1000
0000
,
0000
0001
1000
0001
0000
1000
0100
0001
,
0100
1000
0000
0010
0100
0001
1000
0100
,
0000
0000
0010
0001
0010
0000
0001
0000
1001
0000
1000
0000
0010
0000
0100
0000
,
1000
0000
0100
0000
0001
0000
0010
0100
0010
0000
0100
0000
1000
0000
0010
0000
,
0001
0000
0010
0000
1000
0000
0001
1000
0001
0000
0010
0000
0100
0000
0010
0000
,
0001
0000
0010
0000
0100
0000
1000
0010
1000
0000
0001
0000
1000
0000
0100
0000
,
0001
0000
0100
0000
1000
0000
0010
0100
0001
0000
1000
0000
0100
0000
0010
0000
,
1000
0000
0010
0000
0001
0000
0100
0010
0100
0000
0010
0000
1000
0000
0100
0000
,
0001
0000
0100
0000
1000
0000
0001
1000
0001
0000
0100
0000
0010
0000
0100
0000
,
0001
0000
0100
0000
0010
0000
1000
0000
0001
0000
0010
0000
0100
0000
1000
0001
,
1000
0000
0001
1000
0001
0000
1000
0000
0001
0000
0100
0000
1000
0000
0100
0000
,
0010
1000
0001
0010
0100
1000
0010
0100
,
0001
0010
1000
0010
0001
0100
0010
0100
,
1000
0100
0010
0100
0001
1000
0100
0010
,
0001
0100
1000
0100
0001
0010
1000
0010
,
0100
1000
0001
0100
0010
1000
0100
0010
,
0001
0100
1000
0100
0001
0010
0100
0010
,
1000
0010
0100
0010
0001
1000
0001
1000
,
0010
0100
0001
1000
1001
0001
1000
0100
,
0010
0001
1000
0010
0100
0001
0010
0100
,
1000
0010
0001
0010
1000
0100
0010
0100
,
0001
0100
0010
0100
1000
0001
0100
0010
,
1000
0100
0001
0100
1000
0010
0001
0010
,
0100
0001
1000
0100
0010
0001
0100
0010
,
1000
0100
0001
0100
1000
0010
0100
0010
,
0001
0010
0100
0010
1000
0000
0000
0000
;

//---------------dance-single - ----------------
#NOTEDATA:;
#CHARTNAME:;
#STEPSTYPE:dance-single;
#DESCRIPTION:;
#CHARTSTYLE:;
#DIFFICULTY:Challenge;
#METER:8;
#RADARVALUES:0.498664,0.455089,0.021749,0.043497,0.021749,321.000000,319.000000,2.000000,4.000000,0.000000,0.000000,0.000000,0.000000,0.000000,0.498664,0.455089,0.021749,0.043497,0.021749,321.000000,319.000000,2.000000,4.000000,0.000000,0.000000,0.000000,0.000000,0.000000;
#CREDIT:;
#DISPLAYBPM:128.000000;
#NOTES:
0000
0000
0000
0000
,
0000
0000
0000
0000
,
1000
0100
1000
0100
0000
0010
0001
1000
,
0001
0100
0001
0100
0010
1000
0010
1000
,
0100
0010
0001
0000
1000
0001
0100
0000
,
0001
0010
0001
0010
0100
1000
0010
0100
,
0001
0000
1000
0001
1000
0000
0010
0100
,
0010
1000
0001
0010
0001
0100
1000
0100
,
0001
0010
0100
1000
0000
0010
0100
0010
,
1000
0100
0010
0001
1000
0010
0001
0010
,
1000
0100
0010
0001
0000
0100
0010
0100
,
0001
0010
0100
1000
0001
0100
1000
0100
,
0001
0010
0100
1000
0000
0010
0100
0010
,
1000
0100
0010
0001
1000
0010
0001
0010
,
1000
0100
0010
0001
0000
0101
0000
1100
,
0000
0000
1000
0000
0001
1000
0000
1000
0001
0000
0100
0000
0010
0000
0100
0000
,
0001
0100
0010
1000
0100
0010
0001
0000
,
1000
0001
1000
0001
1000
0010
0001
0010
,
1000
0001
0000
0010
0100
1000
0001
0100
,
0000
0010
1000
0001
2000
0000
0010
0000
,
0100
3001
0002
0100
,
0010
1003
2000
0100
,
0010
3001
0002
1000
,
0103
0000
0000
0001
1000
0000
0001
0000
1000
0000
0100
0000
0010
0000
0100
0000
,
0001
0100
0010
0100
1000
0001
1000
0000
,
0010
0100
0001
0100
0001
0010
0100
0010
,
1000
0010
0100
0010
0001
1000
0001
0100
,
0010
1000
0001
0000
1000
0100
0001
0100
,
0010
0001
1000
0010
0100
0001
1000
0000
,
0100
0010
0001
0010
0100
1000
0010
0001
,
0010
1000
0100
0010
0001
0010
0100
1000
,
0001
0000
0000
1000
0001
0000
1000
0000
0001
0000
0100
0000
0010
0000
0100
0000
,
0001
0100
1000
0100
0000
0001
0010
0100
,
1000
0100
0010
0001
1000
0010
0100
0010
,
1000
0010
0001
0010
0000
1000
0100
0010
,
0001
0010
0100
1000
0001
0100
0010
0100
,
0001
0100
1000
0100
0000
0001
0010
0100
,
1000
0100
0010
0001
1000
0010
0100
0010
,
1000
0010
0001
0010
0000
1000
0100
0010
,
0000
0001
0010
0100
1000
0010
0100
0010
,
0001
0010
0100
0001
0000
1000
0100
0001
,
0100
1000
0100
0010
0001
0100
0010
0100
,
1000
0100
0010
1000
0000
0001
0010
1000
,
0010
0001
0010
0100
1000
0010
0100
0010
,
0001
0010
0100
0001
0000
1000
0100
0001
,
0100
1000
0100
0010
0001
0100
0010
0100
,
1000
0100
0010
1000
0001
0000
0000
0000
;

//---------------dance-single - ----------------
#NOTEDATA:;
#CHARTNAME:;
#STEPSTYPE:dance-single;
#DESCRIPTION:;
#CHARTSTYLE:;
#DIFFICULTY:Hard;
#METER:7;
#RADARVALUES:0.397688,0.379241,0.260983,0.021749,0.010874,256.000000,232.000000,24.000000,2.000000,0.000000,0.000000,0.000000,0.000000,0.000000,0.397688,0.379241,0.260983,0.021749,0.010874,256.000000,232.000000,24.000000,2.000000,0.000000,0.000000,0.000000,0.000000,0.000000;
#CREDIT:;
#DISPLAYBPM:128.000000;
#NOTES:
0000
0000
0000
0000
,
0000
0000
0000
0000
,
1000
0000
0100
0000
0010
0001
1000
0000
,
0010
0000
0100
0000
0001
1000
0100
0000
,
0010
0000
0100
0000
1000
0001
0100
0000
,
0001
0000
0010
0000
0100
1000
0001
0000
,
1000
0000
0000
0000
0001
0000
1000
0001
,
0100
0000
0001
1000
0001
0000
0010
0000
,
0100
1000
0100
1000
0000
0010
0100
0000
,
0001
0000
1001
0000
1000
0000
0100
0010
,
0100
0010
0001
1000
0000
0010
0100
0000
,
0011
0000
1010
0000
1000
0100
0001
0100
,
1000
0001
1000
0001
0000
0100
0010
0000
,
1000
1001
0001
0010
,
0100
1000
0100
1000
0000
0010
0000
0010
,
0000
0010
0000
0010
1000
0100
1000
0000
,
0100
0010
0100
0000
0010
0001
0010
0000
,
0001
1000
0001
1000
0001
0100
0001
0000
,
0100
0010
0100
0000
0010
1000
0010
0000
,
1000
0001
1000
0001
1000
0000
1010
0000
,
0000
0011
0000
1100
,
0000
0101
0000
0011
,
0000
1010
0000
1100
,
0000
0000
0000
0001
1000
0000
0001
0000
1000
0000
0010
0000
0100
0000
0010
0000
,
1000
0010
0100
0001
,
1000
0100
0010
0000
0001
0100
0010
0100
,
0001
0100
0010
1000
,
0001
0010
0100
0000
1000
0000
0110
0000
,
0001
0000
0110
0000
1000
0100
1000
0100
,
0010
0001
1000
0000
0001
0000
0110
0000
,
1000
0110
2002
0000
,
3003
0000
0000
0001
1000
0000
0001
0000
1000
0000
0000
0000
0100
0000
0000
0000
,
0010
0001
0010
0001
0000
0100
0010
0000
,
1000
0000
1001
0000
0001
0000
0010
0100
,
0010
0100
1000
0001
0000
0100
0010
0000
,
1100
0000
0101
0000
0001
0010
1000
0010
,
0001
1000
0001
1000
0000
0010
0100
0000
,
0001
1001
1000
0100
,
0010
0001
0010
0001
0000
1000
0010
0100
,
0000
0010
1000
0000
0001
0000
0010
0000
,
0100
1000
0100
1000
0000
0010
0100
0000
,
0001
0000
1001
0000
1000
0000
0100
0010
,
0100
0010
0001
1000
0000
0010
0100
0000
,
0011
0000
1010
0000
1000
0100
0001
0100
,
1000
0001
1000
0001
0000
0100
0010
0000
,
1000
1001
0001
0010
,
0100
1000
0100
1000
0001
0000
0000
0000
;

//---------------dance-single - ----------------
#NOTEDATA:;
#CHARTNAME:;
#STEPSTYPE:dance-single;
#DESCRIPTION:;
#CHARTSTYLE:;
#DIFFICULTY:Medium;
#METER:6;
#RADARVALUES:0.379047,0.379241,0.337103,0.076120,0.000000,244.000000,213.000000,31.000000,7.000000,0.000000,0.000000,0.000000,0.000000,0.000000,0.379047,0.379241,0.337103,0.076120,0.000000,244.000000,213.000000,31.000000,7.000000,0.000000,0.000000,0.000000,0.000000,0.000000;
#CREDIT:;
#DISPLAYBPM:128.000000;
#NOTES:
0000
0000
0000
0000
,
0000
0000
0000
0000
,
1000
0010
0100
0001
,
1001
0000
1000
0000
0100
0010
0100
0000
,
0010
0000
0001
0000
1000
0001
1000
0000
,
1001
0000
0001
0000
0100
0010
0100
0000
,
0010
0000
1000
0001
,
1000
0100
0010
0001
1000
0000
0010
0100
,
0010
0000
0100
0001
0000
0001
1000
0000
,
1100
0000
0101
0000
0001
0000
0010
0100
,
0010
0000
0100
1000
0000
1000
0001
0000
,
0101
0000
1100
0000
1000
0000
0001
0100
,
0001
0000
1000
0100
0000
0100
0010
0000
,
0011
0000
1001
0000
0001
0000
1000
0010
,
1000
0000
0001
0010
0000
0100
0000
0100
,
0000
0100
0000
0100
1000
0000
0010
0000
,
0001
0010
1000
0100
,
0001
0100
1000
0010
,
0100
0001
1000
0100
,
0010
0001
2000
0000
,
3002
0000
0203
0000
,
0320
0000
2030
0000
,
3002
0000
0023
0000
,
0130
0000
1000
0001
1000
0000
0010
0100
,
0010
0000
1000
0100
0010
0000
0001
0010
,
0100
0000
1001
0000
0110
0000
0001
1000
,
0100
0000
0010
0001
1000
0000
0010
0100
,
0001
0000
0110
0000
1001
0000
0100
0010
,
0100
0000
0001
0010
0100
0000
1000
0100
,
0010
0000
1001
0000
0110
0000
1000
0001
,
0010
0000
0100
1000
0001
1000
0001
1000
,
0000
0000
1001
0000
0001
0000
0100
0010
,
0100
0000
0010
1000
0000
1000
0001
0000
,
0011
0000
1010
0000
1000
0000
0100
0010
,
0100
0000
0010
0001
0000
0001
1000
0000
,
1010
0000
0011
0000
0001
0000
1000
0010
,
1000
0000
0001
0010
0000
0010
0100
0000
,
1100
0000
1001
0000
1000
0000
0001
0100
,
0001
0000
1000
0100
0000
1100
0000
0101
,
0000
0011
0000
1010
1000
0000
0010
0100
,
0010
0000
0100
0001
0000
0001
1000
0000
,
1100
0000
0101
0000
0001
0000
0010
0100
,
0010
0000
0100
1000
0000
1000
0001
0000
,
0101
0000
1100
0000
1000
0000
0001
0100
,
0001
0000
1000
0100
0000
0100
0010
0000
,
0011
0000
1001
0000
0001
0000
1000
0010
,
1000
0000
0001
0010
0100
0000
0000
0000
;

//---------------dance-single - ----------------
#NOTEDATA:;
#CHARTNAME:;
#STEPSTYPE:dance-single;
#DESCRIPTION:;
#CHARTSTYLE:;
#DIFFICULTY:Easy;
#METER:4;
#RADARVALUES:0.262536,0.252827,0.021749,0.086994,0.000000,169.000000,167.000000,2.000000,8.000000,0.000000,0.000000,0.000000,0.000000,0.000000,0.262536,0.252827,0.021749,0.086994,0.000000,169.000000,167.000000,2.000000,8.000000,0.000000,0.000000,0.000000,0.000000,0.000000;
#CREDIT:;
#DISPLAYBPM:128.000000;
#NOTES:
0000
0000
0000
0000
,
0000
0000
0000
0000
,
1000
0100
0010
0001
,
0100
0010
1000
0001
,
0010
0100
1000
0001
,
1000
0010
0100
0001
,
1000
0000
0001
1000
,
0001
0000
1000
0010
,
0001
0010
1000
0100
,
0010
0001
1000
0010
,
0100
0001
1000
0100
,
0001
0100
1000
1000
,
0001
0001
0100
0010
,
1000
0001
0010
0010
,
0100
0100
1000
0001
,
1000
0000
0001
0001
,
1000
1000
0001
0010
,
0100
1000
0001
0001
,
1000
1000
0100
0010
,
0001
1000
0002
0000
,
2003
0000
3020
0000
,
0230
0000
0302
0000
,
2003
0000
3200
0000
,
0310
0001
1000
0010
,
0100
0001
0010
0100
,
1000
0001
0100
0010
,
1000
0001
1000
0100
,
0010
0001
1000
0001
,
0100
0010
1000
0001
,
0010
0100
1000
0010
,
0001
0010
2000
0000
,
3000
1001
0001
0100
,
1000
0100
0001
0010
,
0100
1000
0001
0100
,
0010
1000
0001
0010
,
1000
0010
0001
0001
,
1000
1000
0010
0100
,
0001
1000
0100
0100
,
0010
0010
0001
1000
,
0001
1001
1000
0010
,
0001
0010
1000
0100
,
0010
0001
1000
0010
,
0100
0001
1000
0100
,
0001
0100
1000
1000
,
0001
0001
0100
0010
,
1000
0001
0010
0010
,
0100
0100
1000
0000
;

//---------------dance-single - ----------------
#NOTEDATA:;
#CHARTNAME:;
#STEPSTYPE:dance-single;
#DESCRIPTION:;
#CHARTSTYLE:;
#DIFFICULTY:Beginner;
#METER:2;
#RADARVALUES:0.262536,0.252827,0.021749,0.086994,0.000000,169.000000,167.000000,2.000000,8.000000,0.000000,0.000000,0.000000,0.000000,0.000000,0.262536,0.252827,0.021749,0.086994,0.000000,169.000000,167.000000,2.000000,8.000000,0.000000,0.000000,0.000000,0.000000,0.000000;
#CREDIT:;
#DISPLAYBPM:128.000000;
#NOTES:
// measure 0
0000
0000
0000
0000
,  // measure 1
0000
0000
0000
0000
,  // measure 2
1000
1000
0001
0001
,  // measure 3
1000
0001
1000
0001
,  // measure 4
0001
1000
1000
0001
,  // measure 5
1000
0001
1000
0001
,  // measure 6
1000
0000
0001
1000
,  // measure 7
0001
0000
1000
0001
,  // measure 8
0001
0001
1000
1000
,  // measure 9
0001
0001
1000
0001
,  // measure 10
1000
0001
1000
1000
,  // measure 11
0001
1000
1000
1000
,  // measure 12
0001
0001
1000
0001
,  // measure 13
1000
0001
0001
0001
,  // measure 14
1000
1000
1000
0001
,  // measure 15
1000
0000
0001
0001
,  // measure 16
1000
1000
0001
0001
,  // measure 17
1000
1000
0001
0001
,  // measure 18
1000
1000
1000
0001
,  // measure 19
0001
1000
0002
0000
,  // measure 20
2003
0000
3002
0000
,  // measure 21
2003
0000
3002
0000
,  // measure 22
2003
0000
3002
0000
,  // measure 23
1003
0001
1000
0001
,  // measure 24
1000
0001
0001
1000
,  // measure 25
1000
0001
1000
0001
,  // measure 26
1000
0001
1000
1000
,  // measure 27
0001
0001
1000
0001
,  // measure 28
1000
0001
1000
0001
,  // measure 29
0001
1000
1000
0001
,  // measure 30
0001
0001
2000
0000
,  // measure 31
3000
1001
0001
1000
,  // measure 32
1000
1000
0001
0001
,  // measure 33
1000
1000
0001
1000
,  // measure 34
0001
1000
0001
0001
,  // measure 35
1000
0001
0001
0001
,  // measure 36
1000
1000
0001
1000
,  // measure 37
0001
1000
1000
1000
,  // measure 38
0001
0001
0001
1000
,  // measure 39
0001
1001
1000
0001
,  // measure 40
0001
0001
1000
1000
,  // measure 41
0001
0001
1000
0001
,  // measure 42
1000
0001
1000
1000
,  // measure 43
0001
1000
1000
1000
,  // measure 44
0001
0001
1000
0001
,  // measure 45
1000
0001
0001
0001
,  // measure 46
1000
1000
1000
0000
;
