#VERSION:0.83;
#TITLE:BUTTERFLY;
#SUBTITLE:;
#ARTIST:SMILE.dk;
#TITLETRANSLIT:;
#SUBTITLETRANSLIT:;
#ARTISTTRANSLIT:;
#GENRE:;
#ORIGIN:;
#CREDIT:BadWolf;
#BANNER:BUTTERFLY.png;
#BACKGROUND:BUTTERFLY-bg.png;
#PREVIEWVID:;
#JACKET:BUTTERFLY-jacket.png;
#CDIMAGE:;
#DISCIMAGE:;
#LYRICSPATH:;
#CDTITLE:cdtitle.png;
#MUSIC:BUTTERFLY.ogg;
#OFFSET:0.000000;
#SAMPLESTART:72.927002;
#SAMPLELENGTH:14.180000;
#SELECTABLE:YES;
#BPMS:0.000=134.940;
#STOPS:;
#DELAYS:;
#WARPS:;
#TIMESIGNATURES:0.000=4=4;
#TICKCOUNTS:0.000=4;
#COMBOS:0.000=1;
#SPEEDS:0.000=1.000=0.000=0;
#SCROLLS:0.000=1.000;
#FAKES:;
#LABELS:0.000=Song Start;
#BGCHANGES:0.000=BUTTERFLY.mp4=1.000=0=0=1===CrossFade_Fastest==,
244.000=BUTTERFLY-bg.png=1.000=0=0=1===CrossFade_Fastest==,
99999=-nosongbg-=1.000=0=0=0 // don't automatically add -songbackground-
;
#KEYSOUNDS:;
#ATTACKS:
;

//---------------dance-solo - ----------------
#NOTEDATA:;
#CHARTNAME:;
#STEPSTYPE:dance-solo;
#DESCRIPTION:;
#CHARTSTYLE:;
#DIFFICULTY:Challenge;
#METER:4;
#RADARVALUES:0.303572,0.413698,0.325533,0.063298,0.000000,235.000000,199.000000,36.000000,7.000000,0.000000,0.000000,0.000000,0.000000,0.000000,0.303572,0.413698,0.325533,0.063298,0.000000,235.000000,199.000000,36.000000,7.000000,0.000000,0.000000,0.000000,0.000000,0.000000;
#CREDIT:;
#NOTES:
000000
000000
000000
000000
,
000000
000000
000000
000000
,
000000
000000
000000
000000
,
000000
000000
000000
000000
,
000000
000000
000000
000000
,
200000
000000
000000
000000
,
300002
000000
000000
000000
,
200003
000000
000000
300000
,
010010
000000
000000
000000
,
100000
001000
010000
000001
,
001000
000010
000100
001000
,
100000
000001
001000
000100
,
100000
000010
010000
000001
,
100000
100000
100010
000000
,
000001
000001
010001
000000
,
100100
001001
000101
101000
,
100000
000010
001000
000010
100000
000000
000000
000000
,
000001
000001
010001
000000
,
100000
100000
100010
000000
,
001001
100100
101000
000101
,
000001
010000
000100
010000
000001
000000
000000
000000
,
100000
001000
000001
001000
,
100000
001000
000010
001000
,
100000
000100
000001
000100
,
100000
000100
000010
000100
,
100000
101000
000101
000001
,
010000
000010
001000
000100
,
100000
100100
001001
000001
,
010000
000010
000100
100001
,
000001
000100
000010
100000
,
000100
010000
001000
000100
,
000001
100000
000100
001000
,
000001
010000
000010
100000
,
000001
000001
010001
000000
,
100000
100000
100010
000000
,
001001
100100
101000
000101
,
000001
010000
000100
010000
000001
000000
000000
000000
,
100000
100000
100010
000000
,
000001
000001
010001
000000
,
100100
001001
000101
101000
,
100000
000010
001000
000010
100000
000000
000000
000000
,
000001
000100
100000
000100
,
000001
000100
010000
000100
,
000001
001000
100000
001000
,
000001
001000
010000
001000
,
000001
000101
101000
100000
,
000010
010000
000100
001000
,
000001
001001
100100
100000
,
000010
010000
001000
100001
,
100000
100000
000100
000100
,
001000
001000
010000
010000
,
001000
001000
000010
000010
,
100000
000001
010000
000010
010000
000000
000000
000000
,
000001
000001
000100
000100
,
001000
001000
000010
000010
,
001000
001000
010000
010000
,
000001
100000
000010
010000
000010
000000
000000
000000
,
200000
000000
000000
000000
,
300020
000000
000000
000000
,
020030
000000
000000
000000
,
030002
000000
000000
000003
,
001100
000000
000000
000000
;

//---------------dance-solo - ----------------
#NOTEDATA:;
#CHARTNAME:;
#STEPSTYPE:dance-solo;
#DESCRIPTION:;
#CHARTSTYLE:;
#DIFFICULTY:Edit;
#METER:6;
#RADARVALUES:0.347493,0.441278,0.180851,0.117553,0.000000,269.000000,249.000000,20.000000,13.000000,0.000000,0.000000,0.000000,0.000000,0.000000,0.347493,0.441278,0.180851,0.117553,0.000000,269.000000,249.000000,20.000000,13.000000,0.000000,0.000000,0.000000,0.000000,0.000000;
#CREDIT:;
#NOTES:
000000
000000
000000
000000
,
000000
000000
000000
000000
,
000000
000000
000000
000000
,
000000
000000
000000
000000
,
000000
000000
000000
000000
,
020000
000000
000000
000000
,
032000
000000
000000
000000
,
003200
000000
000000
000000
,
000310
100000
000010
010000
000001
000000
000000
000000
,
100000
001000
000100
001000
,
100000
000000
000010
000000
001000
000001
100000
000000
,
000001
000100
001000
000100
,
000001
000000
010000
000000
001000
100000
000001
000000
,
100000
000010
001000
000010
100000
000000
000000
000000
,
000001
010000
001000
010000
000001
000000
000000
000000
,
011000
001010
000101
100100
,
100000
001000
000100
000001
100000
000000
000000
000000
,
000001
010000
000100
010000
000001
000000
000000
000000
,
100000
000010
000100
000010
100000
000000
000000
000000
,
000101
100100
011000
001010
,
000001
000100
001000
100000
000001
100000
000001
000000
,
010000
000000
001000
000100
001000
000000
100000
000000
,
000010
001000
000100
001000
000001
000000
000000
000000
,
100000
000000
001000
000100
000001
000000
001000
000000
,
000010
000100
100000
000100
000010
000000
100000
000000
,
000001
000000
000100
001000
000100
000000
000001
000000
,
100000
000100
001000
000100
100000
000000
000000
000000
,
000001
000000
000100
001000
100000
000000
000100
000000
,
010000
001000
000001
001000
010000
000000
100001
000000
,
000001
000100
001000
000100
,
000001
000000
010000
000000
000100
100000
000001
000000
,
100000
001000
000100
001000
,
100000
000000
000010
000000
000100
000001
100000
000000
,
000001
010000
000100
010000
000001
000000
000000
000000
,
100000
000010
000100
000010
100000
000000
000000
000000
,
000101
100100
011000
001010
,
000001
000100
001000
100000
000001
000000
000000
000000
,
100000
000010
001000
000010
100000
000000
000000
000000
,
000001
010000
001000
010000
000001
000000
000000
000000
,
011000
001010
000101
100100
,
100000
001000
000100
000001
100000
000001
100000
000000
,
000001
000000
000100
001000
000100
000000
000001
000000
,
100000
000100
001000
000100
100000
000000
000000
000000
,
000001
000000
000100
001000
100000
000000
000100
000000
,
010000
001000
000001
001000
010000
000000
000001
000000
,
010000
000000
001000
000100
001000
000000
010000
000000
,
000010
001000
000100
001000
000010
000000
000000
000000
,
100000
000000
001000
000100
000001
000000
001000
000000
,
000010
000100
100000
000100
000010
000000
100001
000000
,
200000
001000
000100
300010
,
000002
001000
000100
010003
,
200000
000010
000100
301000
,
000001
010000
000010
100000
000001
000000
100000
000000
,
000002
001000
000100
010003
,
200000
001000
000100
300010
,
000002
010000
000100
001003
,
100000
000010
010000
000001
100000
000000
100001
000000
,
000002
000000
000000
000000
,
020003
000000
000000
000000
,
030020
000000
000000
000000
,
200030
000000
000000
300000
,
001100
000000
000000
000000
;

//---------------dance-solo - ----------------
#NOTEDATA:;
#CHARTNAME:;
#STEPSTYPE:dance-solo;
#DESCRIPTION:;
#CHARTSTYLE:;
#DIFFICULTY:Hard;
#METER:1;
#RADARVALUES:0.072341,0.082061,0.000000,0.036170,0.000000,56.000000,56.000000,0.000000,4.000000,0.000000,0.000000,0.000000,0.000000,0.000000,0.072341,0.082061,0.000000,0.036170,0.000000,56.000000,56.000000,0.000000,4.000000,0.000000,0.000000,0.000000,0.000000,0.000000;
#CREDIT:;
#NOTES:
000000
000000
000000
000000
,
000000
000000
000000
000000
,
000000
000000
000000
000000
,
000000
000000
000000
000000
,
000000
000000
000000
000000
,
100000
000000
000000
000000
,
000001
000000
000000
000000
,
100000
000000
000000
000000
,
000001
000000
000000
000000
,
100000
000000
000000
000000
,
001000
000000
000000
000000
,
000100
000000
000000
000000
,
000001
000000
000000
000000
,
010000
000000
000000
000000
,
000010
000000
000000
000000
,
100000
000000
000000
000000
,
000001
000000
000000
000000
,
000100
000000
000000
000000
,
001000
000000
000000
000000
,
010000
000000
000000
000000
,
000010
000000
000000
000000
,
100000
000000
000000
000000
,
001000
000000
000000
000000
,
000100
000000
000000
000000
,
000001
000000
000000
000000
,
010000
000000
000000
000000
,
001000
000000
000000
000000
,
000100
000000
000000
000000
,
000010
000000
000000
000000
,
100000
000000
000000
000000
,
000100
000000
000000
000000
,
001000
000000
000000
000000
,
000001
000000
000000
000000
,
010000
000000
000000
000000
,
000010
000000
000000
000000
,
100000
000000
000000
000000
,
000001
000000
000000
000000
,
001000
000000
000000
000000
,
000100
000000
000000
000000
,
010000
000000
000000
000000
,
000010
000000
000000
000000
,
100000
000000
000000
000000
,
000100
000000
000000
000000
,
001000
000000
000000
000000
,
000001
000000
000000
000000
,
010000
000000
000000
000000
,
000100
000000
000000
000000
,
001000
000000
000000
000000
,
000010
000000
000000
000000
,
100000
000000
000000
000000
,
000010
000000
000000
000000
,
010000
000000
000000
000000
,
000001
000000
000000
000000
,
000100
000000
000000
000000
,
001000
000000
000000
000000
,
010000
000000
000000
000000
,
000010
000000
000000
000000
,
200000
000000
300000
000000
,
000002
000000
000003
000000
,
020000
000000
030000
000000
,
000020
000000
000030
000000
;

//---------------dance-solo - ----------------
#NOTEDATA:;
#CHARTNAME:;
#STEPSTYPE:dance-solo;
#DESCRIPTION:;
#CHARTSTYLE:;
#DIFFICULTY:Medium;
#METER:1;
#RADARVALUES:0.072341,0.082061,0.000000,0.036170,0.000000,56.000000,56.000000,0.000000,4.000000,0.000000,0.000000,0.000000,0.000000,0.000000,0.072341,0.082061,0.000000,0.036170,0.000000,56.000000,56.000000,0.000000,4.000000,0.000000,0.000000,0.000000,0.000000,0.000000;
#CREDIT:;
#NOTES:
// measure 0
000000
000000
000000
000000
,  // measure 1
000000
000000
000000
000000
,  // measure 2
000000
000000
000000
000000
,  // measure 3
000000
000000
000000
000000
,  // measure 4
000000
000000
000000
000000
,  // measure 5
010000
000000
000000
000000
,  // measure 6
000010
000000
000000
000000
,  // measure 7
010000
000000
000000
000000
,  // measure 8
000010
000000
000000
000000
,  // measure 9
010000
000000
000000
000000
,  // measure 10
001000
000000
000000
000000
,  // measure 11
000010
000000
000000
000000
,  // measure 12
000010
000000
000000
000000
,  // measure 13
010000
000000
000000
000000
,  // measure 14
000010
000000
000000
000000
,  // measure 15
010000
000000
000000
000000
,  // measure 16
000010
000000
000000
000000
,  // measure 17
000010
000000
000000
000000
,  // measure 18
010000
000000
000000
000000
,  // measure 19
010000
000000
000000
000000
,  // measure 20
000010
000000
000000
000000
,  // measure 21
010000
000000
000000
000000
,  // measure 22
001000
000000
000000
000000
,  // measure 23
000010
000000
000000
000000
,  // measure 24
000010
000000
000000
000000
,  // measure 25
010000
000000
000000
000000
,  // measure 26
001000
000000
000000
000000
,  // measure 27
000010
000000
000000
000000
,  // measure 28
000010
000000
000000
000000
,  // measure 29
010000
000000
000000
000000
,  // measure 30
000010
000000
000000
000000
,  // measure 31
001000
000000
000000
000000
,  // measure 32
000010
000000
000000
000000
,  // measure 33
010000
000000
000000
000000
,  // measure 34
000010
000000
000000
000000
,  // measure 35
010000
000000
000000
000000
,  // measure 36
000010
000000
000000
000000
,  // measure 37
001000
000000
000000
000000
,  // measure 38
000010
000000
000000
000000
,  // measure 39
010000
000000
000000
000000
,  // measure 40
000010
000000
000000
000000
,  // measure 41
010000
000000
000000
000000
,  // measure 42
000010
000000
000000
000000
,  // measure 43
001000
000000
000000
000000
,  // measure 44
000010
000000
000000
000000
,  // measure 45
010000
000000
000000
000000
,  // measure 46
000010
000000
000000
000000
,  // measure 47
001000
000000
000000
000000
,  // measure 48
000010
000000
000000
000000
,  // measure 49
010000
000000
000000
000000
,  // measure 50
000010
000000
000000
000000
,  // measure 51
010000
000000
000000
000000
,  // measure 52
000010
000000
000000
000000
,  // measure 53
000010
000000
000000
000000
,  // measure 54
010000
000000
000000
000000
,  // measure 55
010000
000000
000000
000000
,  // measure 56
000010
000000
000000
000000
,  // measure 57
020000
000000
030000
000000
,  // measure 58
000020
000000
000030
000000
,  // measure 59
020000
000000
030000
000000
,  // measure 60
000020
000000
000030
000000
;
