#TITLE:BINGO;
#SUBTITLE:;
#ARTIST:MILK & COFFEA;
#TITLETRANSLIT:;
#SUBTITLETRANSLIT:;
#ARTISTTRANSLIT:;
#GENRE:;
#CREDIT:BadWolf;
#BANNER:BINGO.png;
#BACKGROUND:BINGO-bg.png;
#LYRICSPATH:;
#CDTITLE:cdtitle.png;
#MUSIC:BINGO.ogg;
#OFFSET:0.000000;
#SAMPLESTART:47.994015;
#SAMPLELENGTH:12.000000;
#SELECTABLE:YES;
#BPMS:0.000000=160.000000
;
#STOPS:
;
#BGCHANGES:0.000=BINGO.mp4=1.000=0=0=1===CrossFade_Fastest==,
319.000=BINGO-bg.png=1.000=0=0=1===CrossFade_Fastest==,
99999=-nosongbg-=1.000=0=0=0 // don't automatically add -songbackground-
;
#KEYSOUNDS:;
#ATTACKS:;

//---------------dance-single - ----------------
#NOTES:
     dance-single:
     :
     Edit:
     9:
     0.638039,0.581791,0.842999,0.016212,0.008106,551.000000,447.000000,104.000000,2.000000,0.000000,0.000000,0.638039,0.581791,0.842999,0.016212,0.008106,551.000000,447.000000,104.000000,2.000000,0.000000,0.000000:
0000
0000
0000
0000
,
0000
0000
0000
0000
,
0000
0000
0000
0000
,
0000
0000
0000
0000
,
1100
0000
0101
0000
0011
0000
0001
1000
,
0000
1010
0000
0011
0000
0001
1000
0000
,
0001
0100
0010
0100
1000
0100
0010
0100
,
0001
0010
0100
1000
0010
0100
0001
0000
,
1001
0110
1001
0110
,
1100
0101
0011
1010
,
0001
0010
0100
1000
0001
0100
0010
1000
,
0001
0000
0011
0000
1001
1000
0001
0000
,
1001
0110
1001
0110
,
0011
1010
1100
0101
,
1000
0100
0010
0001
1000
0010
0100
0001
,
1000
1100
1001
0110
,
0001
0010
0100
1000
0000
0010
0100
0010
,
1000
0100
0010
0001
0000
0100
0010
1000
,
0001
0010
0110
0000
1000
0010
0110
0000
,
0001
0010
0100
0010
0001
0000
1000
0001
,
1000
0010
0100
0010
1000
0001
1000
0000
,
0001
0010
0100
1000
0000
0010
0100
0010
,
1000
0100
0110
0000
0001
0100
0110
0000
,
1000
0100
0010
0000
0011
0000
1001
0000
,
1010
0000
0001
0010
0100
0000
1000
0001
,
0000
1001
0000
1000
0010
0001
0010
1000
,
0001
0010
0100
0010
0001
0000
1000
0001
,
0000
1100
0101
0011
,
1000
0010
1000
0001
0000
0001
0100
0000
,
0001
0010
0001
1000
0000
1000
0100
0000
,
1000
0010
0100
0001
1000
0100
0010
0001
,
1000
0000
0001
0000
0000
0101
0000
0000
1001
0000
0000
0000
0110
0000
0000
0000
,
1000
0100
1100
0000
0001
0100
0101
0000
,
1000
0100
0010
0001
0010
0100
1000
0000
,
0001
0100
0010
0100
1000
0100
0010
0100
,
0001
0010
0100
1000
0001
0000
1000
0001
,
1000
0010
1010
0000
0001
0010
0011
0000
,
1000
0010
0100
0001
0100
0010
1000
0000
,
0001
0010
0100
0010
1000
0010
0100
0010
,
0001
0100
0010
1000
0002
0000
1003
0000
,
1001
0110
1001
0110
,
0011
1010
1100
0101
,
1000
0100
0010
0001
1000
0010
0100
0001
,
1000
0000
1100
0000
1001
0001
0000
1000
,
1001
0110
1001
0110
,
1100
0101
0011
1010
,
0001
0010
0100
1000
0001
0100
0010
1000
,
0001
0011
1001
0110
,
1000
0100
0010
0001
0000
0100
0010
0100
,
0001
0010
0100
1000
0000
0010
0100
0001
,
1000
0110
0001
0110
,
1000
0100
0010
0100
1000
0000
0001
1000
,
0001
0100
0010
0100
0000
0001
1000
0001
,
1000
0100
0010
0001
0000
0100
0010
0100
,
0001
0110
1000
0110
,
0001
0010
0100
0000
1100
0000
1001
0000
,
0101
0000
1000
0100
0010
0000
0001
1000
,
0000
1001
0000
0001
0100
1000
0100
0001
,
1000
0100
0010
0100
1000
0000
0001
1000
,
0000
0011
1010
1100
,
0001
0100
0001
1000
0000
1000
0010
0000
,
1000
0100
1000
0001
0000
0001
0010
0000
,
0001
0100
0010
1000
0001
0010
0100
1000
,
0001
0000
1000
0000
0000
1010
0000
0000
1001
0000
0000
0000
0110
0000
0000
0000
,
0001
0011
1000
1010
,
0001
0010
0100
1000
0100
0010
0001
0000
,
1000
0010
0100
0010
0001
0010
0100
0010
,
1000
0100
0010
0001
1000
0000
0001
1000
,
0001
0101
1000
1100
,
0001
0100
0010
1000
0010
0100
0001
0000
,
1000
0100
0010
0100
0001
0100
0010
0100
,
1000
0010
0100
0001
2000
0000
3001
0000
,
1001
0110
1001
0110
,
1100
0101
0011
1010
,
0001
0010
0100
1000
0001
0100
0010
1000
,
0001
0000
0011
0000
1001
1000
0000
0001
,
1001
0110
1001
0110
,
0011
1010
1100
0101
,
1000
0100
0010
0001
1000
0010
0100
0001
,
1000
1100
1001
0110
;

//---------------dance-single - ----------------
#NOTES:
     dance-single:
     :
     Challenge:
     7:
     0.504873,0.517148,0.340442,0.502557,0.008106,436.000000,394.000000,42.000000,62.000000,0.000000,0.000000,0.504873,0.517148,0.340442,0.502557,0.008106,436.000000,394.000000,42.000000,62.000000,0.000000,0.000000:
0000
0000
0000
0000
,
0000
0000
0000
0000
,
0000
0000
0000
0000
,
0000
0000
0000
0000
,
2000
0000
3002
0000
0023
0000
0130
2000
,
0000
3002
0000
0203
0000
0310
1000
0000
,
0001
1000
0001
0000
1000
0010
0001
0010
,
1000
0200
0000
0320
0000
0031
1000
0000
,
0001
0101
1000
1100
,
0002
0023
0230
2300
,
3001
0100
0001
0000
1000
0010
1000
0000
,
0001
0010
1000
0010
0001
0000
0000
0000
,
1000
1010
0001
0011
,
2000
3200
0320
0032
,
1003
0010
1000
0000
0001
0100
0001
0000
,
1001
0110
1001
0000
,
1000
0100
0010
0000
0010
0100
1000
0000
,
0001
0100
0010
0000
0010
0100
0001
0000
,
1000
0110
0001
0110
,
1000
0001
0010
0000
0100
1000
0001
0000
,
1000
0010
0100
0000
0100
0010
1000
0000
,
0001
0010
0100
0000
0100
0010
0001
0000
,
1000
0110
0001
0110
,
1000
0001
1000
0000
1001
0000
0110
0000
,
1001
0000
0001
1000
0001
0000
0100
0010
,
0100
0001
0000
1000
0100
0001
0100
1000
,
0001
0010
0100
1000
0001
0000
0100
0010
,
0100
0002
0023
0230
,
2300
0010
0100
3001
,
0002
0010
0100
1003
,
1000
0100
0010
0001
1000
0001
0010
0100
,
1000
0000
0001
0000
0000
1000
0000
0000
0001
0000
0000
0000
1001
0000
0000
0000
,
2000
3010
0002
0013
,
1000
0100
0010
0100
1000
0000
1001
0000
,
0001
0010
0100
1000
0001
0100
0010
1000
,
0002
0023
0230
1300
,
0002
0103
2000
3100
,
0001
0010
0100
0010
0001
0000
1001
0000
,
1000
0100
0010
0001
1000
0010
0100
0001
,
2000
3200
0320
0031
,
1000
1010
0001
0011
,
2000
3200
0320
0032
,
1003
0010
1000
0000
0001
0100
0001
0000
,
1000
0100
0001
0100
1000
0000
0000
0000
,
0001
0101
1000
1100
,
0002
0023
0230
2300
,
3001
0100
0001
0000
1000
0010
1000
0000
,
1001
0110
1001
0000
,
0001
0010
0100
0000
0100
0010
0001
0000
,
1000
0010
0100
0000
0100
0010
1000
0000
,
0001
0110
1000
0110
,
0001
1000
0100
0000
0010
0001
1000
0000
,
0001
0100
0010
0000
0010
0100
0001
0000
,
1000
0100
0010
0000
0010
0100
1000
0000
,
0001
0110
1000
0110
,
0001
1000
0001
0000
1001
0000
0110
0000
,
1001
0000
1000
0001
1000
0000
0010
0100
,
0010
1000
0000
0001
0010
1000
0010
0001
,
1000
0100
0010
0001
1000
0000
0010
0100
,
0010
2000
3200
0320
,
0032
0100
0010
1003
,
2000
0100
0010
3001
,
0001
0010
0100
1000
0001
1000
0100
0010
,
0001
0000
1000
0000
0000
0001
0000
0000
1000
0000
0000
0000
1001
0000
0000
0000
,
0002
0103
2000
3100
,
0001
0010
0100
0010
0001
0000
1001
0000
,
1000
0100
0010
0001
1000
0010
0100
0001
,
2000
3200
0320
0031
,
2000
3010
0002
0013
,
1000
0100
0010
0100
1000
0000
1001
0000
,
0001
0010
0100
1000
0001
0100
0010
1000
,
0002
0023
0230
1300
,
0001
0101
1000
1100
,
0002
0023
0230
2300
,
3001
0100
0001
0000
1000
0010
1000
0000
,
0001
0010
1000
0010
0001
0000
0000
0000
,
1000
1010
0001
0011
,
2000
3200
0320
0032
,
1003
0010
1000
0000
0001
0100
0001
0000
,
1001
0110
1001
0110
;

//---------------dance-single - ----------------
#NOTES:
     dance-single:
     :
     Hard:
     5:
     0.428448,0.483306,0.340442,0.000000,0.008106,370.000000,328.000000,42.000000,0.000000,0.000000,0.000000,0.428448,0.483306,0.340442,0.000000,0.008106,370.000000,328.000000,42.000000,0.000000,0.000000,0.000000:
0000
0000
0000
0000
,
0000
0000
0000
0000
,
0000
0000
0000
0000
,
0000
0000
0000
0000
,
1000
0000
0001
0000
1000
0000
0001
0010
,
0000
0100
0000
1000
0000
0001
1000
0000
,
0010
0000
0100
0000
0001
1000
0001
1000
,
0100
0000
0010
0000
0001
1000
0001
0000
,
1000
1000
0001
0001
,
1000
0010
0100
0010
1000
0000
1001
0000
,
0001
0010
0100
0010
0001
0000
1001
0000
,
1000
0100
0010
0000
,
0001
0001
1000
1000
,
0001
0100
0010
0100
0001
0000
1001
0000
,
1000
0100
0010
0100
1000
0000
1001
0000
,
0001
0010
0100
0000
,
1000
0010
0100
0001
,
1000
0100
0010
0001
,
1000
1010
0001
0011
,
1000
0010
0001
0010
,
1000
0100
0010
0001
,
1000
0010
0100
0001
,
1000
1100
0001
0101
,
1000
0001
1000
1000
,
1000
0000
0001
0100
0001
0000
1000
0000
,
0100
0010
0001
0100
,
0001
0000
1000
0010
1000
0000
0001
0000
,
0010
0100
1000
0010
,
1000
0001
1000
1001
,
0010
0100
0010
0110
,
1000
0100
0010
0001
,
1000
0000
0001
0000
0000
1000
0000
0000
0001
0000
0000
0000
1001
0000
0000
0000
,
1100
1100
0011
0011
,
1000
0100
0010
0001
,
1000
0010
0001
0010
,
1000
0001
1000
0000
,
0101
0101
1010
1010
,
0001
0100
0010
1000
,
0001
0010
1000
0010
,
0001
1000
0001
0000
,
1000
1000
0001
0001
,
1000
0100
0010
0100
1000
0000
1001
0000
,
0001
0100
0010
0100
0001
0000
1001
0000
,
1000
0010
0100
0000
,
0001
0001
1000
1000
,
0001
0010
0100
0010
0001
0000
1001
0000
,
1000
0010
0100
0010
1000
0000
1001
0000
,
0001
0100
0010
0000
,
1000
0100
0010
0001
,
1000
0010
0100
0001
,
1000
1100
0001
0101
,
1000
0100
0001
0100
,
1000
0010
0100
0001
,
1000
0100
0010
0001
,
1000
1010
0001
0011
,
1000
0001
1000
1000
,
1000
0000
0001
0010
0001
0000
1000
0000
,
0010
0100
0001
0010
,
0001
0000
1000
0100
1000
0000
0001
0000
,
0100
0010
1000
0100
,
1000
0001
1000
1001
,
0100
0010
0100
0110
,
1000
0010
0100
0001
,
1000
0000
0001
0000
0000
1000
0000
0000
0001
0000
0000
0000
1001
0000
0000
0000
,
1010
1010
0101
0101
,
1000
0010
0100
0001
,
1000
0100
0001
0100
,
1000
0001
1000
0000
,
0011
0011
1100
1100
,
0001
0010
0100
1000
,
0001
0100
1000
0100
,
0001
1000
0001
0000
,
1000
1000
0001
0001
,
1000
0010
0100
0010
1000
0000
1001
0000
,
0001
0010
0100
0010
0001
0000
1001
0000
,
1000
0100
0010
0000
,
0001
0001
1000
1000
,
0001
0100
0010
0100
0001
0000
1001
0000
,
1000
0100
0010
0100
1000
0000
1001
0000
,
0001
0010
0100
0000
;

//---------------dance-single - ----------------
#NOTES:
     dance-single:
     :
     Medium:
     3:
     0.309177,0.354425,0.048635,0.016212,0.000000,267.000000,261.000000,6.000000,2.000000,0.000000,0.000000,0.309177,0.354425,0.048635,0.016212,0.000000,267.000000,261.000000,6.000000,2.000000,0.000000,0.000000:
0000
0000
0000
0000
,
0000
0000
0000
0000
,
0000
0000
0000
0000
,
0000
0000
0000
0000
,
1000
1000
0001
0001
,
1000
0100
0010
0001
,
0100
0100
0010
0010
,
1000
0001
1000
0000
,
0001
1000
0001
1000
,
0010
0100
0010
0100
,
0001
0001
1000
1000
,
0100
0010
0001
0000
,
1000
0001
1000
0001
,
0100
0010
0100
0010
,
1000
1000
0001
0001
,
0010
0100
1000
0000
,
0001
1000
0001
0000
,
0100
0010
0100
0000
,
0001
0001
1000
1000
,
0001
0000
0000
0000
,
1000
0001
1000
0000
,
0100
0010
0100
0000
,
1000
1000
0001
0001
,
1000
0000
0001
0001
,
0001
0010
0100
1000
,
0001
0000
0000
0000
,
1000
0100
0010
0001
,
1000
0001
1000
0001
,
1000
0010
1000
0000
,
0001
0100
0001
0000
,
1000
0100
0010
0001
,
1001
0000
0110
1001
,
1000
1000
0001
0001
,
1000
0010
0100
0001
,
0010
0010
0100
0100
,
1000
0001
1000
0000
,
0001
0001
1000
1000
,
0001
0100
0010
1000
,
0100
0100
0010
0010
,
0001
1000
0001
0000
,
1000
0001
1000
0001
,
0100
0010
0100
0010
,
1000
1000
0001
0001
,
0010
0100
1000
0000
,
0001
1000
0001
1000
,
0010
0100
0010
0100
,
0001
0001
1000
1000
,
0100
0010
0001
0000
,
1000
0001
1000
0000
,
0010
0100
0010
0000
,
1000
1000
0001
0001
,
1000
0000
0000
0000
,
0001
1000
0001
0000
,
0010
0100
0010
0000
,
0001
0001
1000
1000
,
0001
0000
1000
1000
,
1000
0100
0010
0001
,
1000
0000
0000
0000
,
0001
0010
0100
1000
,
0001
1000
0001
1000
,
0002
0000
0000
0003
,
2000
0000
0000
3000
,
0001
0010
0100
1000
,
1001
0000
0110
1001
,
0001
0001
1000
1000
,
0001
0100
0010
1000
,
0100
0100
0010
0010
,
0001
1000
0001
0000
,
1000
1000
0001
0001
,
1000
0010
0100
0001
,
0010
0010
0100
0100
,
1000
0001
1000
0000
,
0001
1000
0001
1000
,
0010
0100
0010
0100
,
0001
0001
1000
1000
,
0100
0010
0001
0000
,
1000
0001
1000
0001
,
0100
0010
0100
0010
,
1000
1000
0001
0001
,
0010
0100
1000
0000
;

//---------------dance-single - ----------------
#NOTES:
     dance-single:
     :
     Easy:
     1:
     0.129692,0.161102,0.000000,0.016212,0.000000,112.000000,112.000000,0.000000,2.000000,0.000000,0.000000,0.129692,0.161102,0.000000,0.016212,0.000000,112.000000,112.000000,0.000000,2.000000,0.000000,0.000000:
0000
0000
0000
0000
,
0000
0000
0000
0000
,
0000
0000
0000
0000
,
0000
0000
0000
0000
,
1000
0000
0000
0000
,
0001
0000
0000
0000
,
1000
0000
0000
0000
,
0001
0000
0000
0000
,
1000
0000
0001
0000
,
1000
0000
0000
0000
,
0001
0000
1000
0000
,
0001
0000
0000
0000
,
0100
0000
0010
0000
,
0100
0000
0000
0000
,
0010
0000
0100
0000
,
0010
0000
0000
0000
,
1000
0000
0000
0000
,
0100
0000
0000
0000
,
0010
0000
0000
0000
,
0001
0000
0000
0000
,
1000
0000
0000
0000
,
0010
0000
0000
0000
,
0100
0000
0000
0000
,
0001
0000
0000
0000
,
1000
0000
0001
0000
,
1000
0000
0000
0000
,
0010
0000
0100
0000
,
0010
0000
0000
0000
,
1000
0000
0001
0000
,
1000
0000
0000
0000
,
0100
0000
0010
0000
,
0100
0000
0000
0000
,
1000
0000
1000
0000
,
0001
0000
0001
0000
,
1000
0000
0100
0000
,
0010
0000
0001
0000
,
1000
0000
1000
0000
,
0001
0000
0001
0000
,
1000
0000
0010
0000
,
0100
0000
0001
0000
,
1000
0000
0001
0000
,
1000
0000
0000
0000
,
0001
0000
1000
0000
,
0001
0000
0000
0000
,
0100
0000
0010
0000
,
0100
0000
0000
0000
,
0010
0000
0100
0000
,
0010
0000
0000
0000
,
1000
0000
0000
0000
,
0100
0000
0000
0000
,
0010
0000
0000
0000
,
0001
0000
0000
0000
,
1000
0000
0000
0000
,
0010
0000
0000
0000
,
0100
0000
0000
0000
,
0001
0000
0000
0000
,
1000
0000
0001
0000
,
1000
0000
0000
0000
,
0010
0000
0100
0000
,
0010
0000
0000
0000
,
2000
0000
3000
0000
,
0002
0000
0003
0000
,
0100
0000
0010
0000
,
0100
0000
0000
0000
,
0001
0000
0001
0000
,
1000
0000
1000
0000
,
0001
0000
0010
0000
,
0100
0000
1000
0000
,
0001
0000
0001
0000
,
1000
0000
1000
0000
,
0001
0000
0100
0000
,
0010
0000
1000
0000
,
0001
0000
1000
0000
,
0001
0000
0000
0000
,
1000
0000
0001
0000
,
1000
0000
0000
0000
,
0010
0000
0100
0000
,
0010
0000
0000
0000
,
0100
0000
0010
0000
,
0100
0000
0010
0000
;

//---------------dance-single - ----------------
#NOTES:
     dance-single:
     :
     Beginner:
     1:
     0.129692,0.161102,0.000000,0.016212,0.000000,112.000000,112.000000,0.000000,2.000000,0.000000,0.000000,0.129692,0.161102,0.000000,0.016212,0.000000,112.000000,112.000000,0.000000,2.000000,0.000000,0.000000:
// measure 0
0000
0000
0000
0000
,  // measure 1
0000
0000
0000
0000
,  // measure 2
0000
0000
0000
0000
,  // measure 3
0000
0000
0000
0000
,  // measure 4
1000
0000
0000
0000
,  // measure 5
0001
0000
0000
0000
,  // measure 6
1000
0000
0000
0000
,  // measure 7
0001
0000
0000
0000
,  // measure 8
1000
0000
0001
0000
,  // measure 9
1000
0000
0000
0000
,  // measure 10
0001
0000
1000
0000
,  // measure 11
0001
0000
0000
0000
,  // measure 12
1000
0000
0001
0000
,  // measure 13
1000
0000
0000
0000
,  // measure 14
0001
0000
1000
0000
,  // measure 15
0001
0000
0000
0000
,  // measure 16
1000
0000
0000
0000
,  // measure 17
1000
0000
0000
0000
,  // measure 18
0001
0000
0000
0000
,  // measure 19
0001
0000
0000
0000
,  // measure 20
1000
0000
0000
0000
,  // measure 21
0001
0000
0000
0000
,  // measure 22
1000
0000
0000
0000
,  // measure 23
0001
0000
0000
0000
,  // measure 24
1000
0000
0001
0000
,  // measure 25
1000
0000
0000
0000
,  // measure 26
0001
0000
1000
0000
,  // measure 27
0001
0000
0000
0000
,  // measure 28
1000
0000
0001
0000
,  // measure 29
1000
0000
0000
0000
,  // measure 30
1000
0000
0001
0000
,  // measure 31
1000
0000
0000
0000
,  // measure 32
1000
0000
1000
0000
,  // measure 33
0001
0000
0001
0000
,  // measure 34
1000
0000
1000
0000
,  // measure 35
0001
0000
0001
0000
,  // measure 36
1000
0000
1000
0000
,  // measure 37
0001
0000
0001
0000
,  // measure 38
1000
0000
0001
0000
,  // measure 39
1000
0000
0001
0000
,  // measure 40
1000
0000
0001
0000
,  // measure 41
1000
0000
0000
0000
,  // measure 42
0001
0000
1000
0000
,  // measure 43
0001
0000
0000
0000
,  // measure 44
1000
0000
0001
0000
,  // measure 45
1000
0000
0000
0000
,  // measure 46
0001
0000
1000
0000
,  // measure 47
0001
0000
0000
0000
,  // measure 48
1000
0000
0000
0000
,  // measure 49
1000
0000
0000
0000
,  // measure 50
0001
0000
0000
0000
,  // measure 51
0001
0000
0000
0000
,  // measure 52
1000
0000
0000
0000
,  // measure 53
0001
0000
0000
0000
,  // measure 54
1000
0000
0000
0000
,  // measure 55
0001
0000
0000
0000
,  // measure 56
1000
0000
0001
0000
,  // measure 57
1000
0000
0000
0000
,  // measure 58
0001
0000
1000
0000
,  // measure 59
0001
0000
0000
0000
,  // measure 60
2000
0000
3000
0000
,  // measure 61
0002
0000
0003
0000
,  // measure 62
1000
0000
0001
0000
,  // measure 63
1000
0000
0000
0000
,  // measure 64
0001
0000
0001
0000
,  // measure 65
1000
0000
1000
0000
,  // measure 66
0001
0000
0001
0000
,  // measure 67
1000
0000
1000
0000
,  // measure 68
0001
0000
0001
0000
,  // measure 69
1000
0000
1000
0000
,  // measure 70
0001
0000
1000
0000
,  // measure 71
0001
0000
1000
0000
,  // measure 72
0001
0000
1000
0000
,  // measure 73
0001
0000
0000
0000
,  // measure 74
1000
0000
0001
0000
,  // measure 75
1000
0000
0000
0000
,  // measure 76
0001
0000
1000
0000
,  // measure 77
0001
0000
0000
0000
,  // measure 78
1000
0000
0001
0000
,  // measure 79
1000
0000
0001
0000
;
