#TITLE:A SHOOTING STAR;
#SUBTITLE:;
#ARTIST:古川もとあき;
#TITLETRANSLIT:;
#SUBTITLETRANSLIT:;
#ARTISTTRANSLIT:Motoaki Furukawa;
#GENRE:;
#CREDIT:BadWolf;
#BANNER:A SHOOTING STAR.png;
#BACKGROUND:A SHOOTING STAR-bg.png;
#LYRICSPATH:;
#CDTITLE:cdtitle.png;
#MUSIC:A SHOOTING STAR.ogg;
#OFFSET:-0.460000;
#SAMPLESTART:17.631718;
#SAMPLELENGTH:13.694284;
#SELECTABLE:YES;
#DISPLAYBPM:140.000000;
#BPMS:0.000000=140.000000
,205.666672=135.000000
;
#STOPS:
;
#BGCHANGES:0.000=pack0461.AVI=1.000=0=0=1===CrossFade_Fastest==,
212.000=A SHOOTING STAR-bg.png=1.000=0=0=1===CrossFade_Fastest==,
99999=-nosongbg-=1.000=0=0=0 // don't automatically add -songbackground-
;
#KEYSOUNDS:;
#ATTACKS:;

//---------------dance-single - ----------------
#NOTES:
     dance-single:
     :
     Edit:
     10:
     0.655760,0.702329,0.084810,0.381643,1.372855,433.000000,425.000000,8.000000,36.000000,0.000000,0.000000,0.655760,0.702329,0.084810,0.381643,1.372855,433.000000,425.000000,8.000000,36.000000,0.000000,0.000000:
0000
0000
0000
0000
,
0000
0000
0000
0000
,
0000
0000
0000
0000
,
0000
0000
0000
0000
,
1000
0100
1000
0100
1000
0000
0001
0100
0001
0100
0001
0000
,
1000
0100
0010
0001
1000
0000
0001
0010
0100
1000
0100
0010
,
0001
0100
0001
0100
0001
0000
1000
0100
1000
0100
1000
0000
,
0001
0100
0010
1000
0001
0000
1000
0010
0100
0001
0100
0010
,
1000
0000
1100
0000
0100
0010
0000
0001
0000
1000
0000
0000
,
1001
0002
0203
0320
,
1030
0001
1000
0002
0000
0000
0000
0000
0000
1003
0100
1000
,
0100
0010
0100
0010
0001
1000
0002
0000
0000
0103
0010
1000
,
0200
0000
0000
0000
0320
0000
0032
0000
0000
1000
0000
0000
,
0103
0000
0000
1000
0010
0100
1000
0100
0001
1000
0100
0010
,
0001
1000
0001
2000
0000
0000
0000
0000
0000
3001
0010
0001
,
0010
0100
0010
0100
1000
0001
1000
0010
1000
0001
0100
0001
,
1000
0100
0010
0001
0010
0100
1000
0100
0010
0001
0010
0100
,
1000
0010
0100
0001
0100
0010
1000
0010
0100
0001
0100
0010
,
1000
0100
1000
0001
0010
0001
1000
0100
1000
0001
0010
0001
,
1000
0010
1000
0001
0100
0001
1000
0010
1000
0001
0100
0001
,
1000
0100
0100
0010
0001
0100
0001
0100
0010
1000
0001
0010
,
0200
0000
2300
0000
,
3010
0100
0010
0100
0010
0100
0001
1000
0001
1000
0001
1000
,
0001
0010
0100
1000
0100
0010
0001
2000
0000
0000
0000
3001
,
1000
0002
0000
0000
0000
0000
0100
0000
0010
0000
0103
0000
,
1000
0010
1000
0010
1000
0010
0100
0001
0100
0001
0100
0001
,
1000
0010
1000
0010
0100
0001
1000
0100
1000
0100
0010
0001
,
0200
0000
0000
0000
0310
1000
0001
0010
0100
1000
0010
0100
,
0002
0000
0000
0000
1003
0010
1000
0200
0000
0000
0000
0000
,
0320
0000
0032
0000
,
1003
0000
1010
0000
0010
0100
0000
0001
0000
1000
0000
0000
,
1001
0002
0023
0230
,
1300
0000
0000
1001
0000
2002
0000
0000
0000
3003
0000
1000
,
0001
0000
0200
0000
0000
0310
1000
0010
1000
0100
0010
0100
,
0010
0001
1000
0001
0010
0001
0010
0100
0010
0100
1000
0100
,
1000
0010
1000
0010
0100
0010
0100
0001
0100
0001
1000
0001
,
1000
0100
0010
0100
1000
0100
0010
0100
1000
0100
0010
0100
,
1000
0001
0100
0001
1000
0001
0100
0001
1000
0001
0100
0002
,
0000
0000
0000
2003
0000
0000
0000
0000
0000
0000
3100
0010
,
0100
0010
0001
1000
0010
0100
0010
1000
0100
0010
0001
1000
,
0001
0010
0001
0010
0001
0000
1000
0010
1000
0010
1000
0000
,
0001
0010
0100
1000
0001
0000
1000
0100
0010
0001
0010
0100
,
1000
0010
1000
0010
1000
0000
0001
0010
0001
0010
0001
0000
,
1000
0010
0100
0001
1000
0000
0001
0100
0010
1000
0010
0100
,
0001
0000
0011
0000
0010
0100
0000
1000
0000
0001
0000
0000
,
1001
2000
3020
0230
,
0301
1000
0001
2000
0000
0000
0000
0000
0000
3001
0010
0001
,
0010
0100
0010
0100
1000
0001
2000
0000
0000
3001
0100
0001
,
1000
0100
0010
0001
0010
0100
1000
0100
0010
0001
0010
0100
,
1000
0010
0100
0001
0100
0010
1000
0010
0100
0001
0100
0010
,
2000
0000
3002
0023
,
0230
0000
0000
0300
0000
1000
0100
0010
0001
0100
0001
1000
,
0001
0010
0100
0010
0002
0000
0000
0000
0000
0000
0000
0000
,
0003
0000
0000
0000
;

//---------------dance-single - ----------------
#NOTES:
     dance-single:
     :
     Challenge:
     8:
     0.510372,0.589029,0.031804,0.233226,0.842795,337.000000,334.000000,3.000000,22.000000,0.000000,0.000000,0.510372,0.589029,0.031804,0.233226,0.842795,337.000000,334.000000,3.000000,22.000000,0.000000,0.000000:
0000
0000
0000
0000
,
0000
0000
0000
0000
,
0000
0000
0000
0000
,
0000
0000
0000
0000
,
1000
0100
1000
0100
0000
0000
0010
0001
0010
0001
0000
0000
,
0100
0010
0100
0010
0000
0000
1000
0001
1000
0001
1000
0001
,
0010
0100
0010
0100
0000
0000
1000
0001
1000
0001
0000
0000
,
1000
0010
1000
0010
0000
0000
0100
0001
0100
0001
0100
0001
,
1000
0000
1000
0000
1000
0001
0000
1000
0000
1000
0000
0000
,
1001
0002
0023
0230
,
1300
0000
1000
0001
0000
0000
0100
0000
0010
0100
0010
0000
,
1000
0000
0100
0010
0000
0000
0001
0000
1000
0001
1000
0000
,
0001
0000
0001
1000
0000
0000
0010
0000
0100
0010
0100
0000
,
0001
0000
0010
0100
0000
0000
1000
0000
0001
1000
0001
0000
,
1000
0000
1000
0010
0000
0000
0100
0000
0001
0100
0001
0000
,
0010
0000
0100
1000
0000
0000
0010
0000
1000
0010
1000
0000
,
0001
0000
0001
0010
0000
0010
0100
0000
0100
1000
0000
1000
,
0001
0000
0001
0100
0000
0100
0010
0000
0010
1000
0000
1000
,
0100
0000
0100
0010
0000
0010
0001
0000
0001
1000
0000
1000
,
0010
0000
0010
0100
0000
0100
0001
0000
0001
1000
0000
1000
,
0001
0000
0100
0001
0000
0010
0001
0000
1000
0001
0000
0001
,
1000
0000
0100
1000
0000
0010
1000
0000
0001
1000
0000
1000
,
0002
0000
0000
0000
0000
0000
0203
0000
0010
0000
0010
0000
,
0320
0000
0000
0000
0000
0000
1030
0001
1000
0001
1000
0001
,
2000
0000
0000
0000
0000
0000
3200
0000
0010
0000
0010
0000
,
0320
0000
0000
0000
0000
0000
0031
1000
0001
1000
0001
1000
,
0001
0000
0000
0100
0000
0000
0010
0000
1000
0001
0000
0000
,
1000
0000
0000
0100
0000
0000
0010
0000
0001
1000
0000
0000
,
0010
0000
0010
0100
0000
0100
0001
0000
0001
1000
0000
1000
,
0001
0010
0001
0010
0001
0010
0100
1000
0100
1000
0100
1000
,
0001
0000
0001
0000
0001
1000
0000
0001
0000
0001
0000
0000
,
1001
2000
3200
0320
,
0031
0000
0100
0001
0100
0000
0010
0000
1000
0010
0000
0000
,
1000
0000
0100
1000
0100
0000
0010
0000
0001
0010
0000
0000
,
0001
0000
1000
0001
1000
0001
1000
0001
0000
1000
0000
0000
,
0010
0000
0100
0010
0100
0010
0100
0010
0000
0100
0000
0000
,
0001
0000
0001
0010
0000
0010
0100
0000
0100
1000
0000
1000
,
0010
0000
0010
0100
0000
0100
0001
0000
0001
1000
0000
1000
,
0002
2003
0000
3100
,
0010
0000
0001
1000
0001
1000
0001
1000
0000
0001
0000
0000
,
1000
0100
1000
0100
0000
0000
0010
0001
0010
0001
0000
0000
,
0100
0010
0100
0010
0000
0000
1000
0001
1000
0001
1000
0001
,
0010
0100
0010
0100
0000
0000
1000
0001
1000
0001
0000
0000
,
1000
0010
1000
0010
0000
0000
0100
0001
0100
0001
0100
0001
,
1000
0000
1000
0000
1000
0001
0000
1000
0000
1000
0000
0000
,
1001
0002
0023
0230
,
1300
0000
1000
0001
0000
0000
0100
0000
0010
0100
0010
0000
,
1000
0000
0100
0010
0000
0000
0001
0000
1000
0001
1000
0000
,
0001
0000
0001
1000
0000
0000
0010
0000
0100
0010
0100
0000
,
0001
0000
0010
0100
0000
0000
1000
0000
0001
1000
0001
0000
,
2000
0000
3020
0230
,
0302
0000
0000
0000
0000
2003
0000
0000
0000
0000
0000
0000
,
0000
0000
0000
0000
0000
0000
0000
0000
0000
0000
0000
3000
;

//---------------dance-single - ----------------
#NOTES:
     dance-single:
     :
     Hard:
     6:
     0.345296,0.448077,0.148417,0.180220,0.286232,228.000000,214.000000,14.000000,17.000000,0.000000,0.000000,0.345296,0.448077,0.148417,0.180220,0.286232,228.000000,214.000000,14.000000,17.000000,0.000000,0.000000:
0000
0000
0000
0000
,
0000
0000
0000
0000
,
0000
0000
0000
0000
,
0000
0000
0000
0000
,
1001
0000
0000
0000
0000
0000
1000
0000
0100
0000
0010
0000
,
1001
0000
0000
0000
0000
0000
0001
0000
0010
0000
0100
0000
,
1001
0000
0000
0000
0000
0000
1000
0000
0100
0000
0010
0000
,
0001
0000
0001
0100
0000
0100
0010
0000
0010
1000
0000
1000
,
0001
0000
0001
0000
0001
1000
0000
0001
0000
0001
0000
0000
,
1001
2000
3200
0320
,
0031
0100
0001
1000
,
0100
0000
0000
0010
0000
0000
0001
0000
1000
0001
0000
0000
,
1000
0010
1000
0001
,
0010
0000
0000
0100
0000
0000
1000
0000
0001
1000
0000
0000
,
0010
0100
0001
1000
,
0100
0000
0000
0010
0000
0000
0001
0000
1000
0001
0000
0000
,
0100
0000
0000
0100
0000
0000
0001
0000
1000
0001
0000
0000
,
0010
0000
0000
0100
0000
0000
1000
0000
0001
1000
0000
0000
,
0010
0000
0000
0010
0000
0000
1000
0000
0001
1000
0000
0000
,
0100
0000
0000
0010
0000
0000
0001
0000
1000
0001
0000
0000
,
1000
0010
0100
0001
,
2000
0000
3002
0000
,
1003
0000
0100
0010
,
0110
0000
0100
1000
,
1001
0000
0000
0000
0000
0000
1000
0000
0100
0000
0010
0000
,
0001
0000
0100
0010
0000
0100
0001
0000
0100
0010
0000
0100
,
0001
0000
0010
0100
,
1100
0000
1000
0001
,
0101
0000
0100
0010
,
2010
0000
0000
0000
0000
0000
3100
0000
0100
0010
0000
0010
,
0001
0000
0001
0000
0001
1000
0000
0001
0000
0001
0000
0000
,
1001
2000
3002
2003
,
3001
0100
0001
1000
,
0100
0000
0000
0010
0000
0000
0001
0000
1000
0001
0000
0000
,
1000
0010
1000
0001
,
0010
0000
0000
0100
0000
0000
1000
0000
0001
1000
0000
0000
,
0010
0100
0001
1000
,
0100
0000
0000
0010
0000
0000
0001
0000
1000
0001
0000
0000
,
0100
0010
1000
0001
,
0010
0000
0000
0100
0000
0000
1000
0000
0001
1000
0000
0000
,
1001
0000
0000
0000
0000
0000
1000
0000
0100
0000
0010
0000
,
1001
0000
0000
0000
0000
0000
0001
0000
0010
0000
0100
0000
,
1001
0000
0000
0000
0000
0000
1000
0000
0100
0000
0010
0000
,
0001
0000
0001
0100
0000
0100
0010
0000
0010
1000
0000
1000
,
0001
0000
0001
0000
0001
1000
0000
0001
0000
0001
0000
0000
,
1001
2000
3200
0320
,
0031
0100
0001
1000
,
0100
0000
0000
0010
0000
0000
0001
0000
1000
0001
0000
0000
,
1000
0010
1000
0001
,
0010
0000
0000
0100
0000
0000
1000
0000
0001
1000
0000
0000
,
0002
0000
2003
3200
,
0320
0000
0000
0000
0000
0032
0000
0000
0000
0000
0000
0000
,
0000
0000
0000
0000
0000
0000
0000
0000
0000
0000
0003
0000
;

//---------------dance-single - ----------------
#NOTES:
     dance-single:
     :
     Medium:
     3:
     0.255943,0.279606,0.116613,0.190821,0.000000,169.000000,158.000000,11.000000,18.000000,0.000000,0.000000,0.255943,0.279606,0.116613,0.190821,0.000000,169.000000,158.000000,11.000000,18.000000,0.000000,0.000000:
0000
0000
0000
0000
,
0000
0000
0000
0000
,
0000
0000
0000
0000
,
0000
0000
0000
0000
,
1001
0000
1000
0001
,
1001
0000
0001
1000
,
1001
0000
1000
0001
,
1001
1000
0100
0010
,
0002
0000
0000
0003
,
1000
0010
0001
0010
,
1000
1000
0001
0001
,
0010
0100
1000
0001
,
1000
1000
0001
0001
,
0100
0010
1000
0001
,
1000
0100
0010
0001
,
1000
0001
0010
0100
,
1000
1000
0010
0010
,
0100
0100
0001
0001
,
0010
0010
0100
0100
,
1000
1000
0001
0001
,
1000
0100
0010
0001
,
2000
0000
3002
0000
,
0003
0000
1000
0001
,
1001
0000
0010
0100
,
0110
0000
0001
1000
,
0001
0010
0100
1000
,
0001
0001
1000
1000
,
0020
0000
0230
0000
,
0302
0000
2003
0000
,
3200
0000
0310
0000
,
0002
0000
0000
0003
,
1000
0010
0001
0010
,
1000
2002
0000
3003
,
0001
0100
0010
1000
,
0100
0100
0010
0001
,
0100
0100
0010
1000
,
0001
0010
1000
0010
,
0001
0100
1000
0100
,
0002
2003
0000
3100
,
0010
0001
0100
0010
,
1001
0000
1000
0001
,
1001
0000
0001
1000
,
1001
0000
1000
0001
,
1001
1000
0100
0010
,
0002
0000
0000
0003
,
1000
0010
0001
0010
,
1000
1000
0001
0001
,
0010
0100
1000
0001
,
1000
1000
0001
0001
,
0100
0010
1000
0001
,
2000
0000
3200
0320
,
0032
0000
0000
0000
,
0000
0000
0000
0003
;

//---------------dance-single - ----------------
#NOTES:
     dance-single:
     :
     Easy:
     1:
     0.107526,0.167764,0.084810,0.031804,0.000000,71.000000,63.000000,8.000000,3.000000,0.000000,0.000000,0.107526,0.167764,0.084810,0.031804,0.000000,71.000000,63.000000,8.000000,3.000000,0.000000,0.000000:
0000
0000
0000
0000
,
0000
0000
0000
0000
,
0000
0000
0000
0000
,
0000
0000
0000
0000
,
1001
0000
0000
0000
,
0110
0000
0000
0000
,
1001
0000
0000
0000
,
0110
0000
0000
0000
,
1000
0000
0000
0000
,
0001
0000
0000
0000
,
1000
0000
0000
0000
,
0010
0000
0000
0000
,
1000
0000
0000
0000
,
0010
0000
0000
0000
,
0100
0000
0000
0000
,
0001
0000
0000
0000
,
0100
0000
0100
0000
,
0001
0000
0001
0000
,
1000
0000
1000
0000
,
0001
0000
0001
0000
,
1000
0000
0001
0000
,
2000
0000
0000
3000
,
0001
0000
0000
0000
,
0100
0000
0000
0000
,
0001
0000
0000
0000
,
0100
0000
0000
0000
,
0010
0000
0000
0000
,
1000
0000
0000
0000
,
0010
0000
0000
0000
,
1000
0000
0000
0000
,
0001
0000
0000
0000
,
1000
0000
0000
0000
,
0001
0000
0001
0000
,
1000
0000
1000
0000
,
0001
0000
0001
0000
,
1000
0000
1000
0000
,
0010
0000
0010
0000
,
0100
0000
0100
0000
,
0010
0000
0010
0000
,
0100
0000
0100
0000
,
1001
0000
0000
0000
,
0110
0000
0000
0000
,
1001
0000
0000
0000
,
0110
0000
0000
0000
,
1000
0000
0000
0000
,
0001
0000
0000
0000
,
1000
0000
0000
0000
,
0010
0000
0000
0000
,
1000
0000
1000
0000
,
0010
0000
0010
0000
,
2000
0000
0000
3000
,
0002
0000
0000
0000
,
0000
0000
0000
0003
;

//---------------dance-single - ----------------
#NOTES:
     dance-single:
     :
     Beginner:
     1:
     0.107526,0.167764,0.084810,0.031804,0.000000,71.000000,63.000000,8.000000,3.000000,0.000000,0.000000,0.107526,0.167764,0.084810,0.031804,0.000000,71.000000,63.000000,8.000000,3.000000,0.000000,0.000000:
// measure 0
0000
0000
0000
0000
,  // measure 1
0000
0000
0000
0000
,  // measure 2
0000
0000
0000
0000
,  // measure 3
0000
0000
0000
0000
,  // measure 4
1001
0000
0000
0000
,  // measure 5
1001
0000
0000
0000
,  // measure 6
1001
0000
0000
0000
,  // measure 7
1001
0000
0000
0000
,  // measure 8
1000
0000
0000
0000
,  // measure 9
0001
0000
0000
0000
,  // measure 10
1000
0000
0000
0000
,  // measure 11
0001
0000
0000
0000
,  // measure 12
1000
0000
0000
0000
,  // measure 13
0001
0000
0000
0000
,  // measure 14
1000
0000
0000
0000
,  // measure 15
0001
0000
0000
0000
,  // measure 16
1000
0000
1000
0000
,  // measure 17
0001
0000
0001
0000
,  // measure 18
1000
0000
1000
0000
,  // measure 19
0001
0000
0001
0000
,  // measure 20
1000
0000
0001
0000
,  // measure 21
2000
0000
0000
3000
,  // measure 22
0001
0000
0000
0000
,  // measure 23
1000
0000
0000
0000
,  // measure 24
0001
0000
0000
0000
,  // measure 25
1000
0000
0000
0000
,  // measure 26
0001
0000
0000
0000
,  // measure 27
1000
0000
0000
0000
,  // measure 28
0001
0000
0000
0000
,  // measure 29
1000
0000
0000
0000
,  // measure 30
0001
0000
0000
0000
,  // measure 31
1000
0000
0000
0000
,  // measure 32
0001
0000
0001
0000
,  // measure 33
1000
0000
1000
0000
,  // measure 34
0001
0000
0001
0000
,  // measure 35
1000
0000
1000
0000
,  // measure 36
0001
0000
0001
0000
,  // measure 37
1000
0000
1000
0000
,  // measure 38
0001
0000
0001
0000
,  // measure 39
1000
0000
1000
0000
,  // measure 40
1001
0000
0000
0000
,  // measure 41
1001
0000
0000
0000
,  // measure 42
1001
0000
0000
0000
,  // measure 43
1001
0000
0000
0000
,  // measure 44
1000
0000
0000
0000
,  // measure 45
0001
0000
0000
0000
,  // measure 46
1000
0000
0000
0000
,  // measure 47
0001
0000
0000
0000
,  // measure 48
1000
0000
1000
0000
,  // measure 49
0001
0000
0001
0000
,  // measure 50
2000
0000
0000
3000
,  // measure 51
0002
0000
0000
0000
,  // measure 52
0000
0000
0000
0003
;
