#TITLE:Yueni You and Me;
#SUBTITLE:;
#ARTIST:TadanoCo - (Cover) Eve & 38ban;
#TITLETRANSLIT:;
#SUBTITLETRANSLIT:;
#ARTISTTRANSLIT:;
#GENRE:;
#CREDIT:SKooT;
#MUSIC:Yueni You and Me.ogg;
#BANNER:Yueni You and Me Banner.png;
#BACKGROUND:Yueni You and Me BG.png;
#CDTITLE:;
#SAMPLESTART:49.264;
#SAMPLELENGTH:24.500;
#SELECTABLE:YES;
#OFFSET:-0.139;
#BPMS:0.000=120.000;
#STOPS:;
#BGCHANGES:;
#FGCHANGES:;

//--------------- dance-single - SKooT ----------------
#NOTES:
     dance-single:
     SKooT:
     Beginner:
     2:
     0,0,0,0,0:
0000
0000
0000
0000
,
0001
0000
0001
0000
,
1000
0000
1000
0000
,
0001
0000
0001
0000
,
1000
0000
1000
0000
,
0002
0003
0010
0000
,
2000
3000
0010
0000
,
0002
0003
0010
0000
,
2000
3000
0010
0000
,
1000
0000
0100
0000
,
0010
0000
0100
0000
,
1000
0000
0100
0000
,
0010
0000
0001
0000
,
0001
0000
0010
0000
,
0100
0000
0010
0000
,
0001
0000
0010
0000
,
0100
0000
1000
0000
,
0001
0001
0001
0001
,
1000
1000
1000
1000
,
0010
0010
0010
0010
,
0100
0100
0100
0100
,
0002
0000
2003
0000
,
3002
0000
2003
0000
,
3000
0000
0000
0000
,
0000
0000
0000
0000
,
1000
0000
0000
1000
0000
0000
0010
0000
,
0010
0000
0100
0000
,
0001
1000
0000
0010
,
0100
0000
0000
0100
0000
0000
0001
0000
,
0001
0000
1000
0000
,
0001
1000
0000
0010
,
1000
0000
0000
1000
0000
0000
0010
0000
,
0010
0000
0100
0000
,
0001
1000
0000
0010
,
0100
0000
0000
0100
0000
0000
0001
0000
,
0001
0000
0100
0100
,
0100
0000
0001
0000
0000
0001
0000
0000
,
1000
1000
1000
1000
,
0010
0000
0100
0000
,
0001
0001
0001
0001
,
0100
0000
0010
0010
,
1000
0000
0001
0000
,
0100
0000
0010
0000
,
0100
0000
0001
0000
,
0010
0000
0100
0100
,
1000
0000
0000
0000
;

//--------------- dance-single - SKooT ----------------
#NOTES:
     dance-single:
     SKooT:
     Easy:
     4:
     0,0,0,0,0:
0000
0000
0000
0000
,
0001
0100
0001
1001
,
0100
1000
0100
1001
,
0100
0010
0100
1001
,
1000
0100
0010
0001
,
0200
0310
0010
0010
,
0200
0301
0001
0001
,
0020
0130
0100
0100
,
2000
3001
0001
0001
,
0001
0100
0010
1000
,
0010
0100
0001
1000
,
0010
0100
0001
0100
,
0010
1000
0100
0100
,
0001
0100
0010
1000
,
0010
0100
0001
1000
,
0010
0100
0001
0100
,
0010
1000
0010
0010
,
1000
1000
0001
0001
,
0100
0100
0010
0010
,
1000
1000
0001
0001
,
0100
0100
0010
0010
,
1000
0001
1000
0002
,
0103
0010
1000
0100
,
1000
0001
0000
0000
,
0000
0000
0000
0000
,
0020
0000
0030
2000
0000
3000
0002
0000
,
0003
1000
0000
0000
0001
0000
0010
0000
,
0010
0001
1000
1000
,
0020
0000
0030
2000
0000
3000
0002
0000
,
0003
1000
0000
0000
0001
0000
0010
0000
,
0010
0001
1000
1000
,
0020
0000
0030
2000
0000
3000
0020
0000
,
0030
0100
0000
0000
0001
0000
1000
0000
,
1000
0001
0100
0100
,
0020
0000
0030
2000
0000
3000
0020
0000
,
0030
0100
0000
0000
0001
0000
1000
0000
,
1000
0000
0001
0000
0000
0001
0000
0000
,
1000
0100
0010
0001
,
0002
1003
0100
1000
,
0001
0010
0100
1000
,
2000
3001
0110
1001
,
1000
0010
0100
0100
,
0010
0100
0001
0001
,
1000
0010
0100
0100
,
0010
1000
1000
0001
,
1001
0000
0000
0000
;

//--------------- dance-single - SKooT ----------------
#NOTES:
     dance-single:
     SKooT:
     Medium:
     9:
     0,0,0,0,0:
0000
0000
0000
0000
,
0001
0000
0100
0001
0001
0000
1010
0000
,
0100
0000
0001
0100
0100
0000
0101
0000
,
0010
0000
1000
0010
0010
0000
0110
0000
,
0001
0000
1000
0100
1000
0000
0001
0000
,
0102
0000
1003
0001
0100
0000
0001
1000
,
0210
0000
0301
0001
0100
0010
1000
0100
,
1002
0000
0013
0001
1000
0000
0100
1000
,
1020
0000
0130
0001
0010
0100
1000
1000
,
0010
0100
0001
1000
0001
0010
0100
1000
,
0010
0100
0001
1000
0001
0010
0100
1000
,
0010
0100
0001
1000
0001
0010
0100
1000
,
0010
0100
0001
1000
1100
0000
0011
0000
,
0100
0010
1000
0001
1000
0100
0010
0001
,
0100
0010
1000
0001
1000
0100
0010
0001
,
0110
0000
1000
0001
1000
0100
0010
0001
,
0110
0000
1000
0001
1010
0000
0011
0000
,
0001
0010
0001
0100
0010
1000
0100
0010
,
0001
1000
0010
0100
0010
1000
0010
0000
,
1000
0100
1000
0010
0100
0001
0010
0100
,
1000
0001
0100
0010
0100
0001
0100
0000
,
0001
0100
0020
0000
1030
0001
2000
0000
,
3001
0100
0020
0000
2030
3000
0200
0300
,
0020
0030
0001
0000
0000
0000
0000
0000
,
0000
0000
0000
0000
,
0010
1000
1000
0100
0010
0010
0001
0100
,
0100
0000
0000
0010
0000
0000
0010
0000
1000
0000
0001
0000
0100
0000
0001
0000
,
0100
0010
1000
0001
0010
0001
1000
0001
,
0010
0001
0001
0010
0100
0100
1000
0010
,
0010
0000
0000
0100
0000
0000
0010
0000
1000
0000
0001
0000
0100
0000
0001
0000
,
0100
0010
1000
0001
0010
0001
1000
0010
,
1000
0100
0010
0001
0010
0100
1000
0100
,
0010
0000
0000
0001
0000
0000
0010
0000
0100
0000
0010
0000
0001
0000
0100
0000
,
0010
1000
0010
0100
0001
1000
0100
1000
,
0001
0010
0100
1000
0100
0010
0001
0010
,
0100
0000
0000
1000
0000
0000
0100
0000
0010
0000
0100
0000
1000
0000
0010
0000
,
0100
0001
1010
0000
0000
0101
0000
0000
,
1000
0010
0100
0010
1000
0001
1000
0100
,
0010
0100
1000
0001
0100
0010
0100
0000
,
0001
1000
0001
0010
0001
1000
0010
0100
,
0001
0000
0100
0010
0110
0000
1001
0000
,
1000
0000
0010
1000
1000
0000
0011
0000
,
0010
0000
0001
0100
0100
0000
1010
0000
,
0100
0000
0001
1000
1000
0000
0011
0000
,
1000
0000
0010
0010
0100
0000
0001
0000
,
1010
0000
0000
0000
;

//--------------- dance-single - SKooT ----------------
#NOTES:
     dance-single:
     SKooT:
     Hard:
     12:
     0,0,0,0,0:
0000
0000
0000
0000
,
0001
1000
0000
0010
0100
0000
0001
1000
0001
0000
0000
0000
1000
0000
0001
0000
,
0100
0010
0000
1000
0001
0000
0100
0000
0100
0000
0000
0000
1001
0000
0000
0000
,
0010
1000
0000
0001
0100
0000
0010
0000
0010
0000
0000
0000
0100
0000
0010
0000
,
1000
0010
0000
1000
0001
0000
0100
0000
0001
0000
0000
0000
0001
0000
0000
0000
,
0102
0000
0000
0103
0010
0000
1000
0000
1000
0000
0000
0000
0001
0000
1000
0000
,
0210
0000
0000
0310
1000
0000
1000
0000
0001
0000
1000
0000
0100
0000
0010
0000
,
0012
0000
0000
0103
0010
0000
0010
0000
0100
0000
0000
0000
0001
0000
1000
0000
,
0120
0000
0000
0130
0001
0000
1000
0000
0010
0000
0100
0000
0001
0000
0010
0000
,
0001
0100
0000
0010
1000
0000
0001
0000
1000
0000
0100
0000
0010
0000
0001
0000
,
1000
0001
0000
0100
0010
0000
1000
0000
0010
0000
1000
0000
0100
0000
0010
0000
,
0001
0100
0000
0001
1000
0000
0010
0000
1000
0000
0100
0000
0010
0000
0001
0000
,
0100
0010
0000
0100
0001
0000
1000
0000
0101
0000
0000
0000
1100
0000
0000
0000
,
1000
0100
0000
1000
0100
0000
0010
0000
0100
0000
1000
0000
0100
0000
0010
0000
,
0100
1000
0000
0001
0010
0000
0001
0000
0010
0000
0100
0000
0010
0000
0001
0000
,
1010
0000
0000
0100
0010
0000
1000
0000
0001
0000
0100
0000
0010
0000
1000
0000
,
0011
0000
0000
0100
0010
0000
0001
0000
1001
0000
0000
0000
0110
0000
0000
0000
,
0001
0010
0001
0100
0010
1000
0100
0010
,
0001
1000
0010
0100
0010
1000
0010
0000
,
1000
0100
1000
0010
0100
0001
0010
0100
,
1000
0001
0100
0010
0100
0001
0100
0000
,
0001
1000
0002
0000
0103
0100
0002
0000
,
1003
0100
0020
0030
0200
0300
2000
0000
,
3020
0000
0000
0000
0130
0000
0000
0001
1000
0002
0000
0103
0000
0000
0001
1000
,
0001
1000
0010
0000
0000
0000
0000
0000
0000
0000
0000
0000
0000
0000
0000
0000
,
0002
0100
1003
2000
0100
3001
0002
0100
,
1003
0000
0010
0100
0000
0100
0010
0000
1000
0001
0000
0001
0100
0000
0001
0000
,
0010
0000
0100
0000
1000
0010
0100
0001
0010
0000
0001
0000
1000
0000
0010
0000
,
2000
0100
3001
0002
0100
1003
2000
0100
,
3001
0000
0010
0100
0000
0100
0010
0000
0001
1000
0000
1000
0100
0000
1000
0000
,
0010
0000
0100
0000
0001
0010
0100
1000
0010
0000
1000
0000
0001
0000
1000
0000
,
0110
0100
0010
0110
0010
0100
0110
0100
,
0010
0000
1000
0100
0000
0100
0010
0000
0001
1000
0010
0000
0100
0000
0001
0000
,
1000
0000
0010
0000
0100
0010
1000
0000
0100
0000
1000
0000
0001
0000
0100
0000
,
1001
0001
1000
1001
1000
0001
1001
0001
,
1000
0000
0010
0100
0000
0001
1000
0000
0010
0000
1000
0000
0100
0000
1000
0000
,
0010
1000
0101
0000
0000
1010
0000
0000
,
1000
0100
0010
0001
1000
0100
0010
0000
0001
0000
0100
0000
0010
0000
1000
0000
,
0100
0010
0001
1000
0100
0001
0100
1000
,
1000
0100
0010
0001
1000
0100
0010
0000
0100
0000
1000
0000
0001
0000
0100
0000
,
0001
1000
0010
0100
0110
0000
1001
0000
,
1000
0001
0000
0100
0010
0000
1000
0000
1000
0000
0010
0000
0100
0000
0001
0000
,
0010
0100
0000
0010
0001
0000
1000
0000
0010
0000
0100
0000
0001
0000
1000
0000
,
0100
0010
0000
0001
0100
0000
0001
0000
0001
0000
1000
0000
0010
0000
0100
0000
,
0001
0100
0000
0001
1000
0000
0100
0000
0011
0000
0000
0000
1000
0000
0000
0000
,
0101
0000
0000
0000
;
