#TITLE:Yellow;
#SUBTITLE:;
#ARTIST:Yoh Kamiyama;
#TITLETRANSLIT:;
#SUBTITLETRANSLIT:;
#ARTISTTRANSLIT:;
#GENRE:;
#CREDIT:;
#MUSIC:Yellow.ogg;
#BANNER:Yellow Banner.png;
#BACKGROUND:Yellow BG.png;
#CDTITLE:;
#SAMPLESTART:37.604;
#SAMPLELENGTH:16.140;
#SELECTABLE:YES;
#OFFSET:-0.114;
#BPMS:0.000=118.030;
#STOPS:;
#BGCHANGES:;
#FGCHANGES:;

//--------------- dance-single - SKooT ----------------
#NOTES:
     dance-single:
     SKooT:
     Beginner:
     2:
     0,0,0,0,0:
0000
0000
0010
0000
,
0010
0000
1000
0000
,
1000
0000
0001
0000
,
0001
0000
0010
0000
,
0010
0000
1000
0000
,
1000
0000
0010
0000
,
0010
0000
0100
0000
,
0100
0000
0001
0000
,
0001
0000
1000
0000
,
0001
0000
1000
0000
,
0010
0000
0100
0000
,
0100
0000
0010
0000
,
1000
0000
0001
0000
,
0010
0000
0001
0000
,
1000
0000
0010
0000
,
0001
0000
0010
0000
,
1000
0000
0001
0000
,
0001
0000
1000
0000
,
1000
1000
0000
0010
,
0000
0100
0000
0001
,
0000
1000
0000
0001
,
0000
0010
0000
0001
,
0000
1000
0000
0010
,
0000
1000
0000
0100
,
0000
0010
0000
0001
,
0000
0001
0000
0000
,
0100
0100
0000
0010
,
0000
0100
0000
0010
,
0000
1000
0000
0001
,
0000
1000
0000
0100
,
0000
0010
0010
0000
,
0100
0000
1000
0000
,
0001
0000
1000
0000
,
0010
0000
0100
0000
,
0001
0000
0010
0000
,
0100
0000
1000
0000
,
0010
0000
0100
0000
,
0001
0000
0100
0000
,
0020
0000
2030
0000
,
0000
3000
0010
0010
,
0000
0010
0000
1000
,
0000
0001
0000
1000
,
0000
0100
0000
1000
,
0000
0001
0000
0100
,
0000
0001
0000
0010
,
0000
0100
0000
1000
,
0000
1000
0000
0010
,
0000
0010
0000
1000
,
0000
0001
0000
0100
,
0000
0001
0000
1000
,
0000
0100
0000
1000
,
0000
0001
0000
0010
,
0000
0001
0000
1000
,
0000
0001
0000
1000
,
0000
0010
0000
0100
,
0000
0001
0000
0000
;

//--------------- dance-single - SKooT ----------------
#NOTES:
     dance-single:
     SKooT:
     Easy:
     5:
     0,0,0,0,0:
0000
0000
0010
0010
,
0010
0100
0001
0010
,
0100
0100
0010
0001
,
1000
1000
0001
0100
,
0010
0010
1000
0001
,
0001
0100
0010
1000
,
0001
0001
1000
0010
,
1000
0010
0100
0001
,
0010
0000
1000
0010
,
1000
0100
0010
0100
,
1000
0001
0100
0001
,
1000
0001
0100
0010
,
0100
0001
1000
0010
,
1000
0001
0010
0001
,
1000
0001
0100
0001
,
1000
0010
0100
0100
,
0010
0000
0000
0000
1000
0000
0000
0000
0001
0000
0000
0001
0000
0000
0001
0000
,
0000
0000
0000
0000
0001
0000
0000
0000
1000
0000
0000
1000
0000
0000
1000
0000
,
0000
1000
1010
0110
,
1001
0010
1000
0001
,
1000
0010
0100
0001
,
0010
0100
0010
0001
,
1000
0010
0110
0110
,
1001
1000
0110
0110
,
1001
0001
1000
0010
,
0010
0000
0000
2000
0000
3010
0010
0000
,
1000
0100
0001
0100
,
1000
0010
1000
0100
,
0001
0010
0001
0100
,
1000
0010
1000
0100
,
0001
0010
0001
1000
,
0100
1000
0010
0100
,
0100
0010
0010
1000
,
1000
0100
0100
0010
,
0010
0010
0001
0010
,
0100
1000
0001
1000
,
1000
0001
0100
0100
,
0001
0100
0100
0001
,
2000
0000
3002
0000
,
0000
0003
0101
0110
,
1001
0100
0001
1000
,
0001
0100
0010
1000
,
0100
0010
0100
1000
,
0001
0100
0110
0110
,
1001
0001
0110
0110
,
1001
1000
0001
0100
,
0100
0000
0000
0002
0000
0103
0100
0000
,
0001
0010
1000
0101
,
1000
0101
0001
1100
,
0001
1100
0001
0110
,
1000
0110
0001
0011
,
1000
0011
1000
1010
,
0001
1010
0001
0110
,
1000
0110
0010
1001
,
0100
1001
0010
0110
,
1000
0000
0001
0100
0000
0000
0000
0000
;

//--------------- dance-single - SKooT ----------------
#NOTES:
     dance-single:
     SKooT:
     Medium:
     8:
     0,0,0,0,0:
0000
0000
0010
0010
,
0010
0000
0100
0000
0001
1000
0010
0000
,
0100
0000
0100
0000
0001
0100
0010
0000
,
1000
0000
1000
0000
0001
0010
0100
0000
,
0010
0000
0010
0000
0001
1000
0001
0000
,
0001
0000
0100
0000
0010
1000
0010
0000
,
0010
0000
0000
0000
1000
0000
0000
0000
0001
0000
0000
0010
0000
0000
0000
0000
,
1000
0000
0000
0010
0000
0000
0000
0000
0001
0000
0010
0000
0100
0000
1000
0000
,
0001
0000
0000
0000
0001
0100
0010
0000
,
1000
0010
0100
0000
0001
1000
0010
0000
,
0100
0001
0010
0000
0001
0000
0001
0000
,
1000
1000
0100
0010
,
0001
0000
0001
0000
0100
0001
0010
0000
,
0001
1000
0001
0000
0100
0010
0100
0000
,
1001
0000
1000
0010
1000
0000
1000
0000
,
0001
0100
0001
0000
1000
0000
0010
0100
,
0010
0000
0000
0000
1000
0000
0000
0000
0001
0000
0000
0010
0000
0000
0100
0000
,
0000
0010
0000
0000
0001
0000
1000
0000
0100
0000
0000
0010
0000
0000
0100
0000
,
0000
1000
0000
0000
0001
0000
0000
0000
1010
0000
0000
0000
0011
0000
0000
0000
,
1001
0000
0010
0000
0100
0010
1000
0000
,
0010
1000
0001
0000
0001
0010
0100
0000
,
0010
0001
1000
0000
0100
0010
0100
0000
,
0010
0001
0010
0000
0110
0000
1100
0000
,
0101
1000
0011
1010
,
0110
0000
0001
0000
1000
0000
0010
0100
,
0010
0100
0001
2000
0000
3010
0010
0000
,
0001
0000
0100
0000
0010
1000
0000
1000
,
0010
0000
0101
0000
0100
0001
0000
0001
,
0100
0010
0010
0000
1000
0001
0000
0001
,
1000
0000
0011
0000
0001
1000
0000
1000
,
0001
0000
0100
0000
0010
1000
0001
0000
,
0200
0000
0302
0000
0103
0010
1000
0000
,
1000
0100
0010
0000
0010
0001
1000
0000
,
1000
0010
0100
0000
0100
0001
0010
0000
,
0010
0100
0010
0000
0001
1000
0010
0000
,
0010
0100
0001
0000
0001
0010
0100
0000
,
0100
0010
0001
0000
0100
0000
0100
0001
,
0100
0000
0100
0010
0100
0000
0001
0000
,
0002
0000
0000
0003
2000
0000
0000
0000
,
0000
3001
0011
1010
,
1001
0000
0100
0000
0010
0100
0001
0000
,
0100
0001
1000
0000
1000
0100
0010
0000
,
0100
1000
0001
0000
0010
0100
0010
0000
,
0100
1000
0100
0000
0110
0000
0011
0000
,
1010
0001
1100
0101
,
0110
0000
1000
0000
0001
0000
0100
0010
,
0100
0010
1000
0002
0000
0103
0100
0000
,
1000
0010
1000
0101
,
1000
0101
0001
1100
,
0001
1100
0001
0110
,
1000
0110
0001
0011
,
1000
0011
1000
1010
,
0001
1010
0001
0110
,
1000
0110
0010
1001
,
0100
1001
0010
0110
,
1000
0000
0001
0100
0000
0000
0000
0000
;

//--------------- dance-single - SKooT ----------------
#NOTES:
     dance-single:
     SKooT:
     Hard:
     10:
     0,0,0,0,0:
0000
0000
0010
0010
,
0010
0000
0000
0100
0000
0100
0000
0000
0001
0000
0100
0000
1000
0000
0100
0000
,
0001
0000
0000
0010
0000
0010
0000
0000
0100
0000
1000
0000
0010
0000
0100
0000
,
0001
0000
0000
1000
0000
1000
0000
0000
0010
0000
0100
0000
0001
0000
1000
0000
,
0100
0000
0000
0010
0000
0010
0000
0000
0001
0000
0010
0000
1000
0000
0010
0000
,
0001
0000
0000
0100
0000
0100
0000
0000
0010
0000
1000
0000
0010
0000
0001
0000
,
0010
0000
0000
1000
0000
1000
0000
0000
0001
0000
0000
0010
0000
0010
0000
0000
,
1000
0000
0000
0010
0000
0010
0000
0000
0001
0000
0010
0000
0100
0000
1000
0000
,
0001
0000
0000
0000
0001
0100
0010
1000
,
0001
0100
0010
0100
0001
0100
1000
0100
,
0001
1000
0001
0100
0010
1000
0000
0001
,
0100
1000
0000
0010
0100
0001
0100
1000
,
0100
0010
0001
0000
0010
1000
0100
0010
,
0001
0100
0010
1000
0010
0001
0010
1000
,
0001
0000
1000
0010
1000
0001
0000
0001
,
0100
0001
0000
1000
0000
0010
0000
0100
,
0010
0000
1000
0000
0000
0000
1000
0000
0001
0000
0000
0010
0000
0000
1000
0000
,
0000
0010
0000
0000
0001
0000
1000
0000
0010
0000
0000
0001
0000
0000
0010
0000
,
0100
0010
0100
0010
1000
0000
0000
0000
0110
0000
0000
0000
0101
0000
0000
0000
,
1100
0000
0010
1000
0100
1000
0010
0100
,
0010
0001
0010
1000
0001
0010
0100
0010
,
1000
0010
0001
1000
0100
1000
0010
0100
,
0001
1000
0001
0000
0110
0000
1100
0000
,
0101
0000
1000
0100
0011
0000
1010
0000
,
0110
1000
0001
0100
0000
0010
1000
0001
,
0010
0100
1000
0002
0000
0013
0010
0000
,
0001
1000
0100
0000
1000
0001
0100
0000
0010
0000
1000
0000
0001
0000
1000
0000
,
0010
0000
0101
0000
0100
0001
1000
0001
,
0100
0010
0010
0000
1000
0001
0010
0001
,
1000
0000
0011
0000
0001
1000
0010
1000
,
0001
0000
0001
0010
0100
1000
0010
0100
,
0002
0000
0023
0000
0130
0010
0001
1000
,
0010
1000
0001
0100
0000
0010
1000
0010
,
0001
0010
0100
0001
0010
0100
1000
0010
,
1000
0001
0000
0100
0001
1000
0010
0100
,
0002
0000
2003
0000
3001
0010
0001
0100
,
0010
1000
0001
0010
0100
0000
0100
1000
,
0100
0000
0100
0010
0200
0000
1300
0002
,
1000
0000
1000
0003
0020
0000
0000
0000
,
0000
0031
0110
1100
,
0011
0000
1001
0001
0010
0001
0101
0100
,
0010
1000
1100
1000
0100
0010
0110
0100
,
1000
0001
0101
0001
0100
0010
1010
1000
,
0001
0010
1100
0100
0110
0000
0011
0000
,
1010
0000
0001
0010
1100
0000
0101
0000
,
0100
0001
1000
0010
0100
0001
0001
1000
,
0010
0100
0001
1000
0000
0100
0100
0000
,
1000
0010
0001
0010
1000
0000
0101
0000
,
1000
0000
0000
0010
0100
0000
0001
0000
0010
0000
0000
0000
0110
0000
0000
0000
,
0010
0000
0000
0001
1000
0000
0010
0000
0100
0000
0000
0000
1010
0000
0000
0000
,
1000
0000
0000
0100
1000
0000
0001
0000
0010
0000
0000
0000
1001
0000
0000
0000
,
0100
0000
0000
0010
1000
0000
0100
0000
0010
0000
0000
0000
0011
0000
0000
0000
,
0100
0000
0000
0001
1000
0000
0010
0000
0100
0000
0000
0000
0110
0000
0000
0000
,
1000
0000
0000
0100
1000
0000
0001
0000
0010
0000
0000
0000
1100
0000
0000
0000
,
0010
0000
0000
0001
1000
0000
0010
0000
0100
0000
0000
0000
1001
0000
0000
0000
,
0010
0000
0000
0000
0001
1000
0001
0100
0000
0000
0000
0000
0000
0000
0000
0000
;
