#TITLE:VORTEX;
#SUBTITLE:- Link Click S2 OP;
#ARTIST:Bai Sha JAWS;
#TITLETRANSLIT:;
#SUBTITLETRANSLIT:;
#ARTISTTRANSLIT:;
#GENRE:;
#CREDIT:;
#MUSIC:VORTEX.ogg;
#BANNER:VORTEX BN.png;
#BACKGROUND:VORTEX BG.png;
#CDTITLE: ;
#SAMPLESTART:17.004;
#SAMPLELENGTH:15.078;
#SELECTABLE:YES;
#OFFSET:1.043;
#BPMS:0.000=192.000;
#STOPS:;
#DISPLAYBPM:192.000;
#LASTSECONDHINT:136.0000;
#BGCHANGES:3.000=VORTEX.avi=1.000=1=0=0=StretchNoLoop==CrossFade==;
#FGCHANGES:;

//--------------- dance-single - SKooT ----------------
#NOTES:
     dance-single:
     SKooT:
     Beginner:
     3:
     0,0,0,0,0:
0000
0000
0000
0000
,
0000
0000
0000
0000
,
0000
0000
0001
0000
,
0000
1000
0000
0000
,
0001
0000
0000
0100
,
0000
0000
0010
0000
,
0000
0100
0000
0000
,
0001
0000
0000
0010
,
0000
0000
0100
0000
,
0000
1000
0000
0000
,
0010
0000
0000
0100
,
0000
0000
0001
0000
,
0000
1000
0000
0000
,
0001
0000
0000
2000
,
0000
3000
1000
0000
,
0000
0001
0000
0000
,
1000
0000
0000
0010
,
0000
0000
0100
0000
,
0000
0001
0000
0000
,
0010
0000
0000
0100
,
0000
0000
0010
0000
,
0000
0001
0000
0000
,
0100
0000
0000
0010
,
0000
0000
1000
0000
,
0000
0001
0000
0000
,
1000
0000
0000
0002
,
0000
0003
0100
0000
,
0000
0010
0000
0100
,
0010
0000
0000
1000
,
0000
0001
0001
0000
,
0000
1000
0000
0010
,
1000
0000
0000
0001
,
0000
1000
1000
0000
,
0000
0010
0000
0100
,
0010
0000
0000
1000
,
0000
0001
0001
0000
,
0000
0010
0000
0001
,
0100
0000
0000
0001
,
0000
0001
0100
0000
,
0010
0100
0000
0000
,
0001
0000
1000
1000
,
0000
0000
0001
0000
,
0000
1001
0000
0000
,
1000
0000
0001
0001
,
0000
0000
0100
0000
,
0010
0100
0000
0000
,
0001
0000
1000
0002
,
0000
0000
0103
0000
,
0000
0000
0000
0000
,
0000
0000
0000
0001
,
0000
0000
2000
0000
,
0000
0000
0000
0000
,
0000
0000
0000
0000
,
0000
3000
0001
0000
,
1000
0010
0000
0100
,
0001
0000
0000
1000
,
0000
0001
1000
0000
,
0010
0100
0000
0000
,
0001
0000
0000
0010
,
0000
0010
0100
0000
,
1000
0100
0000
0000
,
1000
0000
0000
0001
,
0000
0100
0001
0000
,
0000
0001
0000
0000
,
0010
0000
0000
0100
,
1000
0000
1001
0000
,
0001
0100
0000
0010
,
1000
0000
0000
0001
,
0000
1000
0001
0000
,
0100
0010
0000
0000
,
1000
0000
0000
1000
,
0000
0010
0100
0000
,
0001
0010
0000
0000
,
0100
0000
0000
1000
,
0000
0001
2000
0000
,
0000
0000
0000
0000
,
0000
3000
0000
0000
;

//--------------- dance-single - SKooT ----------------
#NOTES:
     dance-single:
     SKooT:
     Easy:
     6:
     0,0,0,0,0:
0000
0000
0000
0000
,
0000
0000
0000
0000
,
0000
0000
0001
0000
,
0100
0010
0000
1000
,
0001
0000
0010
0001
,
0000
1000
0100
0000
,
1000
0010
0000
0100
,
0001
0000
0010
0100
,
0000
1000
0001
0000
,
1000
0100
0000
1000
,
0010
0000
0100
0001
,
0000
0010
0001
0000
,
1000
0010
0000
0100
,
0001
0000
1000
0002
,
0000
0003
1000
0010
,
1000
0002
0000
0103
,
0010
1000
0010
0100
,
0001
0010
0001
1000
,
0010
2000
0000
3010
,
0100
0001
0100
0010
,
1000
0001
0100
0001
,
1000
0200
0000
1300
,
0001
1000
0010
0100
,
0001
0010
0002
0000
,
0003
0020
0000
0030
,
0200
0000
0300
2000
,
0000
0000
0000
3000
1001
0000
0000
0000
,
0100
0010
1000
0100
,
0010
0001
0100
0001
,
1000
0010
1000
0000
,
1000
0100
0010
0100
,
1000
0001
0001
1000
,
0010
1000
1001
0001
,
0010
0100
1000
0100
,
1000
0010
1000
0001
,
1000
0010
0100
0001
,
1000
0001
1000
1000
,
0001
2000
3000
0000
,
0000
0002
0000
0003
1000
0000
0000
0000
,
0010
0100
0000
0001
,
1000
0000
0001
0010
,
0000
0000
0000
0000
0001
0000
0000
0000
2000
3000
0000
0000
0000
0000
0000
0000
,
0000
1001
0000
1000
,
0010
0000
1000
0100
,
0000
1000
0001
0000
,
0010
0100
0000
1000
,
0100
0010
0001
2000
,
0000
0000
3000
0010
,
0100
0010
0000
1000
,
0001
0000
0000
0100
,
0000
0000
0002
0000
,
0003
0000
0002
0000
0000
0003
0000
0000
,
0002
0000
0003
2000
,
0000
3000
1001
0001
,
1000
0010
0100
0001
,
0000
0000
0000
1000
0000
0000
1000
0000
,
0001
0100
0010
0100
,
0010
1000
0100
0010
,
0000
0000
0000
0001
0000
0000
0001
0000
,
0100
0010
1000
0100
,
0010
0100
1000
0001
,
0000
0000
0000
0001
0000
0000
1000
0000
,
0100
0000
0010
0000
0001
0000
0000
0001
,
0000
0000
0100
0000
0000
0100
0000
0000
,
0010
0000
0000
0010
0000
0000
0100
0000
,
0001
1000
1001
1000
,
0001
0100
0010
1000
,
0000
0000
0000
0001
0000
0000
0001
0000
,
1000
0010
0100
0010
,
0100
0001
0010
0100
,
0000
0000
0000
1000
0000
0000
1000
0000
,
0010
0100
0001
0010
,
0100
0010
0001
1000
,
0000
0000
0000
1000
0000
0000
0001
0000
,
0010
0100
2000
0000
,
0000
0000
0000
0000
,
0000
3000
0000
0000
;

//--------------- dance-single - SKooT ----------------
#NOTES:
     dance-single:
     SKooT:
     Medium:
     9:
     0,0,0,0,0:
0000
0000
0000
0000
,
0000
0000
0000
0000
,
0000
0000
0001
0000
,
0100
0010
0000
1000
,
0001
0000
0010
0001
,
0000
1000
0100
0000
,
1000
0010
0000
0100
,
0001
0000
0010
0100
,
0000
1000
0001
0000
,
1000
0100
0000
1000
,
0010
0000
0100
0001
,
0100
0010
1000
0010
,
0001
0010
1000
0100
,
0001
0100
1000
0002
,
0000
0003
1000
0010
,
1000
0002
0000
0013
,
0001
1000
0010
0100
,
0001
0010
0100
1000
,
0010
2000
0000
3010
,
0100
0001
0010
1000
,
0010
0001
0100
0010
,
1000
0200
0000
1300
,
0001
1000
0010
0100
,
0001
0010
0002
0000
,
0003
0020
0000
0030
,
0200
0000
0300
2000
,
0000
0000
0000
3000
1001
0000
0000
0000
,
0100
0000
0001
0000
0100
0001
1000
0000
,
0010
1000
0001
0010
,
0001
1000
0010
0000
1000
0000
0000
0000
,
1000
0000
0100
0000
0010
0001
0100
0000
,
0010
1000
0100
1000
,
0010
1000
0001
1000
0001
0000
1000
0000
,
0010
0000
1000
0000
0001
0010
0100
0000
,
0001
0000
1000
0100
0010
0000
1000
0000
,
0010
1000
0001
0000
0011
0000
0001
0000
,
0100
0000
0010
1000
0001
1000
0100
0000
,
1100
1000
0001
0000
,
0000
0010
0010
0010
0001
0000
0100
0000
,
0010
0000
0100
0000
0100
0010
1000
0000
,
0010
0100
0001
0001
,
0010
0000
0100
0000
1000
0000
0000
0000
2100
3000
0000
0000
0000
0000
0000
0000
,
0000
0000
0011
0000
0001
1000
0100
0000
,
0010
0010
0001
0100
,
0010
1000
1100
0000
,
0010
0001
0100
0000
0000
0000
0010
1000
,
0100
1000
0001
2002
,
0000
0000
3003
1000
,
0001
0010
0000
0001
,
1000
0000
0000
0100
,
0000
0000
0002
0000
,
0003
0000
0002
0000
0000
0003
0000
0000
,
0002
1000
0000
1000
0003
0001
2000
0000
,
0000
3000
0101
0001
,
1000
0010
0100
0001
,
0010
0000
0001
0010
0100
0000
1000
0000
,
0001
0010
0001
0000
1001
0000
1000
0000
,
0010
1000
0100
0010
,
0001
0000
0100
0010
1000
0000
0001
0000
,
0100
0001
1000
0000
1100
0000
0100
0000
,
0010
0100
1000
0001
,
0100
0000
0010
0100
0001
0000
1000
0000
,
0100
0010
0011
0001
,
0010
0000
0100
0000
0010
0001
0000
0001
,
0100
0000
0010
1000
0000
1000
0001
0000
,
0100
0010
0100
0000
0110
0000
1000
0000
,
0001
0100
0010
1000
,
0100
0000
1000
0100
0010
0000
0001
0000
,
1000
0001
1000
0000
1010
0000
0010
0000
,
0100
0001
0010
0100
,
1000
0000
0010
0100
0001
0000
1000
0000
,
0010
1000
0001
0000
0011
0000
0010
0000
,
0100
0010
0001
1000
,
0010
0000
0100
0010
1000
0000
0001
0000
,
0010
0100
2000
0000
,
0000
0000
0000
0000
,
0000
3000
0000
0000
;

//--------------- dance-single - SKooT ----------------
#NOTES:
     dance-single:
     SKooT:
     Hard:
     11:
     0,0,0,0,0:
0000
0000
0000
0000
,
0000
0000
0000
0000
,
0000
0000
0001
0000
,
0100
0010
0000
1000
,
0001
0000
0010
0001
,
0000
1000
0100
0000
,
1000
0010
0000
0100
,
0001
0000
0010
0100
,
0000
1000
0001
0000
,
1000
0100
0000
1000
,
0010
0000
0100
0001
,
0000
0001
1000
0010
,
0100
0010
1000
0100
,
0001
0100
1000
0002
,
0000
0003
1000
0010
,
1000
0002
0000
0013
,
0001
1000
0010
0100
,
0001
0010
0100
1000
,
0010
2000
0000
3010
,
0100
0001
0010
1000
,
0010
0001
0100
0010
,
1000
0200
0000
1300
,
0001
1000
0010
0100
,
0001
0010
0002
0000
,
0003
0020
0000
0030
,
0200
0000
0300
2000
,
0000
0000
0000
3000
1001
0000
0000
0000
,
0100
1000
0010
0000
0100
0010
0001
0000
,
0010
0000
1000
0000
0001
1000
0010
0000
,
0100
0001
0010
0000
0001
0000
0000
0000
,
0001
1000
0100
0000
0010
0100
1000
0000
,
0010
0001
0010
0000
0100
0001
0010
0000
,
0100
0000
1000
0000
0001
1000
0001
1000
0001
0000
0000
0000
1000
0000
0001
0000
,
0010
0001
1000
0000
0001
0010
0100
1000
,
0001
0000
0100
0010
1000
0000
1000
0000
,
0010
1000
0001
0000
1001
0000
0001
0010
,
0001
0100
0010
0000
1000
0100
1000
0000
,
0001
0010
0100
0000
0010
0000
0000
0000
,
0000
0010
0010
0010
0001
0000
0100
0000
,
0010
1000
0100
0000
0100
1000
0010
0000
,
0010
0100
0010
0001
0010
1000
0001
0000
,
0010
0000
0100
0000
1000
0000
0000
0000
2100
3000
0000
0000
0000
0000
0000
0000
,
0000
0000
0011
0000
0001
1000
0100
0000
,
0010
0100
0001
0100
1000
0001
0100
0000
,
0010
1000
1100
0000
,
0010
0001
0101
0000
0000
0000
0001
1000
,
0010
0100
0001
2002
,
0000
0000
3003
1000
,
0001
0010
0000
0001
,
1000
0000
0000
0100
,
0000
0000
0002
0000
,
0003
0000
0002
0000
0000
0003
0000
0000
,
0002
1000
0000
0100
0003
0001
2000
0000
,
0000
3000
0101
0100
,
1000
1100
0100
0001
,
0011
0000
0001
1000
0100
0000
1100
0000
,
1000
0001
0100
0000
0011
0000
0001
0000
,
1000
1010
1000
0001
,
0101
0000
0100
0010
1000
0000
1001
0000
,
1000
0010
0100
0000
1001
0000
1000
0000
,
0001
0011
0010
0100
,
1100
0000
0100
1000
0010
0000
0110
0000
,
0100
0000
0001
0000
0011
0000
0010
0100
,
1000
0000
1001
0000
0001
0100
0000
0100
,
0010
0000
1000
0100
0000
0100
0010
0000
,
0001
1000
0001
1000
1001
0000
0010
0000
,
0001
0011
0100
1000
,
1100
0000
1000
0100
0010
0000
0110
0000
,
0100
0010
0001
0000
0101
0000
0100
0000
,
1000
1100
0100
0001
,
1001
0000
0010
0001
1000
0000
1010
0000
,
0010
1000
0001
0000
1001
0000
0001
0000
,
1000
1100
0100
0010
,
0011
0000
0010
0001
0100
0000
0010
0000
,
1000
0100
0010
0001
0200
0000
0000
0000
,
0000
0000
0000
0000
,
0000
0300
0000
0000
;
