#TITLE:Urochoro;
#SUBTITLE:;
#ARTIST:meiyo;
#TITLETRANSLIT:;
#SUBTITLETRANSLIT:;
#ARTISTTRANSLIT:;
#GENRE:;
#CREDIT:;
#MUSIC:Urochoro.ogg;
#BANNER:Urochoro Banner.png;
#BACKGROUND:Urochoro BG.png;
#CDTITLE:;
#SAMPLESTART:31.428;
#SAMPLELENGTH:16.190;
#SELECTABLE:YES;
#OFFSET:-0.476;
#BPMS:0.000=126.000;
#STOPS:145.000=0.476;
#BGCHANGES:;
#FGCHANGES:;

//--------------- dance-single - SKooT ----------------
#NOTES:
     dance-single:
     SKooT:
     Beginner:
     2:
     0,0,0,0,0:
0000
0000
0000
0000
,
0001
0000
0001
0000
,
1000
0000
1000
0000
,
0020
0000
1030
0000
,
0001
0000
0001
0000
,
0100
0000
0100
0000
,
0010
0000
0010
0000
,
1000
0000
1000
0000
,
1000
0000
1000
0000
,
0001
0000
0001
0000
,
0010
0000
0010
0000
,
0001
0000
0001
0000
,
1000
0000
0001
0001
,
0000
1000
0001
0002
,
0000
0003
0100
0000
,
0100
0000
0010
0010
,
0010
0010
0010
0000
,
0100
0000
0001
0000
,
0010
0000
0100
0000
,
0010
0000
0001
0000
,
1000
0000
0010
0000
,
1000
0000
0100
0000
,
1000
0000
0001
0000
,
0010
0000
0100
0000
,
0000
1000
1000
1000
,
0001
0000
1000
0000
,
0010
0000
1000
0000
,
0001
0000
1000
0000
,
0100
0000
0010
0000
,
0100
0000
0010
0000
,
0100
0000
1000
0000
,
0001
0000
1000
1000
,
1000
1000
1000
0000
,
0001
0000
1000
0000
,
0001
0000
0001
0000
,
0200
0000
0301
0000
,
1000
1000
0000
0010
,
0000
0010
0000
0100
,
0200
0000
0000
0000
,
0300
0000
0000
0000
,
0001
0001
0000
1000
,
0000
1000
0000
0100
,
0000
0100
0000
1000
,
0000
1000
0000
0001
,
0000
1000
0000
0001
,
0000
1000
0000
1000
,
0000
0010
0000
0010
,
0000
0100
0100
0100
,
0100
0100
0000
0000
,
1000
0000
0100
0000
,
0010
0000
0100
0000
,
1000
0000
0001
0000
,
0100
0000
0001
0000
,
0000
0010
0000
0001
,
0000
1000
0000
0100
,
0000
0010
0000
0001
,
0001
0001
0001
1000
,
0000
0001
0000
0100
,
0000
0001
0000
1000
,
0000
0001
0000
0010
,
0000
0100
0000
1000
,
0000
0010
0000
0100
,
0000
0001
0000
1000
,
0000
0001
0000
0001
,
1000
1000
1000
0000
;

//--------------- dance-single - SKooT ----------------
#NOTES:
     dance-single:
     SKooT:
     Easy:
     5:
     0,0,0,0,0:
0000
0000
0000
0001
,
0001
0001
1000
0001
,
1000
0100
0010
0100
,
2000
0000
0100
0000
0100
3000
1000
0000
,
0010
1010
0011
1000
,
1000
0001
1000
1000
,
0100
0010
0100
1000
,
0001
1000
0001
0000
,
0010
0000
0100
0110
,
1000
0100
0000
1000
,
0000
0010
0000
0100
,
0010
0100
0000
0100
,
0000
0001
1000
0001
,
0000
1000
0001
2000
,
0000
3001
1001
0100
,
0100
0010
0010
1000
,
0000
0001
0010
0000
,
0010
0001
0100
0010
,
1000
0100
0010
0010
,
0100
0100
1000
1000
,
0010
0100
0001
0000
,
1000
0010
1000
0001
,
0010
0001
0100
0100
,
0010
0100
0100
0001
,
0010
0100
1000
0100
,
0010
0100
1000
0100
,
0010
0001
1000
0010
,
1000
0100
1000
0010
,
0100
0001
0001
0010
,
0100
0010
0001
0010
,
0100
1000
0001
0100
,
0001
0010
0001
0100
,
0010
1000
1000
0000
,
0001
0000
0001
0000
,
1000
0000
0010
0000
,
0200
0000
0001
0000
,
0301
0001
0000
1000
,
0000
1000
0000
0010
,
0200
0000
0001
0000
,
0301
0000
0100
0100
,
0110
0000
1000
0001
,
0010
0000
0001
1000
,
0001
0010
0010
0001
,
0010
0100
0010
0001
,
1000
1001
0001
1000
,
0020
1000
0030
1001
,
1000
1000
0001
0001
,
0010
0010
0010
0010
,
0010
0010
0010
0000
,
0000
0001
0000
0001
0000
1000
0000
1000
,
0000
0010
0000
0010
0000
0100
0000
0100
,
0000
0010
0000
0010
0000
1000
0000
1000
,
0000
0001
0000
0001
0000
0100
0000
0100
,
0000
0010
0000
0100
,
0000
0001
0000
0010
,
0000
0001
0000
1000
,
0010
0010
1000
0001
,
0010
0100
0010
0001
,
0010
0100
1000
0001
,
0100
0001
0010
0001
,
0100
0010
1000
1000
,
0100
0010
0100
1000
,
0100
0010
0001
1000
,
0010
1000
0100
1000
,
0010
0100
0001
0000
;

//--------------- dance-single - SKooT ----------------
#NOTES:
     dance-single:
     SKooT:
     Medium:
     7:
     0,0,0,0,0:
0000
0000
0000
0001
,
1000
0000
0001
0000
0010
0000
0000
0000
0001
0000
0000
1000
0000
0000
0000
0000
,
0010
0000
1000
0001
0100
0010
0000
0100
,
0020
0000
0000
0000
0100
0000
0000
0000
1000
0000
0030
1000
0000
0000
1000
0000
,
0001
1100
0011
0100
,
0010
1000
0100
0000
0100
0000
0010
0001
,
0100
0000
0001
1000
0001
1000
0100
0000
,
1000
0000
0000
0000
0001
0000
0000
0000
0010
0000
0000
0010
0000
0000
0010
0000
,
0000
0000
0000
1001
,
1000
0000
0001
0000
0100
0000
0000
0000
1000
0000
0000
1000
0000
0000
1000
0000
,
0001
0000
0001
0010
0001
0000
1000
0000
,
1000
0010
1000
0000
0001
0000
0100
0000
,
0010
0000
0010
0100
0010
0100
0010
0000
,
0110
0000
0010
0100
0010
1000
0002
0000
,
0100
0000
1003
0000
1001
0000
0001
0100
,
0001
0000
0010
0001
0010
0000
0100
0000
,
0100
0000
0100
1000
0001
0010
0000
0010
,
0100
0000
0010
0000
0001
0000
0001
1000
,
0001
1000
0010
0000
0010
1000
0010
0000
,
0100
0010
0100
0000
0001
0010
0001
0000
,
0010
0000
0100
0000
0010
0001
0000
0001
,
0100
0000
0010
0000
1000
0000
0001
0100
,
0001
0000
0010
0000
0100
0010
0100
0000
,
1000
0000
0010
0100
0010
0000
1000
0000
,
0100
0000
0010
0001
0001
0000
1000
0001
,
0010
0000
0001
1000
0010
0000
1000
0001
,
1000
0001
0100
0000
0010
0100
0010
0000
,
0100
0001
0100
0000
0010
1000
0010
0000
,
0100
0001
0010
0000
0001
0000
0001
1000
,
0100
0000
1000
0001
0100
0000
0001
1000
,
0001
1000
0100
0000
0100
0010
0100
0000
,
0010
0001
0010
0000
0001
1000
0001
0000
,
0010
0000
0100
1000
1000
1000
0001
0000
,
0001
0000
1000
0000
0100
0000
0000
0000
1000
0000
0000
0001
0000
0000
0001
0000
,
0100
0000
0001
1000
0010
0100
0000
0010
,
0200
0000
0000
0000
0010
0000
0000
0000
0001
0000
0300
0001
0000
0000
0001
0000
,
1000
0000
0000
0000
0002
0003
0000
0000
1000
0000
0000
0000
0010
0000
0000
0100
,
0000
0100
0001
0000
0010
0000
0100
0000
,
2000
0000
0000
0000
0000
0000
0100
0000
0100
0000
0000
0000
0001
0000
0000
0001
,
3000
0001
0000
1000
0100
0000
0100
0000
,
0110
0000
0000
0000
0010
0000
0000
0000
0001
0000
0000
0000
1000
0000
0000
0010
,
0000
0010
0100
0000
0001
0000
0001
0000
,
0001
1000
0010
0000
0010
1000
0001
0000
,
0010
0001
1000
0000
0100
0010
0100
0010
,
0100
0000
0110
0000
0100
0010
0100
1000
,
0002
0010
1003
1001
,
1000
0010
1000
0000
0001
0100
0001
0000
,
0010
0010
0010
0010
,
0010
0100
0010
0100
0000
0000
0000
0000
,
0000
1000
0000
0010
0000
1000
0000
0100
,
0000
0010
0000
0100
0000
1000
0000
0010
,
0000
0100
0000
0001
0000
0010
0000
0100
,
0000
0010
0000
0001
0000
1000
0000
1000
,
0000
1000
0010
0000
0100
0000
0001
0000
,
1000
0010
1000
0000
0100
0000
0010
0100
,
0010
0000
0001
0000
0100
0010
0100
0000
,
0001
0010
0100
0010
,
0001
1000
0100
0000
1000
0001
0100
0000
,
0001
1000
0001
1000
0010
0000
0100
0010
,
0100
0000
0010
1000
0010
0000
0100
0001
,
0100
0000
0010
1000
0100
0000
1000
0000
,
1000
0001
0010
0000
0001
1000
0010
0000
,
1000
0001
1000
0001
0010
0000
0010
0100
,
0010
0000
0100
1000
0100
0000
1000
0000
,
0001
1000
0001
1000
0010
0000
0000
0000
;

//--------------- dance-single - SKooT ----------------
#NOTES:
     dance-single:
     SKooT:
     Hard:
     12:
     0,0,0,0,0:
0000
0000
0000
0100
,
0010
0000
1000
0000
0001
0000
0000
0000
0010
0000
0000
1000
0000
0000
0100
0000
,
0010
0000
0010
0001
0100
0010
1000
0100
,
0020
0000
0100
0000
0100
0000
0000
0000
1000
0000
0030
0001
0000
0000
0001
0000
,
1000
0010
1100
0000
0011
0000
0100
0000
,
0010
0000
1000
0000
0001
0000
0000
0000
0100
0000
0000
1000
0000
0000
0001
0000
,
0010
0000
0010
0100
0010
0001
1000
0000
,
0100
0000
0010
0000
0011
0000
0000
0000
0101
0000
0000
0110
0000
0000
1010
0000
,
0000
0010
1000
0010
0100
0001
1000
0000
,
1001
0000
0001
0000
0010
0000
0000
0000
0011
0000
0000
0001
0000
0000
0001
0000
,
1001
1000
0001
0010
0011
0001
1000
0010
,
1010
0010
0100
0000
1001
0001
0010
0000
,
0110
0000
1000
0100
0010
0100
1000
0000
,
1100
0000
0001
0100
0010
0100
0002
1000
,
0000
0100
0010
0003
0101
0100
0010
1000
,
0100
0010
0100
0010
0001
0100
0010
0000
,
0010
0000
0000
0000
0100
0000
0010
0000
0100
0000
0010
0001
0000
0000
0010
0000
,
1000
0010
0100
0001
0100
0010
1000
0100
,
0010
0000
0001
0000
0100
0000
0000
0000
0010
0000
0100
0001
0100
0000
0001
0010
,
0001
0000
1000
0100
1000
0000
0010
0100
0010
0000
0100
0000
0001
0000
0010
0000
,
0100
1000
0010
0000
0100
0010
MMMM
0010
,
0100
0001
0010
4000
3010
0001
1000
0100
,
0010
0000
0001
0000
0100
0000
0000
0000
0010
0000
0100
1000
0100
0000
0010
0001
,
0010
0000
1000
0000
0001
0000
0000
1000
0100
0000
0000
0000
0001
0000
0010
0000
,
0100
0000
1000
0000
0010
0000
0100
0000
0100
0000
0100
0010
0100
0000
0001
0000
,
0010
0001
0100
0010
1000
0100
1000
0010
,
0100
0000
0001
0000
0010
0000
0000
0000
0001
0000
0010
0001
0010
0000
0010
0100
,
0010
0000
0100
1000
0100
0000
1000
0010
1000
0000
0100
0000
1000
0000
0100
0010
,
0001
0100
0010
0000
0100
0001
0010
0001
,
1000
0010
0100
0010
0001
0010
0100
0001
,
0010
0000
0100
0000
1000
0000
0000
0000
1000
0000
0100
0010
0100
0000
0010
0001
,
0010
0000
0001
0100
0001
0000
1000
0010
1000
0000
0010
0000
0100
0000
0001
0000
,
0010
0000
0001
0000
0100
0000
0010
0000
0010
0000
0010
0100
0010
0000
0000
0000
,
1001
0000
0001
0000
0010
0000
0000
0000
1001
0000
0000
0010
0000
0000
1000
0000
,
1100
0010
0001
1000
0010
0100
0000
0010
,
2000
0000
0100
0000
0100
0000
0000
0000
0010
0000
3000
0001
0000
0000
0001
0000
,
0000
0000
0000
0000
0010
0000
0000
0000
0200
0300
0000
0000
0010
0000
0000
0000
0001
0000
0000
0000
0000
0000
0000
0000
0100
0000
0000
0000
0000
0000
1000
0000
,
0000
0100
0001
0010
0001
1000
0010
0100
,
0002
0000
0000
0000
0000
0000
0100
0000
0100
0000
0000
0000
1000
0000
0000
0010
,
0003
0010
0000
0001
0010
0100
1000
0001
,
0100
0000
0000
0000
1001
0000
1000
0000
0100
0000
0000
0000
1100
0000
0000
1000
,
0000
1000
1001
0001
1000
0100
1100
1000
,
0001
0100
0101
0100
0010
0100
0101
0001
,
1000
0010
0110
0000
0001
0100
0010
0100
,
0001
0000
1001
0000
1000
0010
0100
0010
,
2000
0100
0000
0001
0001
3000
1010
0010
,
1000
0100
1000
0010
0100
0001
0010
0001
,
0010
0010
0010
0010
,
0010
0000
0100
0000
0010
0000
0100
1000
0000
0000
0000
0000
0000
0000
0000
0000
,
0001
0100
0001
0100
0010
1000
0010
0100
,
0001
0000
0010
0000
0100
0000
1000
0000
0010
0000
0000
0000
0100
0000
0010
1000
,
0010
0000
1000
0100
1000
0000
0001
0010
0001
0000
0010
0100
0010
0000
0100
0000
,
1000
0100
0010
0001
0100
0000
0010
1000
,
0010
0100
0001
1000
0100
0001
0100
1000
,
0001
0000
0010
0000
0100
0000
1000
0000
0010
0000
0000
0000
0100
0000
0010
0001
,
0010
0000
0100
1000
0100
0000
0001
0000
1000
0000
0000
0001
0100
0000
0000
0000
,
1000
0100
0010
0001
0100
0000
0010
0000
,
0010
1000
0100
1000
0010
0100
0001
0010
,
0001
0000
0100
0000
0010
0000
1000
0000
0100
0000
0000
0000
1000
0000
0100
1000
,
0100
0000
0100
0010
0100
0000
0010
0001
0010
0000
0001
0100
0001
0000
0010
0000
,
0001
0000
0010
0100
1000
0000
0010
0000
0100
0000
0000
0000
0010
0000
1000
0000
,
0100
1000
0001
0100
0010
0100
1000
0100
,
0010
0000
1000
0000
0100
0000
0010
0000
0001
0000
0000
0000
0001
0000
0010
0100
,
0010
0000
0100
1000
0100
0000
1000
0010
1000
0000
0001
0100
0001
0000
0100
0000
,
0010
1000
0100
1000
0010
0000
0000
0000
;
