#TITLE:Tokyo Ghetto;
#SUBTITLE:;
#ARTIST:Eve;
#TITLETRANSLIT:;
#SUBTITLETRANSLIT:;
#ARTISTTRANSLIT:;
#GENRE:;
#CREDIT:SKooT;
#MUSIC:Tokyo Ghetto.ogg;
#BANNER:Tokyo Ghetto Banner.png;
#BACKGROUND:Tokyo Ghetto BG.png;
#CDTITLE:;
#SAMPLESTART:56.915;
#SAMPLELENGTH:13.929;
#SELECTABLE:YES;
#OFFSET:-0.344;
#BPMS:0.000=140.000;
#STOPS:;
#BGCHANGES:;
#FGCHANGES:;

//--------------- dance-single - SKooT ----------------
#NOTES:
     dance-single:
     SKooT:
     Beginner:
     2:
     0,0,0,0,0:
0000
0000
0000
0000
,
0000
0000
0000
0000
,
0000
0000
0000
0000
,
0000
0000
0000
0000
,
0001
0000
0001
0000
,
1000
0000
1000
0000
,
0100
0000
0010
0000
,
0100
0000
1000
0000
,
0001
0000
0001
0000
,
0010
0000
0100
0000
,
0010
0000
0001
0000
,
0001
0000
1000
0000
,
0001
0000
0000
0000
,
0000
0010
0000
0000
,
0010
0000
0100
0000
,
1000
0000
0001
0000
,
0001
0000
1000
0000
,
0010
0000
0100
0000
,
0100
0000
0001
0000
,
0001
0000
1000
0000
,
0100
0000
0000
0000
,
0010
0000
0010
0000
,
0001
0000
0100
0000
,
0010
0000
0010
0000
,
1000
0000
0001
0000
,
0100
0000
0100
0000
,
0010
0000
0100
0000
,
0001
0000
1000
0000
,
0001
0000
0100
0000
,
0002
0000
0000
0000
,
0000
0000
0000
0003
,
2000
0000
0000
0000
,
0000
0000
3000
1000
,
0010
0000
0100
0000
,
0100
0000
0001
0000
,
0001
0000
0100
0000
,
0001
0000
0010
0000
,
0001
0000
1000
0000
,
1000
0000
0001
0000
,
0001
0000
1000
0000
,
0010
0000
0100
0000
,
0001
0001
0001
0000
,
1000
0000
0010
0010
,
0010
0000
0100
0000
,
0001
0000
0010
0000
,
0100
0100
0100
0000
,
1000
0000
0010
0010
,
0010
0000
0100
0000
,
0010
0000
0010
0000
,
1000
1000
1000
1000
,
1000
0000
0100
0000
,
0001
0001
0001
0001
,
0001
0000
0100
0000
,
1000
0000
0000
0000
;

//--------------- dance-single - SKooT ----------------
#NOTES:
     dance-single:
     SKooT:
     Easy:
     5:
     0,0,0,0,0:
0000
0000
0000
0000
,
0000
0000
0000
0000
,
0000
0000
0000
0000
,
0000
0000
0000
0000
,
1000
0000
0001
0000
0001
0000
0100
0100
,
0000
0001
0100
0001
,
1000
1000
0010
0100
,
0001
1000
0001
0010
,
0001
0000
1000
0000
1000
0000
0010
0010
,
0000
1000
0010
1000
,
0001
0001
0100
0010
,
1000
0001
1000
0010
,
0001
0000
0000
0000
,
0000
0010
0001
0001
,
0010
0100
1000
0100
,
0010
0010
0001
0100
,
0100
0010
1000
0001
,
1000
1000
0001
0010
,
0100
0010
0100
1000
,
0001
0001
0100
0100
,
0001
1000
0010
1000
,
0001
0001
1000
0010
,
0100
0001
0010
0100
,
1000
1000
0010
0100
,
0001
0010
0001
1000
,
0001
0001
0100
0010
,
1000
0100
1000
0010
,
1000
0000
2000
0000
0001
3000
0002
0000
,
1000
0003
2000
0000
0001
0000
3000
0000
,
1002
0000
0000
0000
,
0000
0000
0000
0003
,
2001
0000
0000
0000
,
0000
0000
3000
0001
,
1000
0010
0100
0100
,
0010
0010
0100
0010
,
1000
0001
0010
0100
,
1000
0100
0010
0001
,
1000
0001
0010
0001
,
0100
0001
1000
0010
,
0100
0100
0010
0100
,
0010
0010
1000
0010
,
0100
0001
1000
0001
,
1000
0010
0110
0110
,
0100
0001
0010
0001
,
1000
0010
1000
0001
,
0100
0010
0100
0010
,
1000
0001
1001
1001
,
1000
0100
0010
0100
,
0010
0001
0100
0010
,
1000
1000
0010
0010
,
0100
0100
0001
1000
,
0001
0001
0100
0100
,
0010
0010
1000
0001
,
1000
0000
0000
0000
;

//--------------- dance-single - SKooT ----------------
#NOTES:
     dance-single:
     SKooT:
     Medium:
     8:
     0,0,0,0,0:
0000
0000
0000
0000
,
0000
0000
0000
0000
,
0000
0000
0000
0000
,
0000
0000
0000
0000
,
0001
0000
0001
0000
0001
0000
1000
0100
,
0000
0010
0100
0000
1000
0000
0010
0000
,
1000
0001
0010
0000
0001
0000
0001
0000
,
0010
0100
0010
0001
0010
0000
0100
0000
,
1000
0000
1000
0000
1000
0000
0001
0100
,
0000
0100
0001
0000
1000
0000
0001
0000
,
0100
0010
0100
0000
0001
0000
1000
0000
,
1000
0010
0100
0000
0001
0000
1000
0000
,
0000
0000
0000
0000
0000
1000
0001
0100
,
0000
0000
0010
0100
0001
0000
0001
0000
,
1000
0010
1000
0000
1000
0100
0010
0000
,
0001
0000
0001
0000
0001
1000
0001
0000
,
0001
0010
0001
0000
0001
0100
0001
0000
,
1000
0000
1000
0000
0010
0100
0001
0000
,
0010
0100
1000
0000
0100
0010
0001
0000
,
0100
0100
0010
1000
,
0001
0000
0020
0000
0031
0100
0010
0000
,
1010
0000
0000
0000
0011
0000
0000
0000
0001
0000
0000
0010
0000
0000
1000
0000
,
0000
1000
0001
0000
0010
0000
0100
0000
,
1100
0000
0000
0000
0101
0000
0000
0000
0001
0000
0000
0100
0000
0000
1000
0000
,
0002
0000
0000
0013
0000
0000
1000
0000
0001
0000
1000
0000
0100
0000
0000
0000
,
1100
0000
0000
0000
0011
0000
0000
0000
1000
0000
0000
0001
0000
0000
0001
0000
,
0000
0010
0100
0000
0010
0000
0001
0100
,
0001
2000
3010
0002
,
0013
2000
3100
0000
,
0102
0000
0000
0000
,
0000
0000
0000
0003
,
2100
0000
0000
0000
,
0000
0000
3000
1000
,
1001
0000
0000
0000
1000
0000
0000
0000
0010
0000
0000
0010
0000
0000
0100
0000
,
0010
0000
0000
0010
0000
0000
0100
0000
0001
0000
0010
0000
0001
0000
0100
0000
,
0010
1010
1001
0001
,
0011
0000
1001
0000
1000
0010
0100
0000
,
0001
0000
0010
0000
0001
0000
0000
0000
0100
0000
0000
0100
0000
0000
0010
0000
,
0100
0000
0000
0100
0000
0000
0010
0000
0200
0000
0000
0000
0001
0000
0000
0000
,
0301
0000
1000
0000
0010
0100
0000
0100
,
0001
0010
0010
0000
0001
1000
0001
1000
,
0100
0000
1100
0000
1100
0000
1000
0100
,
0000
0001
0000
0000
0011
0000
0011
0000
,
1000
0100
1000
0000
0001
0100
0001
0000
,
0100
0010
1000
0000
0100
0010
0001
0000
,
0100
0000
0011
0000
0011
0000
0001
0100
,
0000
1000
0000
0000
1100
0000
1100
0000
,
0001
0000
0010
0000
0100
1000
0001
1000
,
0100
0000
0010
0000
0001
1000
0001
0100
,
0010
0000
0010
0100
0010
0000
0010
1000
,
0010
0000
0010
0100
0010
0100
0001
0010
,
0100
0000
0100
0010
0100
0000
0100
1000
,
0100
0000
0100
0010
0100
0010
0001
0100
,
0010
0000
0000
0000
;

//--------------- dance-single - SKooT ----------------
#NOTES:
     dance-single:
     SKooT:
     Hard:
     12:
     0,0,0,0,0:
0000
0000
0000
0000
,
0000
0000
0000
0000
,
0000
0000
0000
0000
,
0000
0000
0000
0000
0000
0000
0000
0000
0000
0001
0010
0000
0100
0000
1000
0000
,
0001
0000
0001
0000
0002
0003
1000
0001
,
0000
0000
0010
0000
0100
0000
1000
0000
0100
0000
0000
1000
0010
0000
0200
0000
,
0310
0000
1000
0000
0020
0000
0130
0000
0001
0000
0000
0100
0001
0000
2000
0000
,
3001
0000
0020
0000
0031
0000
1000
0000
0002
0000
0013
0100
0000
0100
0010
0001
,
0010
0001
1000
0100
2000
0000
3001
1000
,
0000
0000
0010
0000
0001
0000
0010
0000
0100
0000
0000
0010
1000
0000
0100
0000
,
1000
0000
0010
0000
0100
0000
0001
0000
1000
0000
0000
0100
0000
0000
0001
0000
,
0000
0000
0001
0000
0100
0000
0010
0000
1000
0000
0010
0100
0000
0100
0001
0010
,
0000
0000
0000
0000
0000
0000
0000
0000
0000
0001
0010
0000
0100
0000
1000
0000
,
0000
0000
0000
0000
0010
0000
1000
0000
0001
0000
0000
0010
0000
0000
0001
0000
,
1000
0010
1000
0001
1000
0100
1000
0001
,
0100
0000
0100
0001
0100
0010
0001
0010
,
0100
0010
0001
0010
0100
1000
0100
0001
,
1000
0000
0000
0000
0001
0000
0100
0000
1000
0000
0100
0001
0100
0000
0010
0000
,
0001
0000
0010
0000
0100
0010
0100
0000
0001
0000
0010
0100
0010
0000
0001
0000
,
0010
0000
0100
1000
0000
0010
0000
0100
0001
0000
0000
0100
0000
0100
0000
1000
,
0000
0001
2000
0000
3100
0010
0001
0100
,
0101
0000
0000
0000
0101
0000
0000
0000
1001
0000
0000
0001
0000
0000
0011
0000
,
0000
0000
0001
0000
0010
0000
1000
0000
0010
0000
0001
0000
1000
0001
1000
0000
,
1100
0000
0000
0000
1100
0000
0000
0000
1001
0000
0000
0100
0000
0000
1000
0000
,
1010
0000
0000
0011
0000
0000
0001
0000
0100
0000
0001
0000
0010
0001
0010
0000
,
0110
0000
0000
0000
0110
0000
0000
0000
1100
0000
0000
1000
0000
0000
0101
0000
,
0000
0000
0100
0000
0001
0000
1000
0000
0001
0000
0000
0100
0001
0000
0010
0000
,
0100
0000
2000
0000
3100
1000
0002
0000
,
0103
0001
2000
0000
3001
1000
0000
0000
,
0102
0000
0000
0000
,
0000
0000
0000
0003
,
2100
0000
0000
0000
,
0000
0000
3000
1000
,
1001
0000
0000
0000
0001
0000
0000
0000
1010
0000
0000
0110
0000
0000
0100
0000
,
0101
0000
0000
0011
0000
0000
0100
0000
1000
0000
0010
0000
0100
0001
0100
0000
,
0001
0000
0000
0000
0101
0000
0000
0000
1100
0000
0000
0000
0110
0000
0000
0010
,
0001
0000
0000
0001
1000
0000
0000
1000
0100
0000
0010
0000
0001
0000
1000
0000
,
0010
0100
0010
1000
0100
0001
0100
1000
,
0100
0001
0100
1000
0010
0100
0001
0010
,
0001
0000
0000
1000
0100
0000
0000
0001
0010
0000
0001
0000
0100
0000
0010
0000
,
1000
0000
0100
0000
0100
0000
0000
0010
0100
0010
0100
0000
1000
0000
0001
0000
,
0010
0000
1100
0000
1100
0000
0100
0010
,
0000
0011
0000
0001
0101
0000
0101
0001
,
1000
0000
0010
0100
0010
0000
1000
0000
0001
0000
0010
0100
0010
0000
0001
0000
,
1000
0000
0010
1000
0010
0000
0100
0000
0001
0000
0010
0001
0010
0000
0100
0000
,
1000
0000
0011
0000
0011
0000
0010
0100
,
0000
1100
0000
1000
1010
0000
1010
0010
,
1000
0000
0000
0001
0010
0000
0000
1000
0010
0000
0100
0000
0001
0000
0010
0000
,
0100
0000
0000
1000
0001
0000
0000
0001
0010
0001
0010
0000
0100
0000
1000
0000
,
0001
0010
1000
0010
0001
0010
1000
0010
,
0001
0010
1000
0010
0001
0010
0100
1000
,
0001
0100
1000
0100
0001
0100
1000
0100
,
0001
0100
1000
0100
0001
0010
0100
1000
,
0001
0000
0000
0000
;
