#TITLE:Sora to Utsuro;
#SUBTITLE:- The Case Study of Vanitas OP;
#ARTIST:Sasanomaly;
#TITLETRANSLIT:;
#SUBTITLETRANSLIT:;
#ARTISTTRANSLIT:;
#GENRE:;
#CREDIT:SKooT;
#MUSIC:Sora to Utsuro.ogg;
#BANNER:Sora to Utsuro Banner.png;
#BACKGROUND:Sora to Utsuro BG.png;
#CDTITLE:;
#SAMPLESTART:51.053;
#SAMPLELENGTH:14.567;
#SELECTABLE:YES;
#OFFSET:0.580;
#BPMS:0.000=104.000;
#STOPS:;
#BGCHANGES:0.571=Sora to Utsuro.avi=1.000=1=0=0=StretchNoLoop==CrossFade==;
#FGCHANGES:;

//--------------- dance-single - SKooT ----------------
#NOTES:
     dance-single:
     SKooT:
     Beginner:
     2:
     0,0,0,0,0:
0000
0000
0000
0000
,
0000
0000
0000
0000
,
0000
0000
1000
0000
,
0001
0000
0000
0001
0000
0000
0001
0000
,
1000
1000
1000
0000
,
0100
0000
0000
0100
0000
0000
0100
0000
,
0010
0000
0001
0000
,
0010
0000
0100
0000
,
1000
0000
1000
0000
,
0100
0000
0010
0000
,
0001
0000
0001
0000
,
0100
0100
0000
0000
,
0010
0010
0000
1000
,
0000
0100
0000
0010
,
0000
0001
0001
0000
,
1000
0000
0000
1000
0000
0000
1000
0000
,
1000
0000
0100
0000
,
0010
0000
0000
0010
0000
0000
0010
0000
,
0010
0000
1000
0000
,
0001
0000
0010
0000
,
0100
0000
0010
0000
,
0001
0000
0000
0001
0000
0000
0000
0000
,
0000
0000
1001
0000
,
0001
0000
0000
1000
0000
0000
0000
0000
,
1000
0000
0010
0000
,
0100
0000
0000
0100
0000
0000
0000
0000
,
0010
0000
1000
0000
,
0001
0000
0000
0001
0000
0000
0000
0000
,
1000
0000
0000
1000
0000
0000
0000
0000
,
0010
0000
0000
0100
0000
0000
0000
0000
,
0001
0001
0001
0000
,
1000
0000
0100
0000
,
0010
0000
0001
0000
,
0001
0000
1001
0000
,
0010
0000
0100
0000
,
0010
0000
1000
0000
,
1000
0000
0001
0000
,
0001
0000
0100
0000
;

//--------------- dance-single - SKooT ----------------
#NOTES:
     dance-single:
     SKooT:
     Easy:
     4:
     0,0,0,0,0:
0000
0000
0000
0000
,
0000
0000
0000
0000
,
0000
0000
0001
0001
,
0010
0000
0001
1000
0000
0000
0100
0000
,
1000
0001
0100
0001
,
1000
0000
0010
0100
0000
0000
0010
0000
,
1000
1000
0010
1000
,
0001
0001
0100
0010
,
1000
1000
0010
0100
,
0001
0001
0010
0001
,
1000
0010
0100
0001
,
0010
0001
0100
0010
,
1000
0010
0100
0001
,
1000
0010
0100
0100
,
0001
0001
1001
0000
,
1100
0000
0000
0011
0000
0000
0100
0000
,
0001
1000
1010
0000
,
0100
0000
0000
0101
0000
0000
1000
0000
,
0010
0100
1001
0100
,
0100
0001
1000
0001
,
0010
0001
1000
0010
,
0100
0000
0000
0110
0000
0010
0000
0010
,
0000
0100
2002
3003
,
0001
0000
0000
2000
0000
0000
3000
0000
,
0010
1000
0001
0010
,
0001
0000
0000
2000
0000
3000
0010
0000
,
1000
0001
0002
1003
,
0010
0000
0000
2000
0000
3001
0000
0000
,
0001
0000
0000
2000
0000
3010
0000
0000
,
0010
0000
0000
2000
0000
3001
0000
0000
,
1000
0010
0100
0001
,
0010
0000
0000
0200
0000
0300
0000
0000
,
0010
0000
0000
0002
0000
0003
0010
0000
,
0100
1000
1001
0100
,
0001
1000
0010
0100
,
0010
1000
0001
0001
,
1000
1000
0001
0001
,
0100
0001
1001
0000
;

//--------------- dance-single - SKooT ----------------
#NOTES:
     dance-single:
     SKooT:
     Medium:
     7:
     0,0,0,0,0:
0000
0000
0000
0000
,
0000
0000
0000
0000
,
0000
0000
0000
0000
0001
0000
0001
1000
,
0010
0000
0001
2000
0000
3001
0100
0010
,
1000
1000
0001
0001
0110
0000
1000
0010
,
0100
0000
0010
0200
0000
0301
1000
0100
,
1000
0000
0001
0001
0101
0000
0001
0000
,
1100
0000
1001
0000
0110
0100
0010
0000
,
1100
0000
0101
0000
1001
0000
0001
0100
,
0101
0000
1100
0000
1001
0000
0010
0100
,
0110
0000
1010
0000
1000
0001
1000
0000
,
1000
0010
1000
0100
1000
0000
0010
0000
,
0100
0001
0010
0001
0100
0000
0001
0010
,
0100
0000
0001
0000
1000
0100
0010
0001
,
0010
0001
0010
0100
1000
0000
0100
0000
,
0110
0000
0000
0000
0000
0010
0000
0000
0000
0012
0000
0000
0000
0000
0000
0003
0000
0000
0100
0000
0000
0010
0000
0000
,
1000
0000
1000
0001
0010
0000
1000
0010
,
0100
0000
0000
0000
0000
0010
0000
0000
0000
1010
0000
0000
0000
0000
0000
1000
0000
0000
0100
0000
0000
1000
0000
0000
,
0000
0001
0010
0000
1100
0000
0010
1000
,
0100
0000
0000
0000
0000
0010
0000
0000
0000
0001
0000
0000
1000
0000
0000
0010
0000
0000
1000
0000
0000
0100
0000
0000
,
1000
0010
1000
0001
0100
0000
0001
1000
,
0100
0000
0000
0000
0000
0001
0000
0000
0000
0110
0000
0000
0000
0000
0000
0100
0000
0000
0000
0000
0000
0100
0000
0000
,
0000
0100
0010
0000
1002
0000
0103
0000
,
0100
0001
1000
0200
0000
0300
1000
0001
,
0010
0100
1000
0002
0003
0100
0010
0000
,
1000
0100
0000
2000
3000
0000
0010
1000
,
0001
0010
0001
0100
0002
0003
1000
0010
,
0100
0000
0010
1000
0000
1001
0000
0100
,
0001
1000
0000
0100
0000
1001
0000
1000
,
0100
0000
0001
2000
3000
0001
0000
0001
,
0010
0000
0100
0000
2000
3000
1000
0100
,
0020
0030
0100
2000
0000
3000
0010
0100
,
0001
0010
0000
0002
0000
0003
0100
0000
,
0010
1000
0100
0000
0110
0000
0010
0000
,
0001
0000
0010
0000
2000
0000
0001
3000
,
0010
0000
1000
0000
1000
0010
0100
0000
,
0010
0000
0000
0000
0000
0100
0000
0000
0000
0001
0000
0000
0010
0000
0000
0000
0000
0001
0000
0000
0000
0000
0000
0000
,
0100
0000
0010
0100
1001
0000
0000
0000
;

//--------------- dance-single - SKooT ----------------
#NOTES:
     dance-single:
     SKooT:
     Hard:
     10:
     0,0,0,0,0:
0000
0000
0000
0000
,
0000
0000
0000
0000
,
0000
0000
0000
0000
0000
1000
0010
0000
0010
0100
0000
0100
0001
0000
0000
0000
0000
0000
0001
0000
0000
1000
0000
0000
,
0010
0000
0000
0000
0000
0100
0001
0000
0000
2000
0000
0000
0000
0000
0000
3001
0000
0100
0000
0000
0010
0000
0000
0010
,
1000
0001
1000
1000
0110
0000
1000
0010
,
0100
0000
0000
0000
0000
0001
0010
0000
0000
0200
0000
0000
0000
0000
0000
1300
0000
0000
0100
0000
0000
0001
0000
0000
,
1000
0000
0000
0000
0000
0010
1000
0000
0000
0100
0000
0000
1001
0000
0000
1000
0000
0000
0100
0000
0000
0010
0000
0000
,
0011
0010
1001
0001
0011
0010
0100
1000
,
1010
1000
1001
0010
1010
0100
0010
0001
,
1001
0001
1100
1000
0101
0001
0010
0001
,
1001
0000
0000
0010
0000
0000
0100
0000
0000
0010
0000
0000
1001
0000
0000
0010
0000
0000
1000
0000
0100
0000
0000
1000
,
0001
0000
0000
1000
0000
0010
0000
0000
0100
0001
0000
0000
0100
0000
0000
1000
0000
0000
0001
0000
0010
0000
0000
0001
,
1000
0000
0000
0001
0000
0100
0000
0000
0010
1000
0000
0000
0100
0000
0000
0001
0000
0000
1000
0000
0000
0010
0000
0000
,
0100
0001
1000
0001
0010
0100
0100
0010
,
0001
0001
0010
0100
1100
0001
1010
0010
,
2000
0000
0000
0000
0000
0100
3000
0000
0000
0002
0000
0000
0000
0000
0000
1003
0000
0000
0001
0000
0000
1000
0000
0000
,
1000
0100
0010
0100
1001
0010
0100
0010
,
0002
0000
0000
0003
0000
0001
0000
0000
0000
0020
0000
0000
0000
0000
0000
0130
0000
0000
0001
0000
0000
1000
0000
0000
,
0010
0100
0001
0100
1010
0000
0011
1000
,
0200
0000
0000
0000
0000
0310
0000
0000
0000
0001
0000
0000
1000
0000
0000
0010
0000
0000
1000
0000
0000
0100
0000
0000
,
1000
0000
0000
0001
0000
0000
1000
0000
0000
0010
0000
0100
0001
0000
0000
1000
0000
0000
0010
0000
0000
1000
0000
0001
,
0100
0000
0000
0000
0000
1100
0000
0000
0000
0101
0000
0000
0000
0000
0000
1000
0000
0000
0000
0000
0000
1000
0000
0000
,
0000
0000
0010
0100
0000
0000
0001
0000
0000
0000
0000
0000
1002
0000
0000
0000
0000
0000
0103
0000
0000
0010
0000
0000
,
0100
0001
1000
0210
0000
0310
1000
0001
,
0010
0100
1000
0001
1000
0100
0001
0100
,
1000
0010
1000
2001
3000
0010
0010
1000
,
0001
0000
0000
0010
0000
0000
0001
0000
0100
0010
0000
1000
0002
0000
0000
0003
0000
0000
1000
0000
0000
0010
0000
0000
,
0100
0010
0001
0210
0300
1010
1000
0100
,
1000
0001
0010
1200
0300
0110
0001
1000
,
0100
0010
0100
2000
0000
3001
0100
0001
,
0010
0100
1000
0100
0012
0000
1003
0100
,
0020
0030
0001
2100
0000
3001
0001
0100
,
0010
0000
0000
1000
0000
0000
0100
0000
0000
0002
0000
0000
0000
0000
0000
0013
0000
0000
0100
0000
0000
0000
0000
1000
,
0010
0100
0001
1000
0101
0000
0100
0000
,
0001
0000
0000
0000
0000
0000
0001
0000
0010
0000
0100
0000
2000
0000
0000
0000
0000
0000
0001
0000
0000
3000
0000
0001
,
0100
0000
0010
0000
1000
0100
0010
0100
,
0001
0000
0000
0100
0000
0010
0000
0000
0001
1000
0000
0000
1000
0000
0000
0001
0000
1000
0000
0000
0010
0000
0000
0100
,
0000
0000
0001
0000
0000
0001
0100
0000
0000
0010
0000
0000
1001
0000
0000
0000
0000
0000
0000
0000
0000
0000
0000
0000
;
