#TITLE:Show (English);
#SUBTITLE:;
#ARTIST:Ado (Cover - Trickle);
#TITLETRANSLIT:;
#SUBTITLETRANSLIT:;
#ARTISTTRANSLIT:;
#GENRE:;
#CREDIT:;
#MUSIC:Show.ogg;
#BANNER:Show BN.png;
#BACKGROUND:Show BG.png;
#CDTITLE:;
#SAMPLESTART:51.425;
#SAMPLELENGTH:14.319;
#SELECTABLE:YES;
#OFFSET:-0.057;
#BPMS:0.000=131.989;
#STOPS:;
#BGCHANGES:;
#FGCHANGES:;

//--------------- dance-single - SKooT ----------------
#NOTES:
     dance-single:
     SKooT:
     Beginner:
     3:
     0,0,0,0,0:
0000
0000
0000
0000
,
0000
0000
0000
0000
,
0000
0001
0000
0001
,
0000
1000
0000
1000
,
0000
0100
0000
0010
,
0000
0100
0000
1000
,
0000
0001
0000
0100
,
0000
0001
0000
1000
,
0000
1000
0000
0010
,
0000
1000
0000
0001
,
0000
1000
0000
1000
,
0000
0001
0000
1000
,
0000
0001
0000
0100
,
0000
0001
0000
0010
,
0000
0001
0000
1000
,
0000
0010
0000
1000
,
0000
0100
0000
0010
,
0000
0100
0000
0010
,
0000
0001
0000
0100
,
0000
0010
0000
2000
,
0000
3001
0000
0001
,
0000
1000
0000
1000
,
0001
1000
0000
1000
,
0000
0001
0000
0001
,
0000
0001
0000
1000
,
0000
0010
0000
0100
,
0000
0002
0000
1000
,
0003
1000
1000
1000
,
0000
0001
0000
1000
,
0000
0001
0000
1000
,
0000
0010
0000
1000
,
0000
0100
0000
1000
,
0000
1000
0000
0001
,
0000
1000
0000
0001
,
0000
0100
0000
0001
,
0000
0010
0000
0001
,
0001
1000
0000
0010
,
0000
0100
0000
0001
,
0000
0010
0000
0100
,
0000
1000
0000
0001
,
0000
0001
0001
0000
,
1000
1000
0000
0010
,
0000
0100
0000
0001
,
0002
0000
0000
1003
,
0000
1000
0000
0010
,
0000
0100
0100
0000
,
0001
0000
0010
0000
,
0001
0001
0000
1000
,
0000
0010
0000
0010
,
0000
0100
0000
0100
,
0000
0001
0001
0001
,
0000
1000
1000
2000
,
0000
3001
0000
1000
,
0000
0001
0000
1000
,
0000
0010
0000
1000
,
0000
0100
0000
1000
,
0000
1000
0000
0001
,
0000
1000
0000
0001
,
0000
0100
0000
0001
,
0000
0020
0000
0230
,
0000
1300
0000
0001
,
0000
1000
2000
0000
,
0000
3000
1001
0000
,
0000
0001
0000
0010
,
0000
0001
0000
0001
,
0000
1000
0000
0100
,
0000
0010
0000
0001
,
0000
1000
0000
0010
,
0000
1000
0000
1000
,
0000
0001
0000
1000
,
0000
0001
0000
0000
;

//--------------- dance-single - SKooT ----------------
#NOTES:
     dance-single:
     SKooT:
     Easy:
     5:
     0,0,0,0,0:
0000
0000
0000
0000
,
0000
0000
0000
0000
,
0000
0001
1000
0001
,
1000
0001
0001
0001
,
1000
0010
0100
0010
,
0100
0001
0001
1000
,
1000
0100
0010
0100
,
0010
0001
0001
1000
,
2000
3001
0010
0001
,
0100
0001
0001
1000
,
0010
1000
0100
1000
,
0001
0100
0000
0100
,
0002
1003
0001
1000
,
1000
0001
1000
0001
,
0001
0100
0010
0100
,
0010
1000
0100
0010
,
0001
0001
0100
1000
,
1000
1000
0100
0001
,
0001
0001
0100
1000
,
1000
1000
0100
0002
,
0203
0301
1000
0010
,
0100
0001
1000
1001
,
1001
1000
0001
0100
,
0010
1000
0001
1001
,
1001
1000
0020
1030
,
1000
0000
0200
0300
0020
0000
0031
0000
,
0001
1000
0020
0100
,
1000
0030
0100
0000
0010
0000
0010
0000
,
0100
0110
0010
1000
,
0001
0010
0001
1000
,
0001
0100
1000
0100
,
0001
1000
0100
1000
,
0010
0110
0100
0001
,
1000
0010
1000
0001
,
1000
0100
0001
0100
,
1000
0001
0100
0110
,
0110
0000
0200
0300
0001
0000
0010
0000
,
0001
0001
1000
1000
,
0010
0100
0001
0001
,
1000
1000
0010
0100
,
0001
1001
1001
1000
,
0001
0010
0100
0010
,
0001
1000
0010
1000
,
0002
0100
0003
0001
,
1000
0010
0010
0100
,
0001
0010
0010
0100
,
1000
0010
0010
0100
,
0002
0013
0010
0100
,
2000
3010
0001
0010
,
1000
1001
1001
0001
,
0010
1000
0010
0001
,
1000
0100
0010
0002
,
0000
0003
1001
0000
0010
0000
1000
0000
,
0001
0010
0001
1000
,
0001
0100
1000
0100
,
0001
1000
0100
1000
,
0010
0110
0100
0001
,
1000
0010
1000
0001
,
1000
0100
0001
0100
,
1000
1001
1001
0110
,
0110
1000
1000
0001
,
0001
0100
0020
0000
,
0000
0130
0110
0100
,
0100
0001
0010
0001
,
1000
0010
0100
0001
,
0001
1000
0100
1000
,
1000
0010
0100
0010
,
0010
1000
0100
1000
,
0001
0100
0010
1000
,
1000
0001
0010
0001
,
1000
0010
0000
0000
;

//--------------- dance-single - SKooT ----------------
#NOTES:
     dance-single:
     SKooT:
     Medium:
     9:
     0,0,0,0,0:
0000
0000
0000
0000
,
0000
0000
0000
0000
,
0000
1000
0100
1000
,
0010
0000
1000
0001
1000
0001
1000
0000
,
1001
0000
0100
0001
0010
0000
0001
0100
,
0010
0000
1000
0000
1000
0000
1000
0001
,
1000
0000
0010
1000
0100
0000
1000
0010
,
0100
0000
0000
0000
0001
0000
0000
0001
0000
0000
0001
0000
0010
0000
0000
0000
,
0200
0000
1300
0001
0100
0000
0010
1000
,
0100
0000
0000
0000
0010
0000
0000
0010
0000
0000
0010
0000
0100
0000
0000
0000
,
1000
0001
0100
0000
0100
0010
1000
0000
,
1000
0100
0010
0000
0000
0001
1000
0000
,
2001
0000
0000
0000
3001
0000
1000
0000
0001
0000
1000
0000
0001
0000
0000
0001
,
0000
0000
0001
0000
0100
0000
0010
0000
0100
0000
0010
0000
1000
0000
0000
1000
,
0000
1000
0100
1000
0001
1000
0010
1000
,
0001
1000
0010
0000
0100
0000
0001
0010
,
0001
0000
0000
0000
0001
0000
1000
0000
0010
0000
0000
0000
1000
0000
0000
0001
,
0000
0000
0001
0000
1000
0000
0010
0000
0100
0000
0000
0000
0001
0000
0000
1000
,
0000
0000
1000
0000
0001
0000
0100
0000
0010
0000
0000
0000
1000
0000
0000
0001
,
0000
0001
1000
0010
0100
0010
2000
0000
,
3020
0000
1030
0000
0001
0100
0001
0000
,
1000
0100
1000
0000
0001
0000
0101
0000
,
1100
0000
1000
0000
0001
0010
0001
0000
,
1000
0010
1000
0000
0001
0000
0101
0000
,
1100
0000
0001
0100
0020
0000
1030
0010
,
1000
0000
0200
0300
0020
0000
0031
1000
,
0100
1000
0002
0010
,
1000
0003
0100
0100
0001
1000
0001
1000
,
0100
0000
0110
0000
0010
0000
0100
0010
,
0100
0000
0100
1000
0100
1000
0100
0000
,
0010
0000
0001
0100
0001
0000
0001
0010
,
0001
0011
0011
1010
,
1010
0000
1000
0000
0100
0000
0010
0100
,
0010
0000
0010
0001
0010
0001
0010
0000
,
0100
0000
1000
0010
1000
0000
1000
0100
,
1000
0001
1000
1100
,
0101
0000
0200
0300
0010
0010
0100
0000
,
0001
0001
0010
0000
0001
0001
0100
0010
,
1000
0000
0100
0000
1000
1000
0100
0000
,
1000
1000
0001
0010
0001
0000
1000
0100
,
1000
0000
1010
0000
0011
0000
0001
1000
,
0001
1000
1000
0000
0100
0000
0010
0100
,
1000
0000
0000
0000
0001
0000
0000
0000
0010
0000
0000
1000
0000
0000
0100
0000
,
2000
0000
0000
0001
0000
3001
1000
0001
,
0200
0310
0010
0010
,
0010
0000
0000
0000
0000
1000
0000
0000
1000
0000
0000
0100
0000
0000
0010
0000
,
0001
0000
1000
0000
0010
0000
0000
0100
0000
0000
0010
0000
0000
0100
0000
0000
,
0002
0003
0100
0001
0010
0000
0001
1000
,
0020
0000
1030
0100
1000
0000
0001
1000
,
0001
0000
0101
0000
1100
0000
1000
0001
,
1000
0000
0000
0000
0010
0000
0000
0100
0000
0000
0010
0000
0000
0100
0000
0000
,
0001
0000
1000
0010
0100
0010
2000
0000
,
0000
3000
1100
0000
0110
0000
0010
0100
,
0010
0000
0010
0001
0010
0001
0010
0000
,
0100
0000
1000
0010
1000
0000
1000
0100
,
1000
1100
1100
0101
,
0101
0000
0001
0000
0010
0000
0100
0010
,
0100
0000
0100
1000
0100
1000
0100
0000
,
0010
0000
0001
0100
0001
0000
0001
0010
,
0001
2000
3020
0230
,
0302
0000
1003
0001
1000
0000
0010
0100
,
0010
1000
0002
0000
,
0000
0000
0103
0000
0110
0000
0001
0010
,
0010
0000
0001
1000
0001
0000
0100
0000
,
1000
0000
0100
0000
0001
0000
1000
0100
,
0100
0000
0010
0001
0010
0000
0100
0000
,
1100
0000
1000
0100
0010
0000
0001
0100
,
0001
0000
0000
0000
0001
0000
0000
0100
0000
0000
1000
0000
0002
0000
0000
0000
,
0003
0000
0001
0010
0100
0000
1000
0010
,
0100
0000
0001
0010
0100
0000
2000
0000
,
0010
3001
0000
0000
;

//--------------- dance-single - SKooT ----------------
#NOTES:
     dance-single:
     SKooT:
     Hard:
     13:
     0,0,0,0,0:
0000
0000
0000
0000
,
0000
0000
0000
0000
,
0000
0000
0001
1000
0100
0000
0001
0000
,
0100
0000
0001
0000
1000
0000
0001
1000
0001
0000
0010
0000
0100
0000
1000
0000
,
1001
0000
0100
0001
1000
0001
0100
0010
,
1000
0000
0001
0000
0100
0000
0000
1000
0001
0000
0010
0000
0001
0000
0000
0000
,
0100
0010
0010
1000
0001
1000
0010
0100
,
0001
0000
1000
0000
0010
0000
1000
0001
0000
1000
0001
0000
0010
0000
0000
0000
,
0200
0000
0310
0001
0100
0010
1000
0100
,
0010
0000
0001
0000
0100
0010
0000
0100
0010
0000
1000
0000
0001
0000
0000
0000
,
0100
0000
0001
0000
0011
0000
0000
0001
0100
0000
0010
0000
1010
0000
0000
1000
,
0100
0010
0110
0000
0000
0100
0001
0000
,
2001
0000
0000
0000
3001
0000
1000
0000
0010
0000
1000
0000
0001
0000
0000
0001
,
0010
0000
0001
0000
1000
0000
0001
0000
0010
0000
0001
0000
1000
0000
0000
1000
,
0010
0000
1000
0000
0001
0000
0100
0000
0010
0100
0001
0000
0001
1000
0010
0000
,
1000
0001
1000
0000
0001
0000
0001
0000
0010
0000
1000
0000
0010
0000
0001
0000
,
0100
0000
0000
0000
0001
0000
0010
0000
0100
0000
1000
0000
0100
0000
0000
0001
,
1000
0000
0100
0000
1000
0000
0010
0000
0100
0000
0001
0000
0100
0000
0000
1000
,
0001
0000
0100
0000
0001
0000
0010
0000
0100
0000
1000
0000
0100
0000
0000
0001
,
1000
0100
1000
0010
0100
0010
0002
0000
,
0023
0000
1030
0000
0001
0010
0100
0000
,
0100
1000
0001
0100
0010
0100
0101
0000
,
1100
0000
0001
0000
1000
0010
0100
0000
,
0100
0001
1000
0100
0010
0100
1100
0000
,
0101
0000
0001
0100
0020
0000
0031
0010
,
1000
0100
0020
0030
0002
0000
0013
1000
,
0010
0100
1000
0001
2000
0000
0010
0000
,
0001
0000
3100
0100
1000
0001
1000
0001
,
1000
0000
0010
0000
0110
0000
0000
0000
0010
0000
0000
1000
0001
0000
0010
0000
,
0001
1000
0010
1000
0001
1000
0010
0000
,
0100
0000
0001
0100
1000
0001
1000
0100
,
0001
0101
1100
0011
,
1010
0000
0000
0000
0010
0000
0000
0000
0100
0000
0000
0001
1000
0000
0100
0000
,
1000
0001
0100
0001
1000
0001
0010
0000
,
0001
0000
1000
0100
0001
0010
0001
0100
,
1000
0100
0001
1100
,
0101
0000
0002
0003
0010
0100
0010
0000
,
0001
1000
0001
0000
0010
0000
0100
0000
1000
0001
1000
0000
0010
0000
0001
0000
,
0010
0000
0100
0000
0010
0100
1000
0000
,
0010
0100
1000
0001
0010
0100
0010
0001
,
1000
0001
1001
1000
1001
0001
1000
0010
,
0100
0010
0100
0000
0001
0000
0010
0000
0100
0010
0100
0000
1000
0000
0010
0000
,
1000
0000
0100
0000
0100
0000
0010
0000
0001
0000
0001
0100
0000
0100
0010
0000
,
2000
0000
0000
0001
0000
3001
1000
0001
,
0200
0000
0310
0000
0010
0000
0010
1000
,
0010
0000
1000
0000
1000
0001
0000
1000
0001
0000
0000
0100
0000
0010
0100
0010
,
0100
0000
0001
0000
0010
0000
0001
1000
0000
1000
0010
0000
0010
0100
0000
0100
,
0002
0003
0100
0001
0010
0000
0200
1000
,
0320
0030
0001
1000
0100
1000
0100
0010
,
0001
0000
1000
0000
0010
0100
0000
0010
0100
0000
0001
0000
0010
0000
0001
0000
,
0010
0000
0100
0000
1000
0000
0001
0010
0000
0010
0100
0000
1000
0010
0000
0010
,
0100
0001
0010
1000
0010
0001
0200
0000
,
0000
0000
0300
0000
0110
0000
0000
0000
0100
0000
0000
0001
1000
0000
0100
0000
,
1000
0001
0100
0001
1000
0001
0100
0000
,
0010
0000
1000
0010
0001
1000
0001
0100
,
1000
1010
0011
1100
,
0101
0000
0000
0000
0100
0000
0000
0000
0010
0000
0000
1000
0001
0000
0010
0000
,
0001
1000
0010
1000
0001
1000
0100
0000
,
1000
0000
0001
0010
1000
0001
1000
0100
,
0001
1001
0101
1100
,
1001
0000
1000
0001
1000
0001
0010
0100
,
0010
0100
1000
0000
0020
0000
0000
0000
,
0000
0000
0000
0000
0130
0000
0000
0000
0110
0000
0000
0000
0001
0000
0010
0001
,
0010
0000
0001
0100
1000
0100
0001
0000
,
0101
0000
0000
0000
0100
0000
0010
0000
0100
0000
0010
0000
1000
0000
0100
1000
,
0100
0000
1000
0100
0001
0100
1000
0000
,
1100
0000
0000
0000
1000
0000
0100
0000
0010
0000
0000
0000
1000
0000
0100
0010
,
0001
0000
0000
0000
0011
0000
0000
1100
0000
0000
0101
0000
2000
0000
0000
0000
,
3000
0000
0001
0010
0100
0000
0001
0010
,
0100
0000
1000
0010
0001
0000
0001
0100
,
2000
3001
0000
0000
;
