#TITLE:Raspberry Poison;
#SUBTITLE:;
#ARTIST:john (Cover - Meychan);
#TITLETRANSLIT:;
#SUBTITLETRANSLIT:;
#ARTISTTRANSLIT:;
#GENRE:;
#CREDIT:;
#MUSIC:Raspberry Poison.ogg;
#BANNER:Raspberry Banner.png;
#BACKGROUND:Raspberry BG.png;
#CDTITLE:;
#SAMPLESTART:43.754;
#SAMPLELENGTH:15.005;
#SELECTABLE:YES;
#OFFSET:0.336;
#BPMS:0.000=129.961;
#STOPS:;
#BGCHANGES:;
#FGCHANGES:;

//--------------- dance-single - SKooT ----------------
#NOTES:
     dance-single:
     SKooT:
     Beginner:
     3:
     0,0,0,0,0:
0000
0000
0000
0000
,
0000
0000
0000
0000
,
0000
0000
0000
0000
,
0000
1000
1000
1000
,
1000
1001
0000
0001
,
0000
1000
0000
1000
,
0000
1001
0000
0010
,
0000
0010
0000
0100
,
0000
0100
0000
0001
,
0000
0010
0000
0001
,
0000
1000
0000
0010
,
0000
1000
1000
0001
,
0001
0001
0000
1000
,
0000
0010
0000
0100
,
0000
0001
0000
0010
,
0000
0000
0000
0000
0001
0000
0000
0000
0000
0000
0000
1000
0000
0000
0000
0000
,
1000
1000
0000
0001
,
0000
0010
0000
0001
,
0000
1000
0000
0010
,
0000
1000
0000
0001
,
0000
0001
0000
1000
,
0000
0010
0000
0100
,
0000
0001
0000
0010
,
0000
0001
0001
0001
,
0000
1000
0000
1000
,
0000
0010
0000
0010
,
0000
0100
0000
0100
,
0000
0001
0000
0001
,
0000
0010
0000
0010
,
0000
0100
0000
0100
,
0000
1000
0000
1000
,
0000
0010
0000
0010
,
0000
1000
0000
0010
,
0000
0100
0000
0100
,
0000
0001
0000
1000
,
0000
0001
0000
0100
,
0000
0010
0010
0010
,
0000
0100
0000
0001
,
0000
1000
0000
0001
,
0000
0100
0000
0010
,
0000
1001
0000
0001
,
0000
1000
0000
0001
,
0000
0100
0000
0000
;

//--------------- dance-single - SKooT ----------------
#NOTES:
     dance-single:
     SKooT:
     Easy:
     5:
     0,0,0,0,0:
0000
0000
0000
0000
,
0000
0000
0000
0000
,
0000
0000
0000
0000
,
0000
1000
1000
1000
,
1000
0000
0000
0000
1001
0000
0000
0000
0000
0100
0000
0000
0001
0000
0000
0000
,
0000
0001
0000
0000
0100
0000
0000
0000
0000
0010
0000
0000
1000
0000
0000
0000
,
0000
1000
0000
0000
0001
0000
0000
0000
0000
0001
0000
0000
1000
0000
0000
0000
,
0000
1000
0000
0000
0010
0000
0000
0000
0000
0100
0000
0000
0001
0000
0000
0000
,
0000
0001
0000
0000
1000
0000
0000
0000
1000
0000
0000
0000
0001
0000
0000
0000
,
0001
0100
0010
1000
,
1000
0001
0100
0010
,
0010
1000
0100
0010
,
0001
0010
0001
1000
,
1000
0010
0100
0001
,
0001
0100
0010
1000
,
0001
0000
0000
0000
1000
0000
0000
0000
0100
0000
0000
0100
0000
0000
0000
0000
,
1000
1001
0001
0100
,
0010
1000
1000
0001
,
0100
0010
0010
1000
,
0100
0010
0001
0010
,
0001
1000
1000
0010
,
0100
0001
0001
0100
,
0010
1000
0001
1000
,
0100
0010
0010
0001
,
0100
0001
0001
1000
,
0100
0010
0100
0100
,
1000
0001
0100
0100
,
0010
2000
3001
0010
,
0100
0010
0001
1000
,
0001
0100
0100
0010
,
1000
0010
0010
0100
,
0001
2000
3001
0000
,
0001
1000
1000
0001
,
0010
0100
0010
0010
,
0001
1000
0010
0010
,
0100
0002
1003
0100
,
0010
1100
1100
0011
,
0011
0001
0010
0100
,
0010
0100
1000
0010
,
1000
0002
1003
1000
,
0110
0000
0000
0000
1001
0000
0000
0000
0000
0100
0000
0000
0001
0000
0000
0000
,
0000
0001
0000
0000
0100
0000
0000
0000
0000
0010
0000
0000
1000
0000
0000
0000
,
0000
1000
0000
0000
0001
0000
0000
0000
0000
0000
0000
0000
0000
0000
0000
0000
;

//--------------- dance-single - SKooT ----------------
#NOTES:
     dance-single:
     SKooT:
     Medium:
     9:
     0,0,0,0,0:
0000
0000
0000
0000
,
0000
0000
0000
0000
,
0000
0000
0000
0000
,
0000
0000
1000
0001
1000
0001
1000
0001
,
1000
0000
0001
0000
1001
0000
0100
0000
0000
0010
0000
0000
0001
0000
1000
0000
,
0000
0010
0000
0000
0100
0000
0001
0000
0000
0010
0000
0000
0001
0000
0100
0000
,
0000
0010
0000
0000
1000
0000
0001
0000
0000
0100
0000
0000
0001
0000
1000
0000
,
0000
0100
0000
0000
1000
0000
0001
0000
0000
0100
0000
0000
0010
0000
1000
0000
,
0000
0010
0000
0000
1000
0000
0100
0000
0010
0000
0000
0100
0000
1000
0000
1000
,
0000
0000
0100
0010
0001
0000
1000
0010
,
0100
0000
0000
0000
0101
0000
0000
0000
0100
0000
0010
0000
0100
0000
0000
0001
,
0000
0000
0001
0100
0010
0000
1000
0100
,
0010
0000
0000
0000
0001
0000
1000
0000
0001
0000
0000
0100
0000
0010
0000
0010
,
0000
0000
1000
0010
0100
0000
0001
0010
,
0100
0000
0000
0000
0110
0000
0000
0000
1000
0000
0010
0000
1000
0000
0000
0001
,
0000
0000
1000
0000
0100
0000
0000
0000
0010
0000
0000
0001
0000
0000
0000
0000
,
0110
0000
1100
0000
0000
0000
0010
0000
0100
0000
0000
0010
0000
0001
0000
0001
,
0000
0000
0010
0100
1000
0000
0001
0100
,
0010
0000
0000
0000
1010
0000
0000
0000
0010
0000
0100
0000
0010
0000
0000
1000
,
0000
0000
1000
0010
0100
0000
0001
0010
,
0100
0000
0000
0000
1000
0000
0001
0000
1000
0000
0000
0010
0000
0100
0000
0100
,
0000
0000
0001
0100
0010
0000
1000
0100
,
0010
0000
0000
0000
0110
0000
0000
0000
0001
0000
0100
0000
0001
0000
0000
1000
,
0000
0110
1001
0110
,
0100
0000
0010
0000
0001
0000
1000
0000
0001
0000
0000
1000
0000
0001
0000
0000
,
0100
0000
0010
1000
0100
0000
0100
0010
,
0001
0000
0000
0000
1000
0000
0100
0000
1000
0000
0000
0001
0000
0000
0001
0000
,
1000
0020
0000
0000
1030
0001
0010
0001
,
1000
0000
0000
0000
0100
0000
1000
0000
0010
0000
0000
0010
0000
0100
0000
0000
,
0001
0000
0100
0010
0100
0000
0010
1000
,
0001
0000
0000
0000
0010
0000
0100
0000
0010
0000
0000
0001
0000
0000
1000
0000
,
0010
0200
0000
0000
0301
0000
0000
0000
,
0010
0000
0100
0000
1000
0000
0001
0000
1000
0000
0000
0001
0000
1000
0000
0000
,
0010
0000
0100
0001
0010
0000
0010
0100
,
1000
0000
0000
0000
0001
0000
0010
0000
0001
0000
0000
1000
0000
0000
1000
0000
,
0001
0200
0000
0000
0301
1000
0100
1000
,
0001
0000
1000
1000
0010
0010
0100
0100
,
0001
0000
0001
1000
0010
0000
0100
0001
,
1000
0000
0000
0000
0100
0000
0010
0000
0100
0000
0000
1000
0000
0000
0001
0000
,
0100
0020
0000
0000
1030
0100
1000
0000
,
0010
0000
0010
0000
1001
0000
0000
0000
0000
0100
0000
0000
1000
0000
0001
0000
,
0000
0100
0000
0000
0010
0000
1000
0000
0000
0100
0000
0000
1000
0000
0010
0000
,
0000
0100
0000
0000
1001
0000
0000
0000
0000
0000
0000
0000
0000
0000
0000
0000
;

//--------------- dance-single - SKooT ----------------
#NOTES:
     dance-single:
     SKooT:
     Hard:
     13:
     0,0,0,0,0:
0000
0000
0000
0000
,
0000
0000
0000
0000
,
0000
0000
0000
0000
,
0000
0000
0000
0000
0001
1000
0001
1000
0001
1000
0001
1000
0001
1000
0001
1000
,
0001
1000
0001
0000
1001
0000
0010
0000
0000
0100
0000
0100
1000
0000
0001
0000
,
0000
0100
0000
0100
0010
0000
1000
0000
0000
0100
0000
0100
1000
0000
0010
0000
,
0000
0100
0000
0000
1001
0000
0100
0000
0000
0010
0000
0010
0001
0000
1000
0000
,
0000
0010
0000
0010
0100
0000
0001
0000
0000
0010
0000
0010
0001
0000
0100
0000
,
0000
0010
0000
0000
1000
0000
0001
0000
0100
0000
0000
0010
0000
1000
0000
1000
,
0000
0000
0100
0000
0010
0000
0100
0000
1000
0000
0001
0000
0010
0100
0000
0100
,
1000
0000
0001
0000
1000
0000
0100
0000
0001
0000
0000
1000
0000
1000
0000
0010
,
0000
0100
0001
0100
0010
0100
1000
0100
,
0010
0000
0001
0000
0010
0000
1000
0000
0001
0000
0000
0100
0000
0010
0000
0010
,
0000
0000
0100
0000
0001
0000
0010
0000
0100
0000
1000
0000
0100
0010
0000
0010
,
0100
0000
1000
0000
0001
0000
0100
0000
0100
0000
0000
0010
0000
1000
0000
0001
,
0000
0000
0010
0000
0100
0000
0010
0000
0001
1000
0001
1000
0000
0000
0000
0000
,
1100
0000
0101
0000
0000
0000
0100
0000
0010
0000
0000
0001
0000
0010
0000
0010
,
0000
0000
0100
0000
0001
0000
0100
0000
0010
0000
0100
0000
0001
1000
0000
1000
,
0010
0000
0100
0000
0001
0000
0010
0000
0001
0000
0000
1000
0000
0100
0000
0100
,
0000
0010
0001
0100
0010
1000
0100
0010
,
0100
0000
1000
0000
0001
0000
0010
0000
0100
0000
0000
0010
0000
0001
0000
0001
,
0000
0000
0010
0000
0100
0000
0010
0000
1000
0000
0010
0000
0001
0100
0000
0100
,
0010
0000
1000
0000
0100
0000
1000
0000
0010
0000
0100
0001
1000
0001
0000
0100
,
0000
0000
0010
0000
0100
0001
0000
0000
0010
0100
0000
0000
1100
0000
1000
0000
,
0100
0000
0010
0000
0001
0000
1000
0000
0001
0000
1000
0001
0000
0001
0000
0100
,
0010
0000
0010
1000
0100
1000
0001
0100
,
0010
0000
0000
0000
1000
0000
0100
0000
1000
0000
0001
0100
0000
0100
0001
0000
,
1000
0000
0020
0000
0100
0000
1000
0000
1030
0000
0001
0000
0010
0000
0001
0100
,
0010
0100
0010
0100
0001
0000
1000
0000
0100
0010
0000
0100
0000
0100
0000
1000
,
0010
0000
0100
0010
0100
0001
0010
0001
,
1000
0000
0000
0000
0010
0000
0100
0000
0010
0000
0000
1000
0000
0000
0100
0000
,
0010
0000
0002
0000
0100
0000
0100
0000
1003
0000
0001
0100
0000
0000
0000
0000
,
0100
0010
0100
0010
1000
0000
0001
0000
1000
0000
0001
1000
0000
1000
0000
0010
,
0100
0000
0000
0010
0000
0100
0001
0000
0010
0000
0001
0000
1000
0000
0010
0000
,
0110
0000
0100
0000
0001
0000
0010
0000
0001
0000
1000
0010
0000
0010
1000
0000
,
0001
0000
0200
0000
0010
0000
0010
0000
0301
0000
1000
0000
0100
0000
1000
0010
,
0000
0100
1001
0001
0110
0100
1100
1000
,
1010
0000
0000
0101
0000
0001
0100
0000
0010
0000
1000
0000
0100
0000
0010
0000
,
0011
0000
0001
0000
0100
0000
0010
0000
0100
0000
0000
0001
0000
0000
0010
0000
,
0100
0000
2000
0000
0010
0000
0010
0000
3001
0000
0100
0010
1000
0000
0000
0000
,
1000
0001
1000
0001
1001
0000
0010
0000
0000
0100
0000
0100
1000
0000
0001
0000
,
0000
0100
0000
0100
0010
0000
1000
0000
0000
0100
0000
0100
1000
0000
0010
0000
,
0000
0100
0000
0000
1001
0000
0000
0000
0000
0000
0000
0000
0000
0000
0000
0000
;
