#TITLE:Rally, Rally;
#SUBTITLE:;
#ARTIST:MAISONdes - feat. Pii & Meiyo;
#TITLETRANSLIT:;
#SUBTITLETRANSLIT:;
#ARTISTTRANSLIT:;
#GENRE:;
#CREDIT:;
#MUSIC:Rally, Rally.ogg;
#BANNER:Rally Rally Banner.png;
#BACKGROUND:Rally Rally BG.png;
#CDTITLE:;
#SAMPLESTART:26.625;
#SAMPLELENGTH:16.875;
#SELECTABLE:YES;
#OFFSET:0.696;
#BPMS:0.000=112.000;
#STOPS:;
#BGCHANGES:;
#FGCHANGES:;

//--------------- dance-single - SKooT ----------------
#NOTES:
     dance-single:
     SKooT:
     Beginner:
     2:
     0,0,0,0,0:
0000
0000
0000
0000
,
1000
0000
0100
0000
,
1000
0000
0010
0000
,
0100
0000
0001
0000
,
1000
0000
0001
0000
,
0000
0100
0000
0010
,
0000
1000
0000
0100
,
0000
0001
0000
0100
,
0000
1000
0000
0001
,
0000
0100
0000
0010
,
0000
1000
0000
1000
,
0000
0010
0000
0100
,
0001
0000
0000
0000
0000
0000
0000
0000
1000
0000
0000
0000
0000
0000
0000
0001
,
0000
0001
0000
0010
,
0000
0100
0000
0010
,
0000
0001
0000
0001
,
0000
0000
0000
0000
1000
0000
0000
0000
1000
0000
0000
0000
0000
0000
0000
0001
,
0000
1000
0000
0100
,
0000
0010
0000
0100
,
0000
1000
0000
0001
,
0000
0000
1000
0000
2000
0000
0000
3000
,
0000
0110
0010
0010
,
1000
1000
1000
1000
,
0001
0001
0001
0001
,
0100
0000
0100
0000
0200
0000
0000
0300
,
0000
0001
0001
0001
,
1000
1000
1000
1000
,
0010
0010
0010
0010
,
0100
0000
0100
0000
0200
0000
0000
0300
,
0000
0001
0000
0010
,
0000
0001
0000
0100
,
0000
0010
0000
1000
,
0000
0001
0000
1000
,
0000
0010
0000
0100
,
0000
0001
0000
0010
,
0000
1000
0000
0010
,
0000
0001
0000
1000
,
1000
0000
0010
0000
,
0100
0000
0001
0000
,
1000
0000
0001
0000
,
1000
0000
1000
0001
,
0000
0100
0000
0100
,
0000
0001
0000
0001
,
0000
1000
0000
1000
,
0010
0000
0010
0000
0020
0000
0000
0030
,
0000
1000
0000
1000
,
0000
0001
0000
0001
,
0000
0100
0000
0100
,
0010
0000
0000
0000
0010
0000
0000
0000
0020
0000
0000
0000
0000
0000
0030
1000
,
0000
1001
0000
0001
,
0000
1000
0000
0010
,
0000
0100
0000
0001
,
0000
1000
0000
0001
,
0000
0100
0000
0010
,
0000
1000
0000
0010
,
0000
0100
0000
0001
,
0000
0000
0000
0000
2000
0000
0000
0000
3002
0000
0000
0000
0003
0000
0000
1000
,
0000
0110
0000
0100
,
0000
0010
0000
0100
,
0000
1000
0000
1000
,
0000
0001
0000
1000
,
0000
0001
0000
0010
,
0000
0100
0000
0010
,
0000
0001
0000
0001
,
0000
0000
0000
0000
1000
0000
0000
0000
0002
0000
0000
0000
0003
0000
0000
1000
,
0000
0110
0010
0010
,
1000
1000
1000
1000
,
0001
0001
0001
0001
,
0100
0000
0000
0000
0100
0000
0000
0000
0200
0000
0000
0000
0000
0000
0300
0001
;

//--------------- dance-single - SKooT ----------------
#NOTES:
     dance-single:
     SKooT:
     Easy:
     6:
     0,0,0,0,0:
0000
0000
0000
0000
,
1000
0001
1000
0001
,
0001
0100
0010
0010
,
1000
0001
1000
0100
,
0010
0010
0001
0001
,
1000
0101
0001
1100
,
1000
0101
0002
1003
,
0000
0010
0000
1000
,
0000
0001
0000
1000
,
1000
0100
0010
0000
0001
0000
0001
0000
,
0010
0100
1000
1000
,
0010
0000
0100
0000
0001
1000
0001
0000
,
0100
0000
0000
0000
0000
0000
0000
0000
0000
0000
0000
0000
0000
0000
0000
1000
,
0000
0000
0001
0000
0100
0001
0100
0000
,
0010
0000
1000
0000
0001
0100
0001
0000
,
1000
0000
0001
0000
0010
0100
0010
0000
,
0001
0000
0000
0000
1000
0000
0000
0000
0010
0000
0000
0000
0010
0000
0000
0100
,
0000
0000
0010
0000
1000
0100
1000
0000
,
0001
0000
0010
0000
0100
0010
0100
0000
,
1000
0000
0100
0000
0010
0001
0010
0000
,
0001
0000
0000
0000
0002
0000
0000
0000
2003
0000
0000
0000
3000
0000
0000
1000
,
0000
0110
0100
0001
,
1000
0010
0100
0010
,
1000
0100
0010
0100
,
1000
0000
0000
0000
2000
0000
0000
0000
3002
0000
0000
0000
0003
0000
0000
0001
,
0000
0100
0010
1000
,
0001
0100
0010
1000
,
0001
0010
0100
0010
,
0001
1000
0010
0100
,
0001
0000
1000
0000
0001
0000
1000
0010
,
1000
0010
0100
0100
,
0001
1000
0001
0010
,
0100
0010
0100
0000
1000
0001
1000
0000
,
0010
1000
0001
0100
,
0010
1000
0002
0013
,
2000
3100
0002
1003
,
2000
3002
0023
0230
,
0310
0001
0010
0100
,
0010
0001
0002
0003
,
1000
0010
2000
0000
,
3001
0000
0000
0001
0000
0000
1000
0000
0000
1000
0000
0000
0000
0000
0000
0100
,
0000
0000
0110
0000
0010
0100
0010
0000
,
0001
1000
0001
0010
,
0100
0010
0100
0000
0010
0000
0001
0000
,
0100
0000
0010
0100
0020
0000
0030
0000
,
1000
0010
1000
0001
,
0001
1000
0010
1000
,
1000
0010
0100
0001
,
0001
0000
0100
0000
0020
0000
0000
0000
2030
0000
0000
0000
3100
0000
0000
0010
,
0000
0000
1001
0000
0010
1000
0010
0000
,
0100
0000
0001
0000
1000
0010
1000
0000
,
0010
0000
1000
0000
0100
0010
0100
0000
,
1000
0000
0000
0000
0001
0000
0000
0000
0100
0000
0000
0000
0100
0000
0000
0010
,
0000
0000
0100
0000
0001
0010
0001
0000
,
1000
0000
0100
0000
0010
0100
0010
0000
,
0001
0000
0010
0000
0100
1000
0100
0000
,
1000
0000
0000
0000
2000
0000
0000
0000
3002
0000
0000
0000
0003
0000
0000
0100
,
0000
0000
1001
0000
0100
0001
0100
0000
,
0010
0000
1000
0000
0001
0100
0001
0000
,
1000
0000
0001
0000
0010
0100
0010
0000
,
0001
0000
0000
0000
1000
0000
0000
0000
0010
0000
0000
0000
0010
0000
0000
0100
,
0000
0000
0010
0000
1000
0100
1000
0000
,
0001
0000
0010
0000
0100
0010
0100
0000
,
1000
0000
0100
0000
0010
0001
0010
0000
,
0001
0000
0000
0000
0002
0000
0000
0000
2003
0000
0000
0000
3000
0000
0000
0001
,
0000
0110
0010
1000
,
0001
0000
0100
0010
1000
0000
1000
0000
,
0001
0000
0010
0000
0100
0010
0001
0000
,
1000
0000
0000
0000
0200
0000
0000
0000
0320
0000
0000
0000
0031
0000
0000
1000
;

//--------------- dance-single - SKooT ----------------
#NOTES:
     dance-single:
     SKooT:
     Medium:
     9:
     0,0,0,0,0:
0000
0000
0000
0000
0000
0000
0000
0000
0000
0000
0000
0000
0000
0000
0000
0001
,
1000
0000
0000
1000
0001
0000
0000
0001
1000
0000
0000
1000
0001
0000
0010
0000
,
0001
0000
0000
0000
0100
0000
0000
0000
0010
0000
0000
0000
1000
0000
0000
0100
,
0010
0000
0000
0010
0100
0000
0000
0100
0010
0000
0000
0010
0100
0000
1000
0000
,
1000
0100
0010
0001
0010
0100
1000
0000
,
0001
0000
0000
0100
0010
0000
0000
0010
1000
0000
0000
1000
0100
0000
1000
0000
,
0001
1100
0001
0101
,
1000
1100
0001
1001
,
0200
0010
1000
0320
,
1030
0001
0010
0001
1000
0010
1000
0001
,
0010
0000
0000
0001
0100
0000
0000
0010
1000
0000
0000
0000
0100
0000
0000
0000
,
0010
0100
1000
0100
0010
0100
1000
0001
,
1000
0000
0000
1001
0000
0000
0001
0000
0000
1001
0000
0000
1000
0000
0000
0100
,
0000
0000
0010
0000
0001
0000
0100
0000
0010
0000
1000
0000
0010
0000
0000
0100
,
0000
0000
0010
0000
1000
0000
0001
0000
0010
0000
0100
0000
0010
0000
0000
0001
,
0000
0000
0010
0000
0001
0000
1000
0000
0010
0000
0100
0000
0010
0000
0000
1000
,
0000
0000
0001
0000
0010
0000
0100
0000
1000
0000
0000
0000
0100
0000
0000
0010
,
0000
0000
0100
0000
1000
0000
0010
0000
0100
0000
0001
0000
0100
0000
0000
0010
,
0000
0000
0100
0000
0001
0000
1000
0000
0100
0000
0010
0000
0100
0000
0000
1000
,
0000
0000
0100
0000
1000
0000
0001
0000
0100
0000
0010
0000
0100
0000
0000
0001
,
0000
0000
1000
0000
0200
0000
0000
0000
0320
0000
0000
0000
0031
0000
0000
0100
,
0000
0000
0000
0000
0110
0000
0100
0000
0010
0000
1000
0000
0010
0000
0000
0100
,
0000
0000
0001
0000
0010
0000
0100
0000
0010
0000
0001
0000
0100
0000
0000
0001
,
0000
0000
0010
0000
0100
0000
0010
0000
0001
0000
1000
0000
0010
0000
0000
0100
,
0000
0000
0010
0000
2000
0000
0000
0000
3200
0000
0000
0000
0320
0000
0030
0001
,
0000
0000
0010
0000
0100
0000
1000
0000
0100
0000
0010
0000
0100
0000
0000
1000
,
0000
0000
0001
0000
0100
0000
0010
0000
0100
0000
0001
0000
0010
0000
0000
0001
,
0000
0000
0100
0000
0010
0000
1000
0000
0010
0000
0100
0000
0001
0000
0000
1000
,
0000
0000
0100
0000
0010
0000
0000
0000
0001
0000
0000
0000
0001
0000
0000
1000
,
0001
0000
0000
0001
1000
0000
0000
1000
0001
0000
0000
0001
1000
0000
0100
0000
,
1000
0000
0001
0000
0010
0000
0000
0000
0001
0000
0000
0000
1000
0000
0000
0010
,
0100
0000
0000
0100
0010
0000
0000
0010
0100
0000
0000
0100
0010
0000
1000
0000
,
0001
0010
0100
1000
0100
0010
0001
0000
,
1000
0000
0000
0010
0100
0000
0000
0100
0001
0000
0000
0001
0010
0000
0001
0000
,
0001
0000
1001
0000
0001
1000
0010
0000
,
1000
0001
0010
0000
0001
1000
0010
0000
,
2000
3200
0320
0031
,
0200
0000
0320
0000
,
2030
0000
3002
0000
,
0203
0000
0000
0000
0000
0000
0000
0000
0320
0000
0000
0000
0000
0000
0000
0030
,
0100
0000
0000
0101
0000
0000
0010
0000
0000
1100
0000
0000
0100
0000
0000
0010
,
0000
0000
0000
0000
1000
0000
0001
0000
0010
0000
0001
0000
1000
0000
0000
0010
,
0000
0010
0000
0000
0100
0000
0001
0000
0010
0000
0100
0000
1000
0000
0000
0010
,
0000
0010
0000
0000
1000
0000
0001
0000
0010
0000
0100
0000
0010
0000
0000
0100
,
0000
0100
0000
0000
1000
0000
0001
0000
2000
0000
0000
0000
3001
0000
0000
0010
,
0000
0010
0000
0000
0001
0000
1000
0000
0100
0000
0010
0000
0100
0000
0000
0010
,
0000
0010
0000
0000
0100
0000
0010
0000
0001
0000
1000
0000
0010
0000
0000
1000
,
0000
1000
0000
0000
0010
0000
1000
0000
0001
0000
0010
0000
0001
0000
0000
0000
,
1000
0000
0000
0000
0002
0000
0000
0000
0023
0000
0000
0000
0130
0000
0000
1000
,
0000
0000
0100
0000
1001
0000
0010
0000
0100
0000
0001
0000
0100
0000
0000
0010
,
0000
0000
0100
0000
0001
0000
1000
0000
0100
0000
0010
0000
0100
0000
0000
1000
,
0000
0000
0100
0000
1000
0000
0001
0000
0100
0000
0010
0000
0100
0000
0000
0001
,
0000
0000
1000
0000
0100
0000
0010
0000
0001
0000
0000
0000
0010
0000
0000
0100
,
0000
0000
0010
0000
0001
0000
0100
0000
0010
0000
1000
0000
0010
0000
0000
0100
,
0000
0000
0010
0000
1000
0000
0001
0000
0010
0000
0100
0000
0010
0000
0000
0001
,
0000
0000
0010
0000
0001
0000
1000
0000
0010
0000
0100
0000
0010
0000
0000
1000
,
0000
0000
0100
0000
0020
0000
0000
0000
0032
0000
0000
0000
1003
0000
0000
0100
,
0000
0000
0010
0000
1001
0000
0100
0000
0010
0000
1000
0000
0010
0000
0000
0100
,
0000
0000
0010
0000
1000
0000
0001
0000
0010
0000
0100
0000
0010
0000
0000
0001
,
0000
0000
0010
0000
0001
0000
1000
0000
0010
0000
0100
0000
0010
0000
0000
1000
,
0000
0000
0001
0000
0010
0000
0100
0000
1000
0000
0000
0000
0100
0000
0000
0010
,
0000
0000
0100
0000
1000
0000
0010
0000
0100
0000
0001
0000
0100
0000
0000
0010
,
0000
0000
0100
0000
0001
0000
1000
0000
0100
0000
0010
0000
0100
0000
0000
1000
,
0000
0000
0100
0000
1000
0000
0001
0000
0100
0000
0010
0000
0100
0000
0000
0001
,
0000
0000
0010
0000
0200
0000
0000
0000
2300
0000
0000
0000
3001
0000
0000
0100
,
0000
0000
0000
0000
0110
0000
0010
0000
0100
0000
0001
0000
0100
0000
0000
0010
,
0000
0000
1000
0000
0100
0000
0010
0000
0100
0000
1000
0000
0010
0000
0000
1000
,
0000
0000
0100
0000
0010
0000
0100
0000
1000
0000
0001
0000
0100
0000
0000
0010
,
0000
0000
0100
0000
0002
0000
0000
0000
0023
0000
0000
0000
0230
0000
0000
1300
;

//--------------- dance-single - SKooT ----------------
#NOTES:
     dance-single:
     SKooT:
     Hard:
     11:
     0,0,0,0,0:
0000
0000
0000
0000
0000
0000
0000
0000
0000
0000
0000
0000
0000
0000
0000
0010
,
1000
0000
0000
0010
0001
0000
0000
0010
1000
0000
0000
1000
0001
0000
0010
0000
,
0001
0000
0000
0000
0100
0000
0000
0000
0010
0000
0000
0000
1000
0000
0000
0100
,
0010
0000
0000
0010
0001
0000
0000
0001
0010
0000
0000
0100
1000
0000
0001
0000
,
1000
0100
0010
0001
0010
0100
1000
0000
,
0001
0000
0000
0100
1000
0000
0000
0100
0001
0000
0000
0100
0010
0000
1000
0000
,
0001
1100
0001
0101
,
1000
1100
0001
0101
,
0020
0001
1000
0230
,
1300
0001
0010
0001
1000
0010
1000
0001
,
0010
0000
0000
0001
0100
0000
0000
0010
1000
0000
0000
0000
0100
0000
0000
0000
,
0010
0100
1000
0100
0010
0100
0001
0100
,
1000
0000
0001
1000
0000
0000
1000
0000
0010
1000
0000
0000
0100
0001
0000
0100
,
0000
0100
1000
0000
0001
0000
1000
0000
0010
0000
0100
0000
0010
0000
0000
0001
,
0000
0001
0010
0000
1000
0000
0001
0000
0010
0000
0100
0000
0010
0000
0000
1000
,
0000
1000
0010
0000
0001
0000
1000
0000
0010
0000
0001
0000
0010
0000
0000
1000
,
0000
1000
0010
0000
0001
0000
0010
0000
1000
0000
0000
0000
0010
0100
0000
0001
,
0000
0100
0010
0000
1000
0000
0010
0000
0100
0000
0001
0000
0100
0000
0000
1000
,
0000
1000
0100
0000
0001
0000
1000
0000
0100
0000
0010
0000
0100
0000
0000
0001
,
0000
0001
0100
0000
1000
0000
0001
0000
0100
0000
1000
0000
0100
0000
0000
0001
,
0000
0001
0010
0000
0110
0000
0100
0000
2100
0000
0000
0000
3001
0000
0000
1000
,
0000
0010
0100
0000
0101
0000
0100
0000
0010
0000
1000
0000
0100
0000
0000
0010
,
0000
0010
0001
0000
1000
0001
1000
0001
0100
0000
0010
0000
0100
0000
0000
1000
,
0000
1000
0100
0000
0001
0000
0010
0000
0100
0000
0010
0000
0001
0000
0000
0100
,
0000
0001
0010
0000
0100
0000
1000
0000
0020
0000
0000
0000
0130
0000
0000
0001
,
0000
0100
0010
0000
1000
0000
0010
0000
0100
0000
0001
0000
0010
0000
0000
0100
,
0000
0100
1000
0000
0001
1000
0001
1000
0010
0000
0100
0000
0010
0000
0000
0001
,
0000
0001
0010
0000
1000
0000
0100
0000
0010
0000
0100
0000
1000
0000
0000
0010
,
0000
1000
0001
0000
0010
0000
0100
0000
2000
0000
0000
0000
3010
0000
0000
0100
,
0001
0000
0000
0100
1000
0000
0000
0100
0001
0000
0000
0001
1000
0000
0100
0000
,
1000
0000
0000
0000
0010
0000
0000
0000
0100
0000
0000
0000
0001
0000
0000
0010
,
0100
0000
0000
0100
1000
0000
0000
1000
0100
0000
0000
0010
0001
0000
1000
0000
,
0001
0010
0100
1000
0100
0010
0001
0000
,
1000
0000
0000
0010
0001
0000
0000
0010
1000
0000
0000
0010
0100
0000
0000
0000
,
0001
0000
1001
0000
0001
1000
0110
0000
,
1000
0001
0110
0000
0001
1000
0110
0000
,
2000
0000
3200
0000
0320
0030
0001
0000
,
0200
0000
0320
0000
,
2030
0000
3002
0000
,
0203
0000
0000
0000
0000
0000
0000
0000
0320
0000
0000
0000
0000
0000
0000
0030
,
0100
0000
0001
1000
0000
0000
0100
0000
0001
1000
0000
0000
0100
0000
0000
0010
,
0000
0100
0000
0000
1001
0000
0001
0000
0010
0000
0001
0000
1000
0000
0000
0010
,
0000
0010
0000
0000
0100
0000
0001
0000
1000
0000
0010
0000
0100
0000
0000
0001
,
0000
0001
0000
0000
0100
0000
0010
0000
1000
0000
0001
0000
1000
0000
0000
0100
,
0000
0001
1000
0000
0100
0000
0010
0000
0002
0000
0000
0000
1003
0000
0000
0010
,
0000
0010
0000
0000
0100
0000
0001
0000
1000
0000
0100
0000
1000
0000
0000
0001
,
0000
0001
0000
0000
0100
0000
0010
0000
1000
0000
0001
0000
0100
0000
0000
0010
,
0000
0010
0000
0000
1000
0000
0010
0000
0100
0000
0001
0000
1000
0000
0000
0100
,
0000
0001
1000
0000
0100
0000
1000
0000
0001
0200
0000
0000
0310
0001
0000
0001
,
0000
0010
1000
0000
0101
0000
0100
0000
0010
0000
1000
0000
0010
0000
0000
0001
,
0000
0001
0010
0000
1000
0000
0001
0000
0010
0000
0100
0000
0010
0000
0000
1000
,
0000
1000
0010
0000
0001
0000
1000
0000
0010
0000
0001
0000
0010
0000
0000
1000
,
0000
1000
0001
0000
0010
0000
0100
0000
1000
0000
0000
0000
0100
0010
0000
1000
,
0000
0010
0100
0000
1000
0000
0010
0000
0100
0000
0001
0000
0100
0000
0000
1000
,
0000
1000
0100
0000
0001
0000
1000
0000
0100
0000
0010
0000
0100
0000
0000
0001
,
0000
0001
0100
0000
1000
0000
0001
0000
0100
0000
1000
0000
0100
0000
0000
0001
,
0000
0001
0010
0000
0110
0000
0100
0000
1100
0000
0000
0000
1000
0010
0000
1000
,
0000
0001
0100
0000
1010
0000
0010
0000
0100
0000
0001
0000
0100
0000
0000
1000
,
0000
1000
0100
0000
0001
0000
1000
0000
0100
0000
0010
0000
0100
0000
0000
0001
,
0000
0001
0100
0000
1000
0000
0001
0000
0100
0000
1000
0000
0100
0000
0000
0001
,
0000
0001
1000
0000
0100
0000
0010
0000
0001
0000
0000
0000
0010
0100
0000
0001
,
0000
0100
0010
0000
0001
0000
0100
0000
0010
0000
1000
0000
0010
0000
0000
0001
,
0000
0001
0010
0000
1000
0000
0001
0000
0010
0000
0100
0000
0010
0000
0000
1000
,
0000
1000
0010
0000
0001
0000
1000
0000
0010
0000
0001
0000
0010
0000
0000
1000
,
0000
1000
0100
0000
0011
0000
0110
0000
2100
0000
0000
0000
3010
0000
0000
0101
,
0000
0100
0010
0000
1010
0000
0010
0000
0100
0000
0001
0000
0010
0000
0000
0100
,
0000
0100
1000
0000
0001
1000
0001
1000
0010
0000
0100
0000
0010
0000
0000
0001
,
0000
0001
0010
0000
1000
0000
0100
0000
0010
0000
0100
0000
1000
0000
0000
0010
,
0000
1000
0100
0000
0002
0000
1000
0000
0023
0000
0000
0000
0230
0000
0000
1300
;
