#TITLE:Passion;
#SUBTITLE:;
#ARTIST:KEYTALK;
#TITLETRANSLIT:;
#SUBTITLETRANSLIT:;
#ARTISTTRANSLIT:;
#GENRE:;
#CREDIT:;
#MUSIC:Passion.ogg;
#BANNER:Passion BN.png;
#BACKGROUND:Passion BG.png;
#CDTITLE:;
#SAMPLESTART:0.000;
#SAMPLELENGTH:0.000;
#SELECTABLE:YES;
#OFFSET:-0.196;
#BPMS:0.000=167.024;
#STOPS:;
#BGCHANGES:;
#FGCHANGES:;

//--------------- dance-single - SKooT ----------------
#NOTES:
     dance-single:
     SKooT:
     Beginner:
     2:
     0,0,0,0,0:
0000
0000
0000
0000
,
0000
0000
0000
0000
,
0000
0000
0000
0000
,
0000
0000
0000
0000
,
0000
0000
1000
0000
,
0100
0000
1000
0000
,
0001
0000
0100
0000
,
0001
0000
1000
0000
,
0010
0000
1000
0000
,
0001
0000
0010
0000
,
0001
0000
1000
0000
,
0001
0000
1000
0000
,
0001
0001
0000
0000
,
0001
0000
0100
0000
,
0010
0000
0100
0000
,
0010
0000
0100
0000
,
0001
0000
0100
0000
,
0001
0000
1000
0000
,
0100
0000
1000
0000
,
0001
0000
0100
0000
,
0001
0000
0010
0000
,
0100
0000
0010
0000
,
0001
0000
1000
0000
,
0010
0000
1000
0000
,
0010
0000
1000
0000
,
0100
0000
0010
0000
,
0100
0000
1000
0000
,
0001
0000
0100
0000
,
0000
0001
0001
0000
,
1000
0000
0100
0000
,
1000
0000
0001
0000
,
0100
0000
0001
0000
,
1000
0000
0001
0000
,
0010
0000
0001
0000
,
0010
0000
0100
0000
,
1000
0000
0100
0000
,
0010
0000
0001
0000
,
0100
0000
0010
0000
,
0100
0000
0010
0000
,
0010
0000
0100
0000
,
0100
0000
0001
0000
,
1000
0000
0010
0000
,
1000
0000
0100
0000
,
1000
0000
0001
0000
,
0001
0000
1000
0000
,
0010
0000
0100
0000
,
0010
0000
0100
0000
,
0100
0000
0010
0000
,
0010
0000
1000
0000
,
0001
0000
0100
0000
,
0001
0000
0010
0000
,
0001
0000
1000
1000
,
1000
1000
0000
0000
,
0000
1000
0000
0001
,
0001
0001
0000
0001
,
0000
0010
0000
0001
,
0000
1000
0000
0010
,
0000
1000
0000
0001
,
0000
0100
0000
0001
,
0000
1000
0000
0100
,
0000
1000
0000
0001
,
0000
1000
0000
0000
,
0001
0001
0000
0000
,
0000
0000
1000
1000
,
0000
0001
0000
0000
0000
0000
0000
0000
;

//--------------- dance-single - SKooT ----------------
#NOTES:
     dance-single:
     SKooT:
     Easy:
     6:
     0,0,0,0,0:
0000
0000
0000
0000
,
0000
0000
0000
0000
,
0000
0000
0000
0000
,
0000
0000
0000
0000
,
0000
0010
0100
0100
,
0001
0010
0100
0010
,
0001
0100
0010
0010
,
1000
0100
0010
0100
,
1000
0001
0001
0010
,
0100
0010
0100
1000
,
1000
0001
0100
0100
,
0001
1000
0001
1000
,
0001
1001
1000
0100
,
0001
0001
0100
1000
,
0100
0001
0100
1000
,
0001
0100
0001
0010
,
0001
0100
0001
0010
,
1000
1000
0100
0001
,
0100
1000
0010
0001
,
1000
0100
0010
0001
,
1000
0001
0010
1000
,
1000
0010
0001
0010
,
1000
0010
0001
1000
,
0010
1000
0100
1000
,
0010
1000
0100
0001
,
0001
0010
1000
0010
,
0001
0100
1000
0001
,
0010
0100
0010
0100
,
1000
1001
1000
0001
,
0010
0001
0010
0100
,
1000
0100
0010
0100
,
1000
0001
1000
0001
,
0000
1001
0001
1000
,
0100
1000
0100
0010
,
0001
0010
0100
0010
,
0001
1000
0001
1000
,
1000
0001
0010
0001
,
0100
0001
0010
0100
,
0010
0001
0010
0100
,
1000
0010
0100
0010
,
0010
1000
0100
1000
,
0010
1000
0100
1000
,
0001
0010
0100
1000
,
0001
0100
0010
0100
,
0001
1000
0100
1000
,
0010
1000
0100
0010
,
0100
1000
0100
0010
,
0001
0100
0010
0100
,
0100
0001
0010
0001
,
0100
0001
0010
0001
,
1000
0100
0010
0001
,
1000
0010
0100
0010
,
1000
1001
0000
0000
,
0000
1001
0000
1000
,
0001
0100
0010
0010
,
1000
0100
0010
0100
,
1000
0010
0100
0100
,
0001
0010
0100
0010
,
0001
1000
1000
0100
,
0010
0100
0010
0001
,
0001
1000
0010
0010
,
1000
0001
1000
0001
,
1000
1001
0000
0000
,
0000
0000
0001
1000
,
0000
1001
0000
0000
0000
0000
0000
0000
;

//--------------- dance-single - SKooT ----------------
#NOTES:
     dance-single:
     SKooT:
     Medium:
     9:
     0,0,0,0,0:
0000
0000
0000
0000
,
0000
0000
0000
0000
,
0000
0000
0000
0000
,
0000
0000
0000
0000
0000
0000
0000
1000
,
1000
0000
0010
0000
0100
0001
0100
0000
,
0001
0010
0100
0010
,
0001
0000
0100
0000
0010
1000
0010
0000
,
1000
0000
0100
0000
0010
0000
0100
1000
,
1000
0000
0001
1000
0001
0000
0010
0000
,
0100
0010
0100
1000
,
1000
0000
0001
0000
0100
0010
0100
0000
,
0001
0000
0001
1000
0001
1000
0001
1000
,
0001
0000
1001
0000
1000
0001
0100
0000
,
0001
0001
0100
1000
,
0100
0000
0001
0000
0100
0010
1000
0000
,
0001
0100
0001
0010
,
0001
0000
0100
0000
0001
1000
0010
0000
,
1000
1000
0100
0001
,
0100
0000
1000
0000
0010
0100
0001
0000
,
1000
0000
0100
0010
0100
0010
0000
0010
,
0010
0000
0001
0000
0001
0100
0010
0100
,
0000
0100
0000
0001
1000
0000
0010
0100
,
0001
0000
0001
0000
1000
0100
1000
0001
,
0000
1000
0000
0001
1000
0001
1000
0001
,
1000
0000
1000
0000
0010
0100
0001
1000
,
0000
1000
0000
0010
0100
0000
0001
1000
,
0100
0000
1000
0000
1000
0001
0100
0000
,
0000
0010
0000
1000
0100
0010
0002
0000
,
0000
0003
0011
0000
1000
0000
0001
0000
,
0010
0000
0001
0000
0001
0100
0000
0010
,
1000
0100
0010
0100
,
1000
0001
0000
0100
0001
0100
0001
0000
,
0000
1010
0001
1000
,
0100
0000
1000
0000
1000
0010
0000
0100
,
0001
0010
0100
0010
,
0001
0000
1000
0001
1000
0001
1000
0001
,
1000
1001
0010
0001
,
0100
0001
0010
0100
,
0010
0001
1000
0000
0010
0100
0001
0000
,
0001
0000
1000
0010
1000
0010
0100
0010
,
0010
0110
0100
0001
,
0100
0010
1000
0010
,
0100
0000
0001
0010
0000
0001
0000
0100
,
0010
0100
0001
0000
0010
0000
0100
0000
,
1000
1001
0100
1000
,
0010
1000
0100
0010
,
0100
1000
0001
0000
0100
0010
1000
0000
,
1000
0000
0001
0100
0001
0100
0010
0100
,
0100
0110
0010
1000
,
0010
0100
0001
0010
,
0100
1000
0100
0010
,
0100
0000
1000
0001
1000
0001
1000
0001
,
0001
0101
0000
0000
,
0000
1100
0000
1000
,
0001
0000
0100
0010
1000
0000
1000
0000
,
1000
0010
0100
0000
0001
0000
0100
0010
,
1000
0000
0100
0010
0001
0000
0001
0000
,
0001
0010
0100
0000
1000
0000
0100
1000
,
1000
0000
0001
0010
0001
0000
0100
0000
,
0010
1000
0010
0000
0100
0000
0001
0000
,
1000
1001
0001
0010
,
0001
1000
0010
1000
,
0001
0000
1001
0000
0001
0010
0000
0000
,
0000
0000
0000
0001
1000
0010
1000
0001
,
0000
1001
0000
0000
0000
0000
0000
0000
;

//--------------- dance-single - SKooT ----------------
#NOTES:
     dance-single:
     SKooT:
     Hard:
     11:
     0,0,0,0,0:
0000
0000
0000
0000
,
0000
0000
0000
0000
,
0000
0000
0000
0000
,
0000
0000
0000
0000
0000
0000
0000
1000
,
1000
0000
0010
0100
0001
0010
0001
0000
,
0001
0100
0010
0000
1000
0000
0010
0100
,
0001
0000
0100
0010
1000
0100
1000
0000
,
1000
0010
0100
0000
0001
0000
0010
0001
,
0001
0000
1000
0010
1000
0100
0010
0000
,
0100
1000
0010
0000
0100
0000
0001
0010
,
0000
0001
0000
0100
0010
0100
0010
0000
,
1000
0000
0001
1000
0001
1000
0001
0001
,
0001
1000
1001
0000
1000
0001
0100
0000
,
0001
0000
0001
0100
0010
0000
1000
0100
,
0010
0000
0001
0000
0100
0010
1000
0000
,
0001
0000
1000
0100
1000
0001
0000
0001
,
0010
0100
1000
0000
0001
1000
0010
0000
,
0010
0000
1000
0001
0000
0001
0010
0100
,
0010
0000
0001
0000
0100
0010
1000
0000
,
0001
0000
0001
0010
0001
1000
0000
1000
,
0100
0010
0001
0000
0001
0100
0010
0100
,
0000
1000
0000
1000
0001
0100
0001
0010
,
0001
0000
0001
0000
1000
0010
0100
0010
,
0000
1000
0000
0001
1000
0001
1000
1000
,
1000
0001
1000
0000
0010
0100
0001
0010
,
0000
1000
0000
1000
0010
0100
0010
1000
,
0001
0000
0010
0000
0001
0010
0100
0010
,
0000
0010
0000
0100
1000
0001
0200
0000
,
0000
0300
0110
0000
1000
0000
0001
0000
,
0010
0000
0001
1000
0001
0100
0000
0010
,
1000
0100
0010
0100
,
1000
0001
0000
0010
0001
0100
0001
1000
,
1000
0110
0001
1000
,
0100
0000
1000
0001
1000
0010
0000
0100
,
0001
0010
0100
0010
,
0001
0000
1000
0100
1000
0010
1000
0001
,
1000
0000
1001
0000
0010
1000
0001
0000
,
0100
0000
0001
0000
0010
0001
0100
0000
,
0010
1000
0001
0000
0010
0001
1000
0000
,
0001
0000
1000
0001
0100
0001
0010
0100
,
0100
0000
0110
0000
0100
1000
0010
0000
,
0100
0001
0010
0000
0100
1000
0001
0000
,
0100
0000
1000
0010
0000
0001
0000
0001
,
0010
0001
0100
0010
1000
0100
0010
0001
,
0100
0000
1001
0000
0100
0001
1000
0000
,
0010
0000
1000
0000
0100
1000
0010
0000
,
0100
0001
1000
0000
0100
1000
0001
0000
,
1000
0000
0001
1000
0010
1000
0100
0010
,
0010
0000
0110
0000
0010
0001
0100
0000
,
0010
0000
1000
0000
0000
1000
0001
0100
,
0001
0000
1000
0010
0100
0010
0100
0001
,
0010
0100
0010
0100
0100
1000
1000
0001
,
0001
0011
0000
0000
,
0000
1010
0000
0040
,
0000
0000
0130
0010
1000
0100
1000
0000
,
1000
0010
0100
0000
0001
0000
0100
0010
,
1000
0000
0010
0100
0001
0010
0001
0000
,
0001
0100
0010
0000
1000
0000
0100
1000
,
1000
0000
0001
0010
0001
0010
0100
0000
,
0010
0001
0100
0000
0010
0000
1000
0100
,
0000
0000
1100
0000
1000
0010
0100
0000
,
0001
0000
1000
0001
1000
0100
0000
0100
,
1000
0000
1001
0000
0001
0010
0000
0000
,
0000
0000
0000
0001
0100
0010
1000
0100
,
0010
0011
0000
0000
0000
0000
0000
0000
;
