#VERSION:0.83;
#TITLE:OverThink;
#SUBTITLE:- Link Click ED;
#ARTIST:Fan Ka - (Cover) EAERAN;
#TITLETRANSLIT:;
#SUBTITLETRANSLIT:;
#ARTISTTRANSLIT:;
#GENRE:;
#CREDIT:;
#MUSIC:Overthink.ogg;
#BANNER:OverThink Banner.png;
#BACKGROUND:;
#CDTITLE:;
#SAMPLESTART:52.149;
#SAMPLELENGTH:12.469;
#SELECTABLE:YES;
#OFFSET:0.351;
#BPMS:0.000=160.000;
#STOPS:;
#SPEEDS:0.000=1.200=0.000=0;
#SCROLLS:0.000=0.700,
6.000=0.600,
6.500=0.500,
7.000=0.400,
8.000=0.700,
14.000=0.600,
14.500=0.500,
15.000=0.400,
16.000=0.700,
22.000=0.600,
22.500=0.500,
23.000=0.400,
24.000=0.700,
30.000=0.600,
30.500=0.500,
31.000=0.400,
32.000=0.600,
34.000=0.800,
34.500=0.700,
35.000=0.650,
35.500=0.600,
36.000=0.800,
36.500=0.700,
37.000=0.650,
37.500=0.600,
38.000=0.800,
38.500=0.700,
39.000=0.650,
39.500=0.600,
40.000=0.800,
40.500=0.750,
41.000=0.700,
41.500=0.800,
96.000=0.400,
98.000=0.800,
106.000=0.700,
134.000=0.650,
135.000=0.600,
136.000=0.550,
142.000=0.700,
146.000=0.800,
149.000=1.000,
149.250=0.800,
150.000=1.100,
150.250=0.800,
154.000=0.700,
154.500=0.650,
155.000=0.600,
155.500=0.700,
156.000=0.750,
156.500=0.800,
174.000=0.700,
175.000=0.750,
176.000=0.800,
178.000=0.900,
178.250=0.800,
181.000=1.000,
181.250=0.800,
182.000=1.100,
182.250=0.800,
186.000=0.700,
186.500=0.650,
187.000=0.600,
187.500=0.700,
188.000=0.750,
188.500=0.800,
206.000=0.700,
206.500=0.650,
207.000=0.600,
213.000=0.700,
213.250=0.600,
214.000=0.700,
214.250=0.600,
231.500=0.800,
232.000=0.850,
233.000=0.900,
233.500=0.950,
234.000=1.000,
235.000=1.050,
236.000=1.100
;
#BGCHANGES:1.500=Overthink.avi=1.000=1=0=0=StretchNoLoop==CrossFade==;
#FGCHANGES:;

//--------------- dance-single - SKooT ----------------
#NOTEDATA:;
#STEPSTYPE:dance-single;
#DESCRIPTION:SKooT;
#DIFFICULTY:Beginner;
#METER:3;
#RADARVALUES:0,0,0,0,0;
#NOTES:
0000
0000
1000
0000
,
0001
0000
0100
0000
,
0100
0000
0001
0000
,
1000
0000
0100
0000
,
0100
0000
1000
0000
,
0001
0000
0100
0000
,
0100
0000
0001
0000
,
0010
0000
0000
0000
0200
0000
0000
0300
,
1000
0000
0001
0000
,
0001
0000
0001
0000
,
0001
0000
0001
1000
,
0001
0000
1000
0001
,
0100
0000
0001
0010
,
0001
0000
1000
0100
,
0010
0000
0100
1000
,
0100
0000
0010
0001
,
0010
0000
0001
0010
,
0100
0000
1000
0010
,
1000
0000
0100
0000
,
0001
0000
1000
0010
,
1000
0010
1000
0000
,
0100
0000
0001
0100
,
0001
0100
0000
0001
,
0001
0000
1000
0000
,
0001
0000
0001
0000
,
1000
0000
0100
0000
,
0010
0000
0001
0000
,
0100
0000
0001
0000
,
1000
0000
0000
0000
0002
0000
0000
0003
,
1000
0000
0100
0000
,
1000
0000
0000
0000
0002
0000
0000
0003
,
0100
0000
0200
0000
,
0310
0000
0000
0000
2000
0000
0000
3000
,
0001
0000
0001
0000
,
0100
0000
0100
0000
,
0000
0000
0000
0000
2000
0000
0000
3000
,
0000
0000
2000
3000
,
0001
0100
0100
0000
,
0001
0000
2000
3000
,
0100
0000
0100
0000
,
1000
0000
0010
0000
,
0100
0000
0001
0000
,
1000
0000
0010
0000
,
0100
0000
0002
0000
,
1003
0000
0002
0003
,
1000
0100
0100
0000
,
1000
0000
0002
0003
,
0010
0000
0010
0000
,
0001
0000
0100
0000
,
0010
0000
1000
0000
,
0001
0000
1000
0000
,
0010
0000
0100
0000
,
0000
0000
0100
0000
,
0000
0110
0110
0000
,
1000
0000
0002
0003
,
0100
0000
0000
0002
,
0000
0003
2000
0000
3000
0000
0000
0000
,
0000
0000
0000
0000
0010
0000
0000
0010
,
0000
0010
0100
0100
,
0020
0000
0030
0000
;

//--------------- dance-single - SKooT ----------------
#NOTEDATA:;
#STEPSTYPE:dance-single;
#DESCRIPTION:SKooT;
#DIFFICULTY:Easy;
#METER:6;
#RADARVALUES:0,0,0,0,0;
#NOTES:
0000
0000
1000
0001
,
0100
0001
1000
0000
,
0010
1000
0010
0100
,
0001
0100
0010
0000
,
1000
0001
1000
0010
,
0100
0001
1000
0000
,
1000
0010
1000
0001
,
0100
0000
0010
0000
2000
0000
0000
3000
,
0010
0000
0000
0000
0002
0000
0000
0003
,
0002
0000
0000
0003
0002
0000
0000
0003
,
0002
0003
0001
1000
,
0010
0000
0000
0010
0000
0000
0000
0000
0100
0000
0000
0000
0001
0000
0000
0000
,
1000
0100
1000
0010
,
0100
0000
0000
0100
0000
0000
0000
0000
0001
0000
0000
0000
0010
0000
0000
0000
,
0001
1000
0100
1000
,
0001
0001
0100
0010
,
1000
0001
0100
0010
,
0100
0100
0001
1000
,
0010
0100
0001
0000
,
1000
0000
0010
0100
,
0010
0100
0001
0000
,
1000
0000
0100
0010
,
0100
0010
0001
0000
,
0100
0000
1000
0000
,
0001
0000
0001
0000
,
1000
0000
0100
0000
,
0001
0000
0110
0000
,
0001
1000
0001
1000
,
0100
0000
0010
0000
0002
0000
0000
0003
,
1000
0001
1000
0001
,
0010
0000
0100
0000
2000
0000
0000
3000
,
0010
1000
1000
0010
,
0100
0000
0010
0000
2000
0000
0000
3000
,
0001
1000
0001
0100
,
0001
1000
0010
1000
,
0000
0000
0000
0000
2000
0000
0000
3000
,
0000
0000
2000
3001
,
0001
0101
0101
0001
,
0001
1000
2000
3010
,
0100
0000
0001
1000
,
0100
1000
0010
0100
,
0001
0100
0010
1000
,
0001
0010
0001
0010
,
0100
1000
0002
1000
,
1003
0000
0002
1003
,
1000
1100
1100
1000
,
1000
0001
0002
0103
,
0010
0000
1000
0001
,
0010
0001
0100
0010
,
1000
0010
0100
0001
,
1000
0100
1000
0100
,
0010
0001
1000
0010
,
0010
0000
1000
0010
,
0010
0101
1100
0010
,
0010
1000
0002
0003
,
0100
0000
0000
0002
,
0000
0003
2000
0000
3000
0000
0000
0000
,
0000
0000
0000
0000
0010
0000
0000
0010
,
0000
0010
0100
0100
,
0020
0000
0030
0000
;

//--------------- dance-single - SKooT ----------------
#NOTEDATA:;
#STEPSTYPE:dance-single;
#DESCRIPTION:SKooT;
#DIFFICULTY:Medium;
#METER:10;
#RADARVALUES:0,0,0,0,0;
#NOTES:
0000
0000
0100
0010
,
0001
0000
0001
0100
0010
0000
0000
0000
,
0010
0000
0100
0000
0010
0000
0100
0001
,
1000
0000
1000
0010
0100
0000
0000
0000
,
0001
0000
0010
0000
0100
0000
0100
0010
,
0001
0000
0001
0100
0010
0000
0000
0000
,
0010
0000
0100
0000
0100
0000
0001
1000
,
0010
0000
0010
1000
0200
0000
0000
0300
,
0010
0000
0000
0000
0002
0000
0000
0003
,
0002
0000
0000
0003
0002
0000
0000
0003
,
0002
0000
0003
0000
0001
0010
0100
0000
,
0010
0000
0000
0001
0000
0000
0000
0000
0001
0000
0010
0000
0100
0000
0000
0000
,
0100
1000
0100
0000
1000
0010
0100
0000
,
0010
0000
0000
1000
0000
0000
0000
0000
0001
0000
0010
0000
0100
0000
0000
0000
,
0010
0100
1000
0000
0001
0100
0010
0000
,
1000
0010
0100
0000
0001
1000
0100
0000
,
1000
0001
0100
0000
0100
0010
0100
0000
,
0001
1000
1000
0000
0100
0010
0100
0000
,
1000
0001
0100
0000
0010
0100
0001
0000
,
0010
0100
1000
0000
0010
0100
0001
0000
,
0100
0001
1000
0000
1000
0001
0010
0000
,
0001
1000
0100
0000
1000
0001
0010
0000
,
0010
0100
1000
0000
0001
0000
1000
0001
,
0100
0000
1000
0000
1000
0001
0010
0000
,
0001
0000
0001
0100
,
0100
0001
1000
0000
0100
0000
1000
0001
,
0010
0001
1100
0000
,
1000
0001
0001
1000
0001
0000
1000
0000
,
0100
0000
0010
0000
0002
0000
0000
0003
,
0001
1000
1000
0001
1000
0000
0001
0000
,
0010
0000
0100
0000
2000
0000
0000
3000
,
0010
0100
0001
0000
1000
0000
0010
0000
,
0001
0000
0010
0000
2000
0000
0000
3000
,
0001
0000
0100
0000
0001
0010
0100
0000
,
1000
0001
1000
0001
,
0000
0000
0000
0000
2000
0000
0000
3000
,
0001
0000
0000
0000
2000
0000
3001
0100
,
0010
0000
1010
0000
0101
0000
0010
0100
,
0010
0000
0001
0000
2000
0000
3010
0100
,
0001
1000
0000
0000
1000
0000
0001
0000
,
0100
0001
1000
0000
0100
1000
0010
0000
,
0100
0001
1000
0000
0010
0100
0010
0000
,
1000
0100
0010
0000
0100
0000
0010
0000
,
0001
1000
1002
1000
,
1003
0000
0000
0000
1002
0000
1003
0010
,
0100
0000
1010
0000
0101
0000
1000
0010
,
0100
0000
0001
0000
0002
0000
0103
0010
,
1000
0001
0000
0000
0001
0000
1000
0000
,
0010
1000
0100
0000
0010
0001
0100
0000
,
0010
0100
0010
0000
1000
0001
0010
0000
,
0001
0100
0010
0000
1000
0000
0100
0000
,
0010
0000
0001
0000
0100
0000
0010
1000
,
0010
0000
0000
0000
0100
0000
0010
1000
,
0010
0000
0101
0000
1010
0000
0100
0010
,
0100
0000
0001
0000
0020
0000
0130
1000
,
0001
0100
0000
0000
0000
0000
0002
0000
,
0000
0003
2000
0000
3000
0000
0000
0000
,
0000
0000
0000
0010
0010
0000
0000
1000
,
0000
0000
0010
0000
0100
0010
0100
0010
,
0100
0010
0010
0010
0000
0000
0000
0000
;

//--------------- dance-single - SKooT ----------------
#NOTEDATA:;
#STEPSTYPE:dance-single;
#DESCRIPTION:SKooT;
#DIFFICULTY:Hard;
#METER:13;
#RADARVALUES:0,0,0,0,0;
#NOTES:
0000
0000
0000
0000
0100
0000
0010
1000
,
0001
0000
0001
0100
0010
0000
0000
0000
,
0010
1000
0001
1000
0010
0000
0100
0001
,
1000
0000
1000
0010
0100
0000
0000
0000
,
0001
0010
0100
1000
0001
0000
0100
0010
,
1000
0000
0001
0100
0010
0000
0000
0000
,
0010
1000
0100
0010
0100
0000
1000
0010
,
0100
0000
0001
0010
0200
0000
0000
0300
,
0010
0000
0000
0000
0002
0000
0000
0003
,
0002
0000
0000
0003
0002
0000
0000
0003
,
0002
0000
0000
0000
0003
0000
1000
0001
0100
0000
0010
0000
1000
0001
1000
0000
,
0001
0000
0001
0200
0000
0300
0010
0000
1000
0000
0100
0000
1000
0001
0100
0001
,
0010
0000
0001
0000
1000
0000
0001
0010
0100
0000
1000
0000
0001
0100
0000
0001
,
1000
0000
0001
0200
0000
0300
0001
0010
0001
0000
0001
1000
0100
0000
1000
0001
,
0100
0000
0010
0000
1000
0000
0010
0000
0100
0000
0001
0000
0100
0000
0010
1000
,
0100
0010
0001
0100
0010
1000
0100
0010
,
0001
0000
0100
0000
0001
0000
1000
0000
0001
0000
0100
0001
0100
0001
0100
0001
,
0100
0000
0110
0000
0110
0000
0001
0000
0100
0000
0010
1000
0010
1000
0010
1000
,
0010
0100
0001
0000
0010
0100
0010
0001
,
0010
1000
0010
0001
0100
0010
1000
0001
,
0010
0100
1000
0100
0010
0100
1000
0100
,
0001
0100
1000
0010
0100
0001
1000
0100
,
0010
0001
0100
0000
1000
0000
0010
0100
,
0001
0000
1000
0100
1000
0010
1000
0000
,
0001
0000
0000
0000
0001
0000
0100
0010
,
0100
0001
1000
0000
0101
0000
1000
0001
,
0010
0001
1100
0000
,
0001
0000
0100
0001
0100
0000
0100
0010
0100
0000
0000
0000
1000
0000
0000
0000
,
0100
0000
0010
0000
1002
0000
0000
0003
,
0100
0000
0010
1000
0010
0000
0010
0100
0010
0000
0000
0000
0001
0000
0000
0000
,
0010
0000
0100
0000
2001
0000
0000
3000
,
0010
0100
0001
0000
1002
0000
0010
0003
,
1000
0000
0010
0000
2001
0000
0000
3000
,
0001
0000
0100
0000
0001
0100
0010
1000
,
0001
1000
0001
1000
,
0000
0000
0000
0000
2002
0000
0000
3003
,
0000
0000
0000
0001
2001
0000
3010
0100
,
0001
1000
1100
0000
0011
0000
0100
1000
,
0010
0000
0001
0000
2000
0000
3010
0100
,
0001
1000
0000
0000
0001
0000
1000
0001
,
0010
0001
0100
0010
1000
0010
0100
0001
,
0010
0100
1000
0000
0001
1000
0100
1000
,
0010
0100
0001
0100
0010
1000
0100
0010
,
0001
0100
1002
0100
,
0103
0000
0000
0000
1002
0000
0103
0010
,
1000
0001
0011
0000
1100
0000
0010
0001
,
0100
0000
1000
0000
0002
0000
0103
0010
,
1000
0100
0000
0000
1000
0000
0001
0010
,
0001
0100
0010
1000
0100
0010
0100
1000
,
0010
0000
1000
0000
0001
0000
0010
0001
1000
0000
0010
0000
0100
0000
0010
1000
,
0001
0010
0100
0001
0100
1000
0010
0000
,
1000
0000
0001
0000
1010
0000
0010
1000
,
0100
0000
0000
0000
0011
0000
0010
0001
,
0100
0000
0101
0000
1010
0000
0100
0010
,
0100
0000
0001
0000
0020
0000
0130
1000
,
0001
0100
0000
0000
0000
0000
0002
0000
,
0000
0003
2000
0000
3000
0000
0000
0000
,
0000
0000
0000
0010
0010
0000
0000
1000
,
0000
0000
0010
0000
0100
0001
0100
1000
,
0100
0010
0010
0010
0000
0000
0000
0000
;
