#VERSION:0.83;
#TITLE:My Time (Kikuo Remix);
#SUBTITLE:;
#ARTIST:bo en (Cover - Kikuo);
#TITLETRANSLIT:;
#SUBTITLETRANSLIT:;
#ARTISTTRANSLIT:;
#GENRE:;
#CREDIT:;
#MUSIC:My Time.ogg;
#BANNER:My Time BN.png;
#BACKGROUND:My Time BG.png;
#CDTITLE:;
#SAMPLESTART:1.620;
#SAMPLELENGTH:22.045;
#SELECTABLE:YES;
#OFFSET:-0.029;
#BPMS:0.000=132.000;
#STOPS:;
#SCROLLS:0.000=0.900,
68.000=0.600,
98.000=0.650,
99.000=0.700,
99.500=0.750,
100.000=0.800,
114.000=0.600,
140.000=0.700,
141.000=0.800,
142.000=0.900,
143.000=1.000,
144.000=1.100,
146.000=1.200,
148.000=1.300,
150.000=1.400,
152.000=1.500,
154.000=1.600,
156.000=1.700,
158.000=0.300,
160.000=1.500,
222.000=1.400,
224.500=1.350,
225.000=1.300,
225.500=1.250,
226.000=1.200,
226.667=1.150,
227.167=1.100,
227.667=1.050,
228.000=1.000,
230.000=0.900,
232.000=0.800,
234.000=0.700,
236.000=0.600,
238.000=0.650,
240.000=0.700,
254.500=0.750,
255.000=0.700,
255.500=0.650,
256.000=0.600,
268.875=0.500,
271.625=0.400,
275.000=0.300,
276.000=0.200,
277.000=0.100
;
#BGCHANGES:;
#FGCHANGES:;

//--------------- dance-single - SKooT ----------------
#NOTEDATA:;
#STEPSTYPE:dance-single;
#DESCRIPTION:SKooT;
#DIFFICULTY:Easy;
#METER:5;
#RADARVALUES:0,0,0,0,0;
#NOTES:
0000
0000
0000
0000
,
1000
0000
0010
0000
,
1000
0000
0001
0000
,
0010
0000
0001
0000
,
0010
0000
0100
0000
,
1000
0000
0100
0000
,
1000
0000
0001
0000
,
0100
0000
0001
0000
,
0010
0000
0100
0000
,
1000
0000
0010
0000
,
0100
0000
0001
0000
,
0010
0000
0001
0000
,
0100
0000
0010
0000
,
1000
0000
0001
0000
,
1000
0000
0001
0000
,
1000
0000
0100
0000
,
0010
0000
0002
0003
,
1MM1
0000
2000
0000
,
3020
0000
0230
0000
,
0302
0000
0203
0000
,
0320
0000
2030
0000
,
3200
0000
0000
0000
0000
0000
0000
0300
0020
0000
0000
0000
0000
0000
0000
0000
,
0032
0000
0023
0000
,
0230
0000
2300
0000
,
3020
0000
0230
0000
,
0301
0000
1000
0000
,
0100
0000
0010
0100
,
1000
0000
0010
0100
,
0002
0003
1MM1
0000
,
1000
0000
0100
0000
,
0010
0010
0110
0000
,
1000
0000
0100
0010
,
0002
0000
1000
0000
,
2003
0000
0001
0000
,
0001
0000
0000
0000
,
3002
0000
0000
0003
,
1001
0000
1001
0000
,
0110
0000
0110
0000
,
1001
0000
0110
0000
,
2002
0000
0000
3003
0000
0000
0000
0000
,
10M0
0001
0010
0001
,
0100
0010
0100
0001
,
1000
0010
1000
0100
,
0010
0100
1000
0010
,
0100
0010
0100
0001
,
0010
0001
0100
0010
,
1000
0100
1000
0010
,
0100
0001
0010
0100
,
1000
1000
0010
1000
,
0001
0001
0010
0001
,
0100
0100
0010
0100
,
0001
0001
0010
0001
,
1000
1000
0010
1000
,
0100
0100
0010
0100
,
1000
1000
0001
1000
,
0001
0001
2000
0000
,
3002
0000
1000
0000
,
0013
0100
1000
0100
,
0010
0000
0001
0100
,
0020
0000
0000
0000
0000
0000
0000
0030
,
1000
0000
0001
0000
,
0001
0010
0100
0010
,
0001
0000
0100
0010
,
2000
0000
0000
0000
,
3001
0000
0000
0000
0000
0000
0000
0000
0000
0000
0000
0000
0000
0000
0000
0000
0000
0000
0000
0100
0000
0000
0000
0000
0000
0000
0000
0000
0000
0000
0000
0000
,
0000
0000
0000
0000
0000
0000
0001
0000
0000
0000
0000
0000
0000
0000
0000
0000
0001
0000
0000
0000
0000
0000
0000
0000
0000
1000
0000
0000
0000
0000
0000
0000
,
0000
0000
0000
0100
0000
0000
0000
0000
,
0000
0000
0000
0000
0000
0000
0000
1000
0000
0000
0000
0000
0000
0000
0000
0000
0000
0000
0000
0000
0000
0000
0000
0000
0000
0000
0000
0000
0000
0000
0000
0000
,
0000
0000
0000
0002
,
0000
0000
0000
0003
;

//--------------- dance-single - SKooT ----------------
#NOTEDATA:;
#STEPSTYPE:dance-single;
#DESCRIPTION:SKooT;
#DIFFICULTY:Medium;
#METER:9;
#RADARVALUES:0,0,0,0,0;
#NOTES:
0000
0000
0000
0000
,
1000
0000
0010
0000
,
0100
0000
0001
0000
,
0010
0000
0001
0000
,
0010
0000
0100
0000
,
1000
0000
0001
0000
,
0010
0000
0000
0000
0000
0000
0001
0000
0010
0000
0100
0000
,
1000
0000
0100
0000
,
0001
0000
0100
0000
,
1000
0000
0010
0000
,
1000
0000
0000
0000
0000
0000
0001
0000
0010
0000
0100
0000
,
1000
0000
0100
0000
,
0010
0000
0100
0000
,
1000
0000
0000
0000
0001
0000
0100
0000
0000
0000
0010
0000
,
1000
0000
0100
0000
0010
0000
0001
0000
1000
0000
0001
0000
,
0100
0000
1000
0000
,
0100
0000
0002
0003
,
1MM1
0000
2000
0000
,
3020
0000
0230
0000
,
0302
0000
0203
0000
,
0320
0000
2030
0000
,
3200
0000
0000
0000
0000
0000
0000
0300
0020
0000
0000
0000
0000
0000
0000
0000
,
0230
0000
0320
0000
,
0032
0000
2003
0000
,
3002
0000
0203
0310
,
1000
0000
0010
0000
1000
0000
0100
0000
0020
0000
0000
0000
,
0031
1000
0010
0100
,
0001
0000
0010
0000
0100
0000
1000
0000
0000
0001
0000
0000
,
2000
0000
0000
3000
1MM1
0000
0000
0000
,
0001
0000
0100
0000
0010
0000
0100
0000
0001
0000
0000
0000
,
1000
1000
1100
0001
,
1000
0000
0100
0000
0010
0000
0100
0000
0000
1000
0000
0000
,
0002
0000
0100
0000
,
2003
0000
0010
0000
,
0001
0000
0000
0000
,
3002
0000
0000
0003
,
0011
0000
0110
0000
,
1100
0000
0101
0000
,
1001
0000
0110
0000
,
2002
0000
0000
3003
0000
0000
0000
0000
,
100M
0010
1000
1000
0010
0100
0001
0001
,
0010
0001
1000
1000
0001
0100
0001
0001
,
0010
0001
1000
1000
0001
0010
0001
0001
,
1000
0001
0100
0100
0010
1000
0001
0001
,
0100
0010
0010
0010
1000
0001
1000
1000
,
0100
1000
0001
0001
1000
0100
1000
1000
,
0010
0100
0001
0001
0010
0001
0100
0100
,
0001
1000
0010
0010
0100
0000
0001
0000
,
1000
0001
1000
0000
0001
0000
1000
0000
1000
0000
0000
0000
0010
0000
0000
0000
,
1000
0001
1000
0000
0001
0000
1000
0000
1000
0000
0000
0000
0001
0000
0000
0000
,
0010
0100
0010
0000
0100
0000
0010
0000
0010
0000
0000
0000
0001
0000
0000
0000
,
1000
0010
1000
0000
0010
0000
1000
0000
1000
0000
0000
0000
0001
0000
0000
0000
,
0100
0010
0100
0000
0010
0000
0100
0000
0100
0000
0000
0000
0001
0000
0000
0000
,
0001
1000
0001
0000
1000
0000
0001
0000
0001
0000
0000
0000
0100
0000
0000
0000
,
0001
1000
0001
0000
1000
0000
0001
0000
0001
0000
0000
0000
0010
0000
0000
0000
,
0001
1000
0001
0000
1000
0000
0100
0000
0020
0000
0000
0000
0000
0000
0000
0000
,
0031
0000
0010
0000
0100
0000
1000
0000
0020
0000
0000
0000
,
1030
0100
1000
0001
,
0001
0000
0100
0000
0010
0000
1000
0000
0000
0100
0000
0000
,
2000
0000
0000
0000
0000
0000
0000
3000
,
0001
0000
0010
0000
0100
0000
0010
0000
0002
0000
0000
0000
,
1003
0010
0001
0010
,
1000
0000
0100
0000
0010
0000
0100
0000
0000
1000
0000
0000
,
0002
0000
0000
0000
,
1003
0000
0000
0000
0000
0000
0000
0000
0000
0000
0000
0000
0000
0000
0000
0000
0000
0000
0000
0001
0000
0000
0000
0000
0000
1000
0000
0000
0000
0000
0000
0000
,
0000
0000
0000
0000
0000
0000
0100
0000
0000
0000
0000
0000
0000
0000
0000
0000
0001
0000
0000
0000
0000
0000
0000
0000
0000
0100
0000
0000
0000
0000
0000
0000
,
0000
0000
0000
1000
0000
0000
0000
0000
0000
0000
0000
0000
0010
0000
0000
0000
0000
0000
0000
0000
0000
0000
0000
0000
0000
0000
0000
0000
0000
0000
0000
0000
,
0000
0000
0000
0000
0000
0000
0000
0100
0000
0000
0000
0000
0000
0000
0000
0000
0000
0000
0000
0000
0000
0000
0000
0000
0000
0000
0000
0000
0000
0000
0000
0000
,
0000
0000
0000
0002
,
0000
0000
0000
0003
;

//--------------- dance-single - SKooT ----------------
#NOTEDATA:;
#STEPSTYPE:dance-single;
#DESCRIPTION:SKooT;
#DIFFICULTY:Hard;
#METER:13;
#RADARVALUES:0,0,0,0,0;
#NOTES:
0000
0000
0000
0000
,
1000
0000
0000
0000
0000
1000
0000
0000
0010
0000
0000
0000
0000
0010
0000
0000
,
0100
0000
0000
0000
0000
0100
0000
0000
0001
0000
0000
0000
0000
0001
0000
0000
,
0010
0000
0000
0000
0000
0001
0000
0000
0100
0000
0000
0000
0000
0010
0000
0000
,
1000
0000
0000
0000
0000
0100
0000
0000
0010
0000
0000
0000
0000
0001
0000
0000
,
0100
0000
0000
0000
0000
0100
0000
0000
0000
0000
0010
0000
0000
0000
0000
0000
1000
0000
0000
0000
0000
1000
0000
0000
0000
0000
0100
0000
0000
0000
0000
0000
,
0010
0000
0000
0000
0000
0000
0000
0000
0000
0000
0000
0000
0000
0000
0000
0010
0000
0000
0000
0000
0000
0000
0000
0000
0000
0000
0000
0000
0000
0000
0001
0000
0000
0000
0000
0000
0000
0000
0000
0000
0000
0000
0000
0000
0000
0000
0000
0000
1000
0000
0000
0000
0000
0000
0000
0000
0000
0000
0000
0000
0000
0000
0000
0000
0001
0000
0000
0000
0000
0000
0000
0000
0010
0000
0000
0000
0000
0000
0000
0000
0100
0000
0000
0000
0000
0000
0000
0000
1000
0000
0000
0000
0000
0000
0000
0000
,
0001
0000
0000
0000
0000
0100
0000
0000
0000
0000
1000
0000
0000
0000
0000
0000
0010
0000
0000
0000
0000
0001
0000
0000
0000
0000
0100
0000
0000
0000
0000
0000
,
1000
0000
0000
0000
0000
0010
0000
0000
0000
0000
0001
0000
0000
0000
0000
0000
2000
0000
0000
0000
0000
0100
0000
0000
0000
0000
3001
0000
0000
0000
0000
0000
,
1000
0000
0000
0000
0000
0100
0000
0000
0000
0000
0100
0000
0000
0000
0000
0000
0010
0000
0000
0000
0000
0100
0000
0000
0000
0000
0100
0000
0000
0000
0000
0000
,
1000
0000
0000
0000
0000
0000
0000
0000
0000
0000
0000
0000
0000
0000
0000
0010
0000
0000
0000
0000
0000
0000
0000
0000
0000
0000
0000
0000
0000
0000
0010
0000
0000
0000
0000
0000
0000
0000
0000
0000
0000
0000
0000
0000
0000
0000
0000
0000
0100
0000
0000
0000
0000
0000
0000
0000
0000
0000
0000
0000
0000
0000
0000
0000
0001
0000
0000
0000
0000
0000
0000
0000
0010
0000
0000
0000
0000
0000
0000
0000
0100
0000
0000
0000
0000
0000
0000
0000
1000
0000
0000
0000
0000
0000
0000
0000
,
0001
0000
0000
0000
0000
0100
0000
0000
0000
0000
0010
0000
0000
0000
0000
0000
1000
0000
0000
0000
0000
0010
0000
0000
0000
0000
0100
0000
0000
0000
0000
0000
,
0001
0000
0000
0000
0000
0010
0000
0000
0000
0000
0100
0000
0000
0000
0000
0000
0010
0000
0000
0000
0000
0001
0000
0000
0000
0000
1000
0000
0000
0000
0000
0000
,
0001
0000
0000
0000
0000
0000
0000
0000
0000
0100
0000
0000
0000
0000
0000
0010
0000
0000
0000
0000
0000
0000
0000
0000
0000
0000
0000
0000
0000
0000
0000
0000
1000
0000
0000
0000
0000
0000
0000
0000
0000
0000
0000
0000
0000
0000
0000
0000
0100
0000
0000
0000
0000
0000
0000
0000
0000
0010
0000
0000
0000
0000
0000
0001
0000
0000
0000
0000
0000
0000
0000
0000
0000
0000
0000
0000
0000
0000
0000
0000
0100
0000
0000
0000
0000
0000
0000
0000
0000
0000
0010
0000
0000
0000
0000
0000
,
1000
0000
0000
0000
0000
0000
0000
0000
0000
1000
0000
0000
0000
0000
0000
0100
0000
0000
0000
0000
0000
0000
0000
0000
0100
0000
0000
0000
0000
0000
0010
0000
0000
0000
0000
0000
0000
0000
0000
0000
0000
0000
0000
0000
0000
0000
0000
0000
0001
0000
0000
0000
0000
0000
0000
0000
0000
0000
0000
0000
0000
0000
0000
0000
1000
0000
0000
0000
0000
0000
0000
0000
0001
0000
0000
0000
0000
0000
0000
0000
0100
0000
0000
0000
0000
0000
0000
0000
0001
0000
0000
0000
0000
0000
0000
0000
,
1000
0000
0000
0000
0000
1000
0000
0000
0100
0000
0000
0000
0000
1000
0000
0000
,
0001
0000
0000
0000
0000
1000
0000
0000
0020
0000
0000
0000
0000
0000
0030
0000
,
M11M
0000
0000
0000
0000
0000
0000
0000
2000
0000
0000
0000
0000
0000
0000
3001
,
0020
0000
0000
0000
0000
0000
0030
0000
0200
0000
0000
0000
0000
2300
0000
0000
,
3002
0000
0000
0000
0000
0000
0003
0000
0200
0000
0000
0000
0000
0300
0000
0010
,
2000
0000
0000
0000
0000
0000
0000
3000
0002
0000
0000
0000
0000
0023
0000
0000
,
0230
0000
0000
0000
0000
0020
0000
0000
0300
0000
0000
0000
0000
0000
0130
0000
2000
0000
0000
0000
0000
0000
0000
0000
3000
0000
0000
0000
0000
0000
0000
0000
,
0020
0000
0000
0000
0000
0000
0000
0000
0000
0000
0100
0000
0000
0000
0130
0000
0002
0000
0000
0000
0000
0000
0000
0003
0000
0000
2000
0000
0000
0000
0000
0000
,
3200
0000
0000
0000
0000
0000
0000
0000
0000
0000
0000
0000
0000
0000
0000
0000
0000
0000
0000
0000
0000
0000
0000
0000
0000
0000
0000
0000
0000
0000
0010
0000
0000
0000
0000
0000
0000
0000
0000
0000
0000
0000
0000
0000
0000
0000
0000
0000
0000
0000
0000
0000
0000
0000
0000
0000
0000
0000
0000
0000
0000
0000
0000
0000
0000
0000
0000
0000
0000
0000
0000
0000
0000
0000
0000
0000
0000
0000
0000
0300
0000
0000
0000
0000
0010
0000
0000
0000
0000
0000
0000
0000
0000
0000
0000
0000
0002
0000
0000
0000
0000
0000
0000
0000
0000
0000
0000
0000
0000
0000
0000
0000
0000
0000
0000
0000
0000
0000
0000
0000
0000
0000
0000
0000
0000
0000
1000
0000
0000
0000
0000
0000
0000
0000
0000
0000
0000
0000
0000
0000
0000
0000
0000
0000
0000
0000
0000
0000
0000
0000
0000
0000
0000
0000
0000
0000
0000
0000
0000
0000
0000
0000
0000
0000
0000
0000
0000
0000
0003
0000
0000
0000
0000
0000
0000
0000
0000
0000
0000
0000
1000
0000
0000
0000
0000
0000
0000
0000
0000
0000
0000
0000
,
0020
0000
0000
0000
0000
0000
0000
0000
0000
0000
0000
0000
0000
0000
0000
0030
0000
0000
0000
0000
0000
0000
0000
0000
1000
0000
0000
0000
0001
0000
0000
0000
0010
0000
0000
0000
0002
0000
0000
0000
0000
0000
0000
0000
0000
0000
0000
0000
,
1003
0000
0010
0000
1000
0000
0100
0000
0020
0000
0000
0000
,
0031
0000
0001
1000
0000
1000
0010
0000
0000
0100
0000
0000
,
0001
0000
0010
0000
0100
0000
1000
0000
0000
0001
0000
0000
,
2000
0000
0000
3000
1MM1
0000
0000
0000
,
0001
0000
0000
0000
0100
0000
0000
0000
1000
0000
0000
0000
0100
0000
0000
0000
0001
0000
0000
0000
0000
0000
0000
0100
,
0010
0000
0000
0000
0000
0000
0100
0010
0000
0000
0000
0000
1010
0000
0000
0000
0000
0000
0001
0000
0000
0000
0000
0000
,
0011
0000
0010
0000
0100
0000
1000
0000
0000
0001
0000
0000
,
2001
0000
0100
0000
,
0002
3000
1000
0000
,
0100
0000
1000
0000
,
0020
0000
0000
0033
,
0011
0000
0110
0000
,
1100
0000
1001
0000
,
0001
1000
0001
1000
0001
1000
0010
0100
0010
0100
0010
0100
,
0002
0000
0000
0000
0000
0003
MMMM
0000
0000
0000
0000
0000
,
1000
0000
0010
0000
1000
0001
1000
0000
0010
0000
0100
0000
0001
1000
0001
0000
,
0010
0000
0001
0000
1000
0100
1000
0000
0010
0000
0100
0000
0001
0010
0001
0000
,
0100
0000
0010
0000
1000
0010
1000
0000
0100
0000
1000
0000
0010
0100
0010
0000
,
1000
0000
0001
0000
0100
0001
0100
0000
0010
0000
0100
0000
0001
0010
0001
0000
,
0100
0000
0001
1000
0001
1000
0001
0000
0100
0000
0010
0000
1000
0001
1000
0000
,
0100
0000
1000
0000
0001
0010
0001
0000
0100
0000
0010
0000
1000
0100
1000
0000
,
0010
0000
0100
0000
0001
0100
0001
0000
0010
0000
0001
0000
0100
0010
0100
0000
,
0001
0000
1000
0000
0010
1000
0010
0000
0100
0000
0000
0000
0001
0000
0000
0000
,
1000
0010
1000
0000
0001
0000
0100
0010
0100
0000
0000
0000
0001
0000
0000
0000
,
0010
0001
0010
0000
0001
0000
1000
0100
1000
0000
0000
0000
0001
0000
0000
0000
,
0100
0010
0100
0000
0010
0000
1000
0100
1000
0000
0000
0000
0001
0000
0000
0000
,
1000
0001
1000
0000
0010
0000
0100
0010
0100
0000
0000
0000
0001
0000
0000
0000
,
1000
0100
1000
0000
0010
0000
0100
0001
0100
0000
0000
0000
0001
0000
0000
0000
,
1000
0001
1000
0000
0010
0000
1000
0100
1000
0000
0000
0000
0001
0000
0000
0000
,
0010
0100
0010
0000
0100
0000
1000
0100
1000
0000
0000
0000
0001
0000
0000
0000
,
0100
0010
0100
0000
0010
0000
1000
0001
2000
0000
0000
0000
0000
0000
0000
0000
,
3001
0000
0010
0000
0100
0000
1000
0000
0020
0000
0000
0000
,
1030
0000
0100
1000
0000
1000
0001
0000
0000
0010
0000
0000
,
0001
0000
0100
0000
0010
0000
1000
0000
0000
0100
0000
0000
,
2000
0000
0000
0000
0000
0000
0000
3000
,
0001
0000
0010
0000
0100
0000
0010
0000
0002
0000
0000
0000
,
1003
0100
0001
0010
,
1000
0000
0100
0000
0010
0000
0100
0000
0000
1000
0000
0000
,
0002
0000
0000
0000
,
1003
0000
0000
0000
0000
0000
0100
0000
0000
0000
0000
0000
0100
0000
0000
0000
0000
0000
0000
1000
0000
0000
0000
0000
0000
0001
0000
0000
0000
0000
0000
0000
,
0000
0000
0000
0000
0000
0000
0100
0000
0000
0000
0000
0000
0001
0000
0000
0000
1000
0000
0000
0000
0000
0000
0000
0000
0000
0100
0000
0000
0000
0000
0000
1000
,
0000
0000
0000
0001
0000
0000
0000
0000
0000
0000
0000
0000
0100
0000
0000
0000
0000
0000
0000
0010
0000
0000
0000
0000
0000
0000
1000
0000
0000
0000
0000
0000
,
0000
0000
0000
0000
0000
0000
0000
0100
0000
0000
0000
0000
0000
0000
0000
0000
0000
0000
0000
0000
0000
0000
0000
0000
0000
0000
0000
0000
0000
0010
0000
0000
,
0000
0000
0000
0002
,
0000
0000
0000
0003
;
