#TITLE:Nisemono Ningen 40-gou;
#SUBTITLE:(Fake Human No. 40);
#ARTIST:Wada Shimon (Cover - Meychan, Hanamura Souta);
#TITLETRANSLIT:;
#SUBTITLETRANSLIT:;
#ARTISTTRANSLIT:;
#GENRE:;
#CREDIT:;
#MUSIC:Nisemono Ningen 40-gou.ogg;
#BANNER:Nisemono Banner.png;
#BACKGROUND:Nisemono BG.png;
#CDTITLE:;
#SAMPLESTART:1.595;
#SAMPLELENGTH:12.596;
#SELECTABLE:YES;
#OFFSET:-0.523;
#BPMS:0.000=111.938;
#STOPS:;
#BGCHANGES:;
#FGCHANGES:;

//--------------- dance-single - SKooT ----------------
#NOTES:
     dance-single:
     SKooT:
     Beginner:
     4:
     0,0,0,0,0:
0000
0000
1000
1000
,
0010
0000
1000
0000
,
0001
0000
0010
0010
,
0001
0000
1000
0001
,
1000
0010
0100
0000
,
0001
0000
0010
0000
,
0001
0000
0100
0000
,
0010
0000
1000
0000
,
2000
3000
0001
0100
,
0001
0001
1000
0001
,
0001
2000
3010
0010
,
1000
1000
0001
1000
,
1000
0000
0100
0010
,
0100
0000
1000
0001
,
1000
0000
0010
0100
,
0010
0000
1000
0000
,
0002
0000
0013
0100
,
0010
0000
1000
0001
,
1000
0000
0100
0010
,
0100
0000
1000
1000
,
2000
3000
0100
0000
,
0010
0000
0001
0000
,
0010
0000
0100
0000
,
1000
0000
0001
0000
,
0010
0000
0001
0000
,
0001
0001
1000
0000
,
1000
1000
0010
0000
,
0010
0010
0100
0000
,
0100
0001
1000
2000
,
3000
0000
0001
0001
,
1000
0100
0100
0010
,
0001
0100
0100
0010
,
0010
1000
0001
0100
,
0010
1000
1000
1000
,
0001
0010
0010
0100
,
1000
0010
0010
0100
,
0100
0001
1001
1001
,
1001
0000
0001
0001
,
0001
0001
1000
1000
,
0000
0000
0000
0000
,
0000
0000
0010
0000
,
1000
0000
0100
0000
,
1000
0000
0010
0000
,
0100
0000
0001
0000
,
2000
3000
0000
0000
;

//--------------- dance-single - SKooT ----------------
#NOTES:
     dance-single:
     SKooT:
     Easy:
     6:
     0,0,0,0,0:
0000
0000
1001
1001
,
0010
0100
0001
0100
,
0100
0001
0110
0110
,
0010
0100
1000
0001
,
0100
0100
0010
0000
0110
0000
0001
0000
,
1000
1000
0110
0100
,
0001
0001
0110
1000
,
0010
0010
0110
0100
,
0002
2003
3001
0100
,
0001
0100
0001
0000
0001
1000
0001
0000
,
0001
2000
3010
1000
,
1000
0010
1000
0000
1000
0001
1000
0000
,
1001
0001
0100
0010
,
0100
1010
0100
0010
,
0100
0101
0001
1000
,
0001
1001
0010
0100
,
2000
3002
1003
0001
,
0100
0001
1000
0001
,
0100
0001
0010
0100
,
1000
0001
1000
1000
,
2000
0000
3000
0001
0100
0000
0010
0000
,
0010
0000
1000
0010
0100
0000
0100
0000
,
0001
0000
0100
0001
0010
0000
0010
0000
,
0001
1000
0010
0010
,
0010
0010
1000
1000
,
0010
0100
0001
0001
,
1000
0100
0010
0010
,
0100
1000
0001
0001
,
1000
0001
0000
0000
,
0000
0000
0000
0000
1000
0001
1000
0001
,
1000
0010
0100
0001
,
0010
0000
0100
0000
0010
0001
0010
0001
,
1000
2000
3010
0100
,
0020
0000
1030
0000
0001
1000
0001
1000
,
0001
0100
0010
1000
,
0100
0000
0010
0000
0100
1000
0100
1000
,
0001
0001
0110
0110
,
0110
0000
2000
0000
3001
1000
0001
1000
,
0001
1000
0001
1000
0001
1000
0001
1000
,
0000
0000
0000
0000
,
0000
0000
0110
1000
,
0001
0001
0110
0010
,
1000
1000
0110
0001
,
0100
0100
0110
0010
,
2000
3010
0000
0000
;

//--------------- dance-single - SKooT ----------------
#NOTES:
     dance-single:
     SKooT:
     Medium:
     8:
     0,0,0,0,0:
0000
0000
0000
0000
0001
1000
0001
1000
,
0010
0000
0100
0000
0001
0010
0100
0000
,
0100
0010
0001
0000
1000
0001
1000
0001
,
0010
0000
0100
1000
0001
0000
0001
0000
,
0010
0010
0100
0000
0011
0000
0001
1000
,
0100
0000
1000
0001
0101
0000
0100
0010
,
0100
0000
0001
1000
1100
0000
1000
0001
,
0100
0000
0010
1000
1010
0000
0100
0100
,
0002
0000
2003
3000
0101
0000
0001
0000
,
0001
0100
0001
0000
0001
1000
0010
0100
,
0001
0000
2000
3000
1010
0000
1000
0000
,
1000
0001
1000
0000
1000
0010
0100
0000
,
1001
0000
1000
0010
0100
0000
0110
0000
,
1000
0011
0010
0110
,
1000
0101
0001
1001
,
0100
0000
0110
0000
1000
0100
1000
0000
,
2001
3002
0103
0110
,
1000
0101
0010
0110
,
1000
0011
1000
1001
,
0100
0110
1000
1000
,
2000
0000
3000
0001
0100
0010
1000
0000
,
1000
0100
1000
0010
0100
0000
0100
0001
,
0010
0001
1000
0010
1000
0000
0001
0010
,
0100
0000
0100
0010
0001
1000
0000
1000
,
0000
0001
0000
1000
1001
0000
0100
0000
,
0011
1000
1100
0010
,
0101
0001
1010
1000
,
0110
0000
0000
0001
0000
0000
0100
0000
0001
1000
0000
0001
,
0100
0000
0010
0000
0100
0000
0001
0002
,
0003
0000
0000
0000
1000
1000
0001
0001
,
1000
0010
0100
0001
0010
0001
1000
0001
,
0010
0001
0100
0010
0100
0100
0010
0010
,
1000
0100
1000
0010
0100
0001
1000
0100
,
0010
0010
0001
0000
0001
0001
1000
1000
,
0001
0100
0010
1000
0100
1000
0001
1000
,
0100
1000
0010
0100
0010
0010
0100
0100
,
0001
0010
0001
0000
0110
0000
0110
0000
,
0110
0000
2000
0000
3001
1000
0001
1000
,
0001
1000
0001
1000
0010
1000
0100
1000
,
0000
0000
0000
0000
,
0000
0000
0000
0000
1100
0000
1000
0001
,
0010
0000
0001
1000
1010
0000
0010
0100
,
0010
0000
1000
0001
0101
0000
0001
1000
,
0010
0000
0100
0001
0011
0000
0010
0010
,
0200
1300
0000
0000
;

//--------------- dance-single - SKooT ----------------
#NOTES:
     dance-single:
     SKooT:
     Hard:
     12:
     0,0,0,0,0:
0000
0000
0000
0000
0001
1000
0001
1000
,
0010
0000
0000
0100
0000
0010
0100
0000
0000
0001
0000
0000
0100
0000
0000
0010
0000
0000
1000
0000
0001
0000
0000
0010
,
0100
0010
0001
0001
1000
0001
1000
0001
,
0001
0000
0000
0010
0000
0000
0100
0000
0000
0010
0000
0000
0001
0000
1000
0000
1000
0000
0001
0000
1000
0000
1000
0000
,
0010
0000
0000
0010
0000
0010
0100
0000
0000
0000
0000
0000
1010
0000
0000
0000
0000
1000
0001
0000
0000
0010
0000
0001
,
0000
0000
0100
0000
0000
0010
1000
0000
0000
0001
0000
0000
0101
0000
0000
0000
0000
1000
0010
0000
0000
0100
0000
0001
,
0000
0000
0010
0000
0000
0001
1000
0000
0000
0010
0000
0000
1100
0000
0000
0000
0000
0001
1000
0000
0000
0100
0000
1000
,
0000
0000
0010
0000
0000
0100
0001
0000
0000
1000
0000
0000
1010
0000
0000
0000
0000
0001
1000
0000
0000
1000
0000
0000
,
0002
0000
0203
0300
0010
1000
0001
1000
,
0010
0000
0000
1000
0000
0001
0000
0000
0001
0000
0000
0100
0010
0000
0000
1000
0000
0000
0100
0000
1000
0000
0000
0000
,
0011
0000
0000
0000
0000
0000
1000
0000
0001
0100
0000
0001
1000
0000
0000
0010
0000
0000
1000
0000
0000
0100
0000
0000
,
1000
0000
0000
0001
0000
1000
0000
0000
1000
0000
0000
0010
0100
0000
0000
0001
0000
0000
0010
0000
0100
0000
0000
0000
,
1100
0000
0100
0010
0110
0010
0011
0001
,
1000
0000
0010
0000
0000
0000
1010
0000
0000
0100
0000
0000
0010
0000
0000
1000
0000
0000
0101
0000
0000
0010
0000
0000
,
0100
0000
1000
0000
0000
0000
1010
0000
0000
1000
0000
0000
0101
0000
0000
1000
0000
0000
0101
0000
0000
0001
0000
0000
,
1000
0000
0100
0000
0000
0000
0110
0000
0000
0010
0000
0000
0001
0000
0000
0100
0000
0000
0010
0000
1000
0000
0000
0000
,
2001
0000
3002
0003
0110
0100
1100
1000
,
0001
0000
0100
0000
0000
0000
0101
0000
0000
0001
0000
0000
0100
0000
0000
0010
0000
0000
1010
0000
0000
1000
0000
0000
,
0100
0000
0010
0000
0000
0000
0011
0000
0000
0001
0000
0000
1100
0000
0000
0001
0000
0000
1100
0000
0000
0010
0000
0000
,
0001
0000
0010
0000
0000
0000
0110
0000
0000
0100
0000
0000
1000
0000
0000
0000
0000
0000
1000
0000
0000
0000
0000
0000
,
2000
0000
3000
0001
0100
0010
1000
0001
,
1000
0100
1000
0010
0100
0001
1000
0001
,
0010
0001
0100
0010
1000
0001
1000
0001
,
0100
0010
0100
0001
0100
1000
0100
0001
,
0100
1000
0100
0001
1001
0000
0011
0000
,
1010
0000
0000
0000
0000
1000
0001
0000
0000
1000
0000
0000
0011
0000
0000
0001
0000
0000
1010
0000
0000
0000
0000
0000
,
0001
0000
0000
0000
0000
1000
0001
0000
0000
0100
0000
0000
0010
0000
0000
0000
0000
0000
1100
0000
0000
0000
0000
0000
,
0010
0000
0000
0000
0000
1000
0001
0000
0000
0100
0000
0000
0100
0000
0001
0000
0001
0000
1000
0000
0001
0000
0001
0000
,
0100
0000
0000
0000
0000
0000
0010
0000
0000
0000
0000
0000
0100
0000
0010
0000
0000
0100
0001
0000
1000
0001
0000
1000
,
0000
0000
0000
0000
0010
1000
0001
0100
,
0001
0010
0001
1000
0010
0100
0010
0001
,
0010
1000
0100
0010
0110
0100
1100
1000
,
0101
0001
1000
0010
0101
0001
1100
1000
,
0110
0101
1001
0000
0100
0001
1000
0010
,
1000
0100
1000
0001
0100
0010
0100
1000
,
0100
0001
0010
0100
1001
1000
1001
0001
,
0100
0010
0001
0010
0110
0000
0110
0000
,
0110
0000
2000
0000
3001
0010
0001
0100
,
0010
1000
0100
1000
0010
0100
0001
0010
,
0000
0000
0000
0000
,
0000
0000
0000
0000
0000
0000
0000
0000
0000
0000
0000
0000
1100
0000
0000
0000
0000
0001
1000
0000
0000
0100
0000
1000
,
0000
0000
0010
0000
0000
0100
0001
0000
0000
1000
0000
0000
1010
0000
0000
0000
0000
0010
0100
0000
0000
0001
0000
1000
,
0000
0000
0100
0000
0000
1000
0001
0000
0000
0100
0000
0000
0101
0000
0000
0000
0000
1000
0001
0000
0000
0010
0000
0001
,
0000
0000
0100
0000
0000
0010
1000
0000
0000
0001
0000
0000
0011
0000
0000
0000
0000
1000
0001
0000
0000
0001
0000
0000
,
2000
3100
0000
0000
;
