#TITLE:Nani Yattemo Umaku Ikanai;
#SUBTITLE:;
#ARTIST:meiyo;
#TITLETRANSLIT:;
#SUBTITLETRANSLIT:;
#ARTISTTRANSLIT:;
#GENRE:;
#CREDIT:SKooT;
#MUSIC:Nani Yattemo Umaku Ikanai.ogg;
#BANNER:Nani Yattemo Umaku Ikenai Banner.png;
#BACKGROUND:Nani Yattemo Umaku Ikanai BG.png;
#CDTITLE:;
#SAMPLESTART:3.501;
#SAMPLELENGTH:14.880;
#SELECTABLE:YES;
#OFFSET:1.779;
#BPMS:0.000=125.000
,114.000=62.500
,115.000=125.000
;
#STOPS:;
#DISPLAYBPM:125.000:0.000;
#BGCHANGES:3.000=Nani Yattemo Umaku Ikanai.avi=1.000=1=0=0=StretchNoLoop==CrossFade==;
#FGCHANGES:;

//--------------- dance-single - SKooT ----------------
#NOTES:
     dance-single:
     SKooT:
     Beginner:
     2:
     0,0,0,0,0:
0000
0000
0000
0000
,
0000
0000
0000
0000
,
0000
0000
0000
0000
,
0001
0000
0001
0000
,
1000
0000
0010
0000
,
1000
0000
1000
0000
,
0010
0000
0010
0000
,
0100
0000
0100
0000
,
0001
0000
1000
0000
,
0001
0000
0001
0000
,
1000
0000
1000
0000
,
0010
0000
1000
0000
,
0001
0000
0010
0000
,
0002
0003
2000
3000
,
0001
0000
0100
0100
,
0100
0000
0010
0000
,
0100
0100
0100
0000
,
0010
0000
1000
0000
,
0100
0100
0100
0000
,
0001
0000
1000
0000
,
0010
0000
0100
0000
,
0001
0000
1000
0000
,
0010
0000
0100
0000
,
0001
0000
0100
0000
,
0001
0000
1000
1000
,
0000
0000
0000
0000
,
0000
0000
0000
0000
,
1000
0000
0001
0000
,
1000
0000
1000
0001
,
0000
0001
0000
0100
,
0000
0010
0000
1000
,
0100
0100
0100
0010
,
0000
0001
0000
1000
,
0000
1000
0000
0001
,
0000
0001
0000
0010
,
0000
0100
0000
0001
,
0000
0100
0000
0010
,
0000
1000
0000
0001
,
0000
1000
0000
1000
,
0000
0010
0000
1000
,
0000
0001
0000
1000
,
1000
1000
0001
0001
,
0001
0001
0000
0100
,
0000
0001
0000
1000
,
0000
0010
0000
0100
,
0000
0010
0000
0100
,
0000
0100
0000
0001
,
0000
1000
0000
0010
,
0000
1000
0000
0001
,
0000
0010
0000
0001
,
0000
1000
0000
0010
,
0000
1000
0000
0010
,
0000
1000
0000
0001
,
0000
0100
0000
0001
,
0000
0010
0000
0100
,
0000
0010
0000
0001
,
0000
1000
0000
0010
,
0000
1000
0000
0001
,
0000
1001
0000
0000
;

//--------------- dance-single - SKooT ----------------
#NOTES:
     dance-single:
     SKooT:
     Easy:
     5:
     0,0,0,0,0:
0000
0000
0000
0000
,
0000
0000
0000
0000
,
0000
0000
0000
2000
,
3001
1000
0010
1000
,
0001
0010
0001
1000
,
0010
0100
0002
0003
,
1000
0000
0001
2000
,
3001
1000
0010
1000
,
0001
0010
0001
1000
,
0010
0100
0002
1003
,
1000
0001
0001
0000
,
0100
0010
1000
1000
,
0100
0010
0001
0001
,
2000
3100
2000
3001
,
1000
0010
1000
0001
,
1000
0100
0010
0001
,
1000
0001
1000
0010
,
0100
0010
1000
0000
,
0001
0001
1000
1000
,
0010
0100
0010
1000
,
0010
0100
0001
0100
,
0010
1000
0001
0100
,
0010
1000
0010
0100
,
0001
0000
0010
0000
,
0001
1000
1000
0001
,
0000
0000
0000
0000
,
0000
0000
0000
0000
,
1000
1000
0001
0010
,
0001
0010
0002
1003
,
0010
1000
0010
1000
,
0001
1000
0100
0010
,
0001
0001
0001
1000
,
0001
1000
0010
0100
,
0001
1000
0010
0100
,
0001
1000
0000
0001
,
1000
0100
1000
0001
,
0100
0002
0003
0001
,
0100
0001
0010
0100
,
1000
1000
0010
0100
,
0000
0010
0000
1000
,
0000
0001
0000
1000
,
1000
0100
0100
0010
,
0010
0001
0002
1003
,
0001
0100
0001
1000
,
0100
1000
0001
0100
,
0010
2000
3000
0001
,
0000
1000
0002
1003
,
0001
0100
0001
1000
,
0100
1000
0001
0100
,
0010
2000
3001
0001
,
1000
1000
0002
1003
,
0001
0100
0001
1000
,
0100
1000
0001
0100
,
0010
2000
3000
0001
,
0000
1000
0002
1003
,
0001
0100
0001
1000
,
0100
1000
0001
0100
,
0010
1000
0001
0001
,
1000
0010
0000
0000
;

//--------------- dance-single - SKooT ----------------
#NOTES:
     dance-single:
     SKooT:
     Medium:
     8:
     0,0,0,0,0:
0000
0000
0000
0000
,
0000
0000
0000
0000
,
0000
0000
0000
2000
,
3001
0010
0100
1000
0001
0000
0010
0000
,
0001
1000
0001
0000
1000
0001
1000
0000
,
1000
0100
0010
0001
0200
0000
0310
0000
,
1001
0010
1001
0200
,
0301
0010
0100
1000
0001
0000
1000
0000
,
0010
1000
0100
0000
0010
0001
1000
0000
,
0001
0010
0100
1000
0002
0000
2003
0000
,
3100
0010
0001
1000
0001
0000
0010
0000
,
1100
0000
0101
0000
0001
0010
0001
0000
,
1010
0000
0011
0000
0001
1000
0001
0000
,
2000
0000
3100
0010
0200
0000
1300
0000
,
1000
0001
0100
0000
0100
0001
1000
0001
,
0010
0010
0001
0100
,
0010
1000
0100
0000
1000
0001
0010
0000
,
0002
1003
0011
0100
,
0001
1000
0001
1000
0020
0000
0230
0000
,
0301
0100
0010
1000
,
0010
0100
0010
1000
0100
0000
1000
0000
,
0010
0100
0001
1000
,
0001
0100
0001
1000
0100
1000
0001
0010
,
0001
0000
0010
0000
0100
1000
0010
0100
,
0001
0000
0100
0000
0100
0001
1000
0000
,
0000
0000
0000
0000
,
0000
0000
0000
0000
,
1000
0000
1000
0000
0001
0100
0010
0000
,
1000
0001
1000
0000
0002
2003
3010
0100
,
0001
0000
0100
0001
1000
0000
0001
0100
,
0010
0000
1000
0010
0100
0010
0100
0000
,
0001
0000
0000
0100
0000
0100
0000
0000
0001
0000
0000
0000
1000
0000
0010
0000
,
1000
0001
0100
0000
0001
1000
0010
0000
,
0010
1000
0100
0000
0100
0010
0001
0000
,
0001
1000
0100
0000
0000
0000
0010
1000
,
0001
0000
0001
0010
0100
0000
0100
1000
,
0001
0000
0002
0000
0003
0000
1000
0001
,
0100
0000
0100
0010
1000
0000
1000
0001
,
0100
0001
1001
0010
,
1000
0000
0010
0000
1000
0001
0100
0000
,
0010
0000
0100
0000
0001
0000
1000
0100
,
1000
0001
0100
0001
1000
0010
1000
0001
,
0010
0001
1000
0000
0002
0000
1003
0100
,
0010
0001
1000
0000
0100
0000
1000
0001
,
1000
0000
0001
1000
0001
0000
0001
0010
,
0100
1000
0020
0000
0130
0000
1001
0000
,
0100
0000
1001
0000
0020
0000
1030
0100
,
0010
0001
1000
0000
0001
0000
0100
0001
,
0010
0000
0100
1000
0001
0000
1000
0100
,
0010
0001
2000
0000
3002
0000
0013
0100
,
1000
0001
1000
0000
2000
0000
3001
0010
,
0100
1000
0001
0000
0010
0000
0001
0100
,
0001
0000
1000
0010
1000
0000
1000
0100
,
0010
0001
0200
0000
0310
0000
1001
0000
,
0010
0000
1001
0000
0200
0000
0301
0010
,
0100
1000
0001
0000
1000
0000
0010
1000
,
0100
0000
0010
0001
1000
0000
0001
0010
,
0100
1000
0002
0000
2003
0000
3100
0010
,
0001
1000
0001
0000
0000
0000
0000
0000
;

//--------------- dance-single - SKooT ----------------
#NOTES:
     dance-single:
     SKooT:
     Hard:
     12:
     0,0,0,0,0:
0000
0000
0000
0000
,
0000
0000
0000
0000
,
0000
0000
0000
2000
,
3001
0000
0100
0000
0001
1000
0000
1000
0001
0000
0100
0000
0010
0000
1000
0001
,
0000
0001
0000
1000
0010
0000
0100
0010
0000
1000
0000
0001
0010
0000
0001
0000
,
1000
0000
0100
0000
1000
0001
0000
0001
2000
0000
0000
0000
3010
0000
0000
1001
,
0000
0000
1000
0000
0001
0000
0000
1010
0000
0000
0001
0000
0210
0000
0000
0000
,
0301
0000
0010
0000
0001
0100
0000
0100
0010
0000
1000
0000
1000
0000
0010
0100
,
0000
0100
0000
0001
1000
0000
0010
0100
0000
0001
1000
0001
0100
0000
0010
0000
,
1000
0000
0001
0000
0100
0010
0000
0010
1000
0000
0010
0000
1002
0000
0000
0000
,
0103
0000
0010
0000
1000
0100
0000
0100
1000
0000
0000
0000
0001
0000
0000
0000
,
1100
0000
0110
0000
0011
0110
1100
1010
,
0010
0000
1001
0000
0010
0100
0010
0001
,
2000
0000
3100
0010
0002
0000
1003
0100
,
1000
0001
0100
0010
1000
0001
1000
0001
,
0100
0010
0110
0010
1000
0001
0100
0010
,
1000
0000
0001
0100
0001
0000
0100
0010
1000
0000
1000
0000
0010
0000
0010
0000
,
2001
3100
0011
0001
,
0100
0010
0100
0010
0100
0010
0100
0010
2000
0000
0000
0000
3001
0000
0000
0000
,
0001
0001
0100
0100
0010
0010
1000
1000
,
0010
0100
0001
1000
0100
1000
0001
0100
,
0010
0010
1000
1000
0001
0001
0100
0100
,
0010
0100
0001
1000
0100
1000
0001
0010
,
1000
0000
0000
0000
0010
0000
0000
0000
0100
0000
0001
1000
0010
0000
1000
0000
,
0001
0000
0001
1000
0100
0000
1000
0000
0001
0000
0010
0000
0100
0000
0000
0000
,
0000
0000
0000
0000
,
0000
0000
0000
0000
,
1000
0000
0000
0000
1000
0000
0000
0000
0001
0000
0100
0000
0010
0000
1000
0001
,
0010
0001
0010
0100
2000
3002
0103
0001
,
0010
0001
0100
0001
1000
0001
0100
0001
,
0010
0100
1000
0010
0100
0010
1001
0000
,
0010
0000
0000
0100
0000
0010
0000
0100
0001
0000
1000
0000
0010
0000
1000
0000
,
0001
0010
0100
0010
0001
1000
0001
0100
,
0010
1000
0100
0010
0100
1000
0001
0010
,
0001
1000
0100
0000
0000
0000
1000
0100
,
1000
0001
0100
0010
1000
0001
0010
0001
,
0100
0001
2000
0000
3100
1000
0001
1000
,
0010
1000
0001
1000
0010
0100
0010
1000
,
0001
0010
0100
0000
1001
0000
0001
0000
,
1000
0000
0010
0000
0100
1000
0001
0000
,
0010
0000
0100
0000
0001
0000
1000
0100
,
1000
0001
0100
0010
0100
0001
1000
0100
,
0001
0100
1000
0000
2001
0000
3010
0100
,
0010
1000
0000
1000
0001
0000
0100
0000
0100
0000
0001
0010
0000
0010
0000
0001
,
1000
0000
1000
0001
0000
1000
0000
0010
0100
0000
0100
0000
0010
0000
1000
0000
,
0001
0100
0000
0100
0002
0000
0000
0000
0013
0000
0000
1001
0000
0000
1000
0000
,
0001
0000
0000
1010
0000
0000
1000
0000
0201
0000
0000
0000
0301
0000
1000
0000
,
0100
1000
0000
1000
0001
0000
0010
0000
0100
0000
1000
0010
0000
0010
0000
0100
,
0001
0000
1000
0010
0000
0100
0001
0000
1000
0000
1000
0000
0001
0000
0100
0000
,
0001
0010
0000
0010
0001
0000
1000
0000
0010
0000
0100
0000
0001
0000
1000
0000
,
0010
1000
0000
1000
0001
0000
0010
0000
0001
0000
1000
0000
0010
0000
0100
0000
,
0001
1000
0000
1000
0010
0000
0100
0000
0001
0000
1000
0010
0000
0010
0000
0100
,
0010
0000
1000
0001
0000
1000
0000
0100
0010
0000
0001
0000
0010
0000
0100
0000
,
1000
0100
0000
0100
0020
0000
0000
0000
0031
0000
0000
1001
0000
0000
0100
0000
,
0010
0000
1000
0010
0000
0000
0001
0000
0200
0000
0000
0000
0301
0000
1000
0000
,
0100
0010
0000
0010
0100
0000
1000
0000
0001
0000
1000
0100
0000
0100
1000
0000
,
0001
0000
0010
0100
0000
0010
0001
0000
1000
0000
0001
0000
0010
0000
0001
0000
,
0100
0010
0000
0010
0100
0000
0001
0000
1000
0000
0001
0000
0100
0000
0010
0000
,
1000
0001
0000
0001
0100
0000
0000
0000
0000
0000
0000
0000
0000
0000
0000
0000
;
