#TITLE:Mei Mei;
#SUBTITLE:;
#ARTIST:Karasuyasabou (Cover - Meychan);
#TITLETRANSLIT:;
#SUBTITLETRANSLIT:;
#ARTISTTRANSLIT:;
#GENRE:;
#CREDIT:;
#MUSIC:Mei Mei.ogg;
#BANNER:Mei Mei Banner.png;
#BACKGROUND:Mei Mei BG.png;
#CDTITLE:;
#SAMPLESTART:52.867;
#SAMPLELENGTH:9.450;
#SELECTABLE:YES;
#OFFSET:-0.067;
#BPMS:0.000=200.000;
#STOPS:;
#BGCHANGES:;
#FGCHANGES:;

//--------------- dance-single - SKooT ----------------
#NOTES:
     dance-single:
     SKooT:
     Beginner:
     4:
     0,0,0,0,0:
0000
0000
0000
0000
,
0000
0000
0000
0000
,
0000
0000
0000
0000
,
0000
0000
0000
0000
,
0100
0000
0010
0000
,
1000
0000
1000
0000
,
0010
0000
0010
0000
,
0100
0000
0100
0000
,
0001
0000
1000
0000
,
0001
0000
0001
0000
,
0000
1000
0000
1000
,
0000
0010
0010
0010
,
0010
0000
1000
0000
,
0010
0000
0100
0000
,
0001
0000
0010
0000
,
0001
0000
0100
0000
,
0010
0000
1000
0000
,
0100
0000
1000
0000
,
0010
0000
0100
0000
,
0001
0000
1000
0000
,
0010
0000
0100
0000
,
0001
0000
0001
0000
,
0100
0000
0100
0000
,
0010
0000
0010
0000
,
1000
0000
0001
0000
,
1000
0000
1000
0000
,
0000
0100
0000
0100
,
0000
0100
0100
0100
,
0100
0000
1000
0000
,
0010
0000
0100
0000
,
0010
0000
1000
0000
,
0001
0000
0010
0000
,
0100
0000
0010
0000
,
0001
0000
1000
0000
,
0010
0000
0100
0000
,
0001
0000
1000
0000
,
0001
0001
0001
0001
,
0001
0000
0001
0000
,
1000
1000
1000
1000
,
1000
0000
1000
0000
,
0100
0000
0010
0000
,
0001
0000
0100
0000
,
0010
0000
0000
0000
,
0100
0000
0010
0000
,
0100
0000
0100
0000
,
0010
0000
0100
0000
,
0001
0000
0001
0000
,
0010
0000
0100
0000
,
1000
0000
1000
0000
,
0010
0000
0100
0000
,
0001
0000
0001
0000
,
1000
0000
1000
0000
,
0100
0000
0100
0000
,
0010
0000
0100
0000
,
1000
0000
1000
0000
,
0010
0000
0100
0000
,
0001
0000
0001
0000
,
0010
0000
0100
0000
,
1000
0000
1000
0000
,
0001
0000
0001
0000
,
1000
0000
0001
0000
,
1000
0000
0001
0001
,
0001
0000
0100
0000
,
0010
0000
0100
0100
,
0100
0000
0001
0000
,
0010
0000
0001
0001
,
0001
0000
1000
0000
,
0010
0000
1000
1000
,
0000
0100
0000
0010
,
0000
0001
0001
0001
,
0000
0100
0000
0010
,
0000
1000
1000
1000
,
0000
0100
0000
0010
,
0000
0001
0001
0001
,
0000
0100
0000
0010
,
0000
1000
1000
2000
,
0000
3000
0000
0000
0000
0000
0000
0000
;

//--------------- dance-single - SKooT ----------------
#NOTES:
     dance-single:
     SKooT:
     Easy:
     7:
     0,0,0,0,0:
0000
0000
0000
0000
,
0000
0000
0000
0000
,
0000
0000
0000
0000
,
0000
0000
0000
0000
,
1000
0001
0100
0010
,
0100
0001
1000
0000
,
0001
0010
0100
0000
,
1000
0100
0010
0000
,
0001
1000
0010
0100
,
0010
1000
0001
0000
,
0000
1001
0000
0110
,
0000
1001
0001
0001
,
0001
0000
0000
1000
0000
0000
0010
0000
,
1000
0000
0000
0001
0000
0000
0010
0000
,
0001
0010
0100
0010
,
0001
0000
0000
0001
0000
0000
0001
0000
,
0100
0000
0000
0010
0000
0000
0100
0000
,
0001
0000
0000
1000
0000
0000
0010
0000
,
1000
0100
0010
0100
,
1000
0000
0000
1000
0000
0000
1000
0000
,
0001
1000
0010
0100
,
0010
1000
0001
0000
,
1000
0100
0010
0000
,
0001
0010
0100
0000
,
1000
0001
0100
0010
,
0100
0001
1000
0000
,
0000
1001
0000
0110
,
0000
1001
1000
1000
,
1000
0000
0000
0001
0000
0000
0100
0000
,
0001
0000
0000
1000
0000
0000
0100
0000
,
1000
0100
0010
0100
,
1000
0000
0000
1000
0000
0000
1000
0000
,
0010
0000
0000
0100
0000
0000
0010
0000
,
1000
0000
0000
0001
0000
0000
0100
0000
,
0001
0010
0100
0010
,
0001
0000
0000
0001
0000
0000
0000
0000
,
0001
0001
0001
0001
,
1000
0001
1000
0001
,
1000
1000
1000
1000
,
0001
1000
0001
1000
,
0100
0010
0100
0010
,
0001
0001
0010
0100
,
0010
0000
0010
0000
0000
0100
0000
0100
,
0000
0000
0000
0000
,
1000
1000
0001
0100
,
0010
1000
0100
1000
,
0001
0001
1000
0010
,
0100
0001
0010
0001
,
1000
1000
0010
0100
,
0001
0010
0100
0010
,
0001
0001
1000
0100
,
1000
1000
0010
0100
,
0001
0001
1000
0010
,
0100
0001
0010
0001
,
1000
1000
0001
0100
,
0010
1000
0100
1000
,
0001
0001
0100
0010
,
1000
0100
0010
0100
,
1000
1000
0001
0010
,
0001
0001
0100
0010
,
1000
0100
1000
0100
,
1000
0001
1001
1001
,
0001
0100
0001
0100
,
0001
1000
1001
1001
,
1000
0100
0010
0100
,
0010
0001
1001
1001
,
0001
0010
0100
0010
,
0100
1000
1001
1001
,
0000
1000
0000
1000
,
0000
1000
1010
1010
,
0000
0001
0000
0001
,
0000
0001
0011
0011
,
0000
1000
0000
1000
,
0000
1000
1001
1001
,
0000
0001
0000
0001
,
0000
0001
1000
0020
,
0000
0030
0000
0000
0000
0000
0000
0000
;

//--------------- dance-single - SKooT ----------------
#NOTES:
     dance-single:
     SKooT:
     Medium:
     10:
     0,0,0,0,0:
0000
0000
0000
0000
,
0000
0000
0000
0000
,
0000
0000
0000
0000
,
0000
0000
0000
0000
,
1001
0000
0000
0100
0001
0000
0010
0000
,
0100
0010
0001
1000
,
1001
0001
0010
0001
,
1000
0010
1000
0001
,
1001
0000
0000
0010
1000
0000
0100
0000
,
0010
0100
1000
0001
,
0000
1100
0000
0101
,
0000
1100
1000
1000
,
0001
0100
0000
0010
0000
0100
0001
0000
,
1000
0000
1000
0001
0000
0001
0010
0000
,
0001
0010
0100
0010
,
0001
0010
0000
0100
0000
0000
1000
0000
,
1000
0010
0000
0100
0000
0001
0010
0000
,
0001
0000
0001
1000
0000
1000
0010
0000
,
1000
0100
1000
0010
,
0100
0000
0001
1000
0000
0001
0000
1000
,
0010
0100
0001
0010
,
0001
0001
0100
0010
,
0110
0010
0100
0010
,
1000
0100
0010
0100
,
0110
0010
0001
0100
,
0010
1000
0010
0100
,
0001
0101
0000
1100
,
0000
0101
0001
0001
,
1000
0010
0000
0100
0000
0010
1000
0000
,
0001
0000
0001
1000
0000
1000
0100
0000
,
1000
0100
0010
0100
,
1000
0100
0000
0010
0000
0000
0001
0000
,
0001
0100
0000
0010
0000
1000
0000
0000
,
1000
0000
1000
0001
0000
0001
0100
0000
,
0001
0010
0001
0100
,
0010
0000
1000
0001
0000
1000
0000
1000
,
0001
0001
0001
0001
,
0011
0001
0011
0001
,
1001
1000
1000
1000
,
1010
1000
1010
1000
,
0001
0001
0010
0001
,
0100
1000
0010
1000
,
0100
0000
0001
0000
0000
0001
1000
0001
,
0000
0000
0000
0000
,
1100
0000
1100
0000
0001
0000
0001
1000
,
0000
1000
0100
0000
0010
0000
0001
0000
,
0101
0000
0101
0000
0001
0000
0001
0100
,
0000
0010
1000
0000
0100
0000
1000
0000
,
1100
0000
1100
0000
0001
0000
0001
0100
,
0000
0100
0010
0000
1000
0000
0001
0000
,
0011
0011
0001
0100
,
1010
1010
1000
0001
,
0101
0000
0101
0000
1000
0000
1000
0001
,
0000
0001
0010
0000
0100
0000
1000
0000
,
1100
0000
1100
0000
1000
0000
1000
0010
,
0000
0100
0001
0000
0010
0000
0001
0000
,
0101
0000
0101
0000
1000
0000
1000
0010
,
0000
0010
0100
0000
0001
0000
1000
0000
,
1010
1010
1000
0001
,
0011
0011
0001
1001
,
1000
0100
0001
0001
,
0100
1000
1001
1001
,
1000
0010
0001
0001
,
0010
1000
1001
1001
,
0001
0100
1000
0001
,
0100
1000
1001
1001
,
1000
0100
0001
1000
,
0100
0001
1001
1001
,
0000
0011
0000
1100
,
0000
0011
1000
1000
,
0000
1010
0000
0101
,
0000
1010
0001
0001
,
0000
1100
0000
0011
,
0000
1100
0001
0001
,
0000
0101
0000
1010
,
0000
0101
0100
0020
,
0000
0030
0000
0000
0000
0000
0000
0000
;

//--------------- dance-single - SKooT ----------------
#NOTES:
     dance-single:
     SKooT:
     Hard:
     13:
     0,0,0,0,0:
0000
0000
0000
0000
,
0000
0000
0000
0000
,
0000
0000
0000
0000
,
0000
0000
0000
0000
0000
0100
0010
0000
,
1001
0000
0001
0010
0000
0100
1000
0010
,
1000
0000
0100
0010
0000
0001
1000
0000
,
1001
0000
0001
0010
0000
0001
1000
0000
,
0010
0000
1000
0100
0000
1000
0001
0000
,
1001
0000
1000
0100
0000
0010
0001
0100
,
0001
0000
0010
0100
0000
1000
0010
0000
,
0100
0101
0010
1100
,
0010
0000
0101
0000
0001
1000
0001
1000
,
0001
0100
0000
0010
0000
0100
0010
0100
,
0001
0000
1000
0001
0000
0010
0001
0100
,
0001
0000
0010
0100
0000
0100
0010
0001
,
1000
0010
0000
0100
0000
0010
1000
0001
,
1000
0010
0000
0100
0000
0001
0010
0001
,
1000
0000
0001
1000
0000
0001
0100
0010
,
1000
0000
0010
1000
0010
0000
0100
0000
,
0001
0000
0001
0010
0000
0001
1000
0001
,
1000
0000
0100
1000
0000
1000
0010
0100
,
0001
0000
1000
0010
0000
0010
1000
0000
,
1001
0000
0001
0100
0000
0100
0001
0000
,
1000
0000
0010
0100
0000
0001
1000
0000
,
1001
0000
0010
0001
0000
0001
1000
0010
,
1000
0000
0001
1000
0000
1000
0001
0000
,
0100
0101
1000
1100
,
0001
0000
0101
0000
0100
0010
0100
0010
,
1000
0010
0000
0100
0000
0010
0100
0010
,
1000
0000
0001
1000
0000
0100
1000
0010
,
1000
0000
0100
0010
0000
0010
0100
1000
,
0001
0100
0000
0010
0000
0100
0001
1000
,
0001
0100
0000
0010
0000
1000
0100
1000
,
0001
0000
1000
0001
0000
1000
0100
0010
,
0001
0000
0100
0001
0100
0001
0010
0000
,
0100
0000
0100
1000
0000
1000
0001
1000
,
0001
0001
0001
0001
,
0101
0001
0011
0001
,
1001
1000
1000
1000
,
1010
1000
1100
0100
,
0010
0000
0001
0000
0001
1000
0010
1000
,
0010
0000
0001
0000
1000
0001
0100
0001
,
0100
0000
1000
0000
0000
0100
0010
0100
,
0000
0000
0000
0000
,
1100
0000
0101
0000
0001
0000
0001
1000
,
0000
0010
0100
0001
0010
0000
0001
0000
,
0101
0000
1100
0000
0001
0000
0001
0100
,
0000
0100
0010
0000
1000
0001
1000
0000
,
1100
0000
0101
0000
0001
0000
0001
1000
,
0000
0010
0100
0010
0100
0000
0001
0000
,
1010
0000
0011
0000
0001
0010
0100
1000
,
1010
0011
1000
1001
,
1100
0000
0101
0000
0001
0000
0100
0010
,
0000
1000
0100
1000
0010
0000
0100
0000
,
0101
0000
1100
0000
0001
0000
0001
0100
,
0000
1000
0001
0000
0010
0100
1000
0000
,
1100
0000
0101
0000
1000
0000
0001
0100
,
0000
0010
1000
0000
0001
0000
0100
0000
,
1010
0000
0011
0000
0001
1000
0100
0010
,
0011
1010
0110
1001
,
1000
0100
0010
0001
,
0010
0100
0110
1001
,
1000
0010
0001
0010
,
1000
0100
0110
1001
,
0001
0010
1000
0100
,
0001
0100
0110
0110
,
1000
0010
0100
0001
,
0010
0100
0110
0110
,
0001
0011
0001
1100
,
0001
0011
0101
1100
,
1000
1010
1000
0101
,
1000
1010
1100
0101
,
1000
1100
1000
0011
,
1000
1001
1100
0101
,
0001
0011
0001
1010
,
0001
0101
1001
0220
,
0000
0330
0000
0000
0000
0000
0000
0000
;
