#TITLE:Lower One's Eyes;
#SUBTITLE:;
#ARTIST:Nuyuri;
#TITLETRANSLIT:;
#SUBTITLETRANSLIT:;
#ARTISTTRANSLIT:;
#GENRE:;
#CREDIT:;
#MUSIC:Lower.ogg;
#BANNER:Lower Banner.png;
#BACKGROUND:Lower BG.png;
#CDTITLE:;
#SAMPLESTART:66.309;
#SAMPLELENGTH:19.318;
#SELECTABLE:YES;
#OFFSET:-0.400;
#BPMS:0.000=132.000;
#STOPS:;
#BGCHANGES:;
#FGCHANGES:;

//--------------- dance-single - SKooT ----------------
#NOTES:
     dance-single:
     SKooT:
     Beginner:
     3:
     0,0,0,0,0:
0000
0000
0000
0001
,
0001
0000
0000
0100
,
0100
0000
0000
0010
,
0010
0000
0000
1000
,
1000
0000
0000
0100
,
0100
0000
0000
0010
,
0010
0000
0000
0001
,
0001
0000
0000
1000
,
1000
0000
0000
0001
,
0000
1000
0000
0001
,
0000
0100
0000
0010
,
0000
0100
0000
0001
,
0000
1000
0000
0001
,
0000
0100
0000
0001
,
0000
0010
0000
0001
,
0000
0100
0000
0001
,
0000
1000
0000
1000
,
0000
0100
0000
1000
,
0000
0010
0000
1000
,
0000
0100
0000
1000
,
0000
0001
0000
1000
,
0000
0010
0000
1000
,
0000
0100
0000
1000
,
0000
0010
0000
1000
,
0000
0001
0000
0001
,
0000
0010
0000
0001
,
0000
0100
0000
0001
,
0000
0010
0000
0001
,
0000
1000
0000
1000
,
0000
0010
0000
0010
,
0000
0100
0000
0100
,
0000
0001
0000
0001
,
0000
1000
0000
0001
,
0000
0001
0000
0100
,
0000
0100
0000
0010
,
0000
0010
0000
1000
,
0000
0001
0000
1000
,
1000
0000
0000
0001
,
0001
0000
0000
0100
,
0000
0001
0000
0100
,
0000
0001
0000
1000
,
1000
0000
0000
0001
,
0001
0000
0000
0000
0000
1001
0000
0000
,
0000
0000
0000
0000
0000
1001
0000
0000
,
0000
0000
0000
0000
0000
1001
0000
0000
,
0000
0000
0000
0000
0000
1001
0000
0000
,
0000
0000
0000
0000
,
1000
0000
0001
0000
,
1000
0000
0010
0000
,
0100
0000
0010
0000
,
1000
0000
0001
0000
,
0100
0000
0000
0000
;

//--------------- dance-single - SKooT ----------------
#NOTES:
     dance-single:
     SKooT:
     Easy:
     6:
     0,0,0,0,0:
0000
0000
0000
0100
,
0100
0001
1000
0100
,
0100
1000
0001
0010
,
0010
0001
1000
0010
,
0010
1000
0001
0100
,
0100
1000
0100
0001
,
0001
0100
1000
0100
,
0100
1000
0001
0100
,
0000
0000
0000
0100
,
0001
1000
1000
0001
,
0010
0100
1000
0010
,
0010
0100
0001
0010
,
0001
1000
0010
1000
,
0100
0010
0100
1000
,
0010
0100
0001
0010
,
0100
0010
0001
1000
,
1000
1000
1000
0001
,
0010
0100
0010
0001
,
0100
0010
1000
0100
,
0010
0100
1000
0001
,
0001
1000
1000
1000
,
0001
0010
1000
0001
,
1000
0010
0001
1000
,
0001
0010
0001
0100
,
0100
0001
1000
0001
,
1000
0100
0001
1000
,
0001
0100
1000
0001
,
1000
0100
1000
0010
,
0000
0100
0000
0001
,
0010
0001
1000
0010
,
1000
1000
0000
0001
,
0000
0010
0000
0100
,
0000
1000
0001
1000
,
0000
0010
0000
0100
,
0000
0001
0000
0100
,
0100
0001
0001
0020
,
0000
0130
0000
1000
,
0001
0010
0001
0001
,
1000
0010
1000
0001
,
0010
0100
0010
0001
,
1000
0010
0100
0010
,
1000
0100
1000
0001
,
0001
0000
0000
0000
0000
1001
0000
0000
,
0100
0000
0100
0000
0000
1001
0000
0000
,
0010
0000
0010
0000
0000
1001
0000
0000
,
0100
0000
0100
0000
0000
1001
0000
0000
,
0010
0010
0000
0000
,
0010
0001
1000
1000
,
0001
0010
0100
1000
,
0010
0010
0100
0001
,
1000
1000
0010
0010
,
0100
0000
0000
0000
;

//--------------- dance-single - SKooT ----------------
#NOTES:
     dance-single:
     SKooT:
     Medium:
     9:
     0,0,0,0,0:
0000
0000
0000
1001
,
0011
0000
0001
0010
0100
0000
1100
0000
,
1010
0000
1000
0100
0010
0000
0011
0000
,
1001
0000
0010
0001
0100
0000
0101
0000
,
1010
0000
0100
0010
0100
0000
1001
0000
,
0110
0000
0010
1000
0010
0000
0110
0000
,
1001
0000
0010
0001
0010
0000
1010
0000
,
0101
0000
0100
0010
1000
0000
0100
0000
,
0010
0000
0001
0001
0001
0000
0010
0100
,
1000
0000
0000
0001
0000
0000
0100
0000
0010
0000
1000
0000
0001
0000
0000
0000
,
0010
0000
0100
1000
0100
0000
1000
0010
,
0100
0000
0000
0001
0000
0000
0010
0000
0100
0000
0000
0000
1001
0000
0000
0000
,
1100
0000
0110
0000
0011
0000
1000
0010
,
0100
0000
0001
0000
0010
0000
0100
1000
,
0010
0000
0100
0000
0001
0000
1000
0010
,
0100
0000
0001
0000
1000
0000
0000
0100
,
0000
0100
0000
0100
0000
0000
1000
0001
,
0100
0000
0010
0000
0100
0000
0001
1000
,
0100
0000
0010
0000
0100
0000
1000
0001
,
0010
0000
0001
1000
0010
0000
1000
0000
,
0001
0000
1000
0000
0001
0000
0001
0010
,
0001
0000
0010
0000
0100
0000
1000
0100
,
1000
0000
0100
0000
0010
0000
0001
0100
,
0001
0000
1000
0010
1000
0000
1000
0001
,
1000
0001
0100
0000
0100
0000
0001
0100
,
1000
0000
0100
0000
0001
0000
1000
0100
,
0001
0000
0100
0000
1000
0000
0001
0010
,
1000
0000
1000
0010
0001
0000
1000
0000
,
0002
0013
0100
1100
,
0101
0000
0010
0000
1000
0000
0001
0010
,
0001
0000
1000
0000
1000
0001
0010
0000
,
0010
0001
1000
0000
1000
0010
0100
0000
,
0001
0000
0010
0100
1000
0000
1010
0000
,
0101
0000
0100
0000
0001
0000
1000
0100
,
0010
0000
0100
1000
0001
0000
0100
0010
,
0100
0000
0001
1000
0001
1000
0020
0000
,
0000
0000
1030
0000
0000
0000
0001
0010
,
0001
1000
0000
1000
0001
0000
1000
0100
,
1000
0001
0000
0001
0010
0000
0001
1000
,
0010
0000
0100
0001
0010
0000
0001
0100
,
0010
1000
0100
0000
0100
0000
0010
0100
,
1000
0001
0000
0100
0010
0000
1000
0001
,
0010
0100
0000
0010
0000
0011
0000
0010
,
0100
0010
0100
0000
0000
1010
0000
0100
,
0010
0100
0010
0000
0000
0011
0000
0010
,
0100
0010
0100
0000
0000
1010
0000
1000
,
0001
1000
0001
0010
0000
0000
0000
0000
,
0100
0000
0010
0000
0001
0000
0000
1000
0000
0000
0010
0000
0100
0000
0001
0000
,
1000
0000
0100
0000
0010
0001
0010
0000
,
0001
0000
0100
0000
0010
0000
0000
1000
0000
0000
0100
0000
0010
0000
0000
0000
,
1001
0000
0011
0000
0110
0100
0100
0100
,
1000
0000
0000
0000
;

//--------------- dance-single - SKooT ----------------
#NOTES:
     dance-single:
     SKooT:
     Hard:
     12:
     0,0,0,0,0:
0000
0000
0000
1001
,
0011
0000
0001
0010
0100
1000
1001
0000
,
1010
0000
1000
0100
0010
0001
1001
0000
,
0101
0000
0010
0001
1000
0010
1001
0000
,
1100
0000
0100
0010
0100
1000
1001
0000
,
0110
0000
0010
0001
0010
1000
0110
0000
,
1001
0000
0010
0001
0010
1000
0011
0000
,
1010
0000
0100
0010
1000
0001
1000
0100
,
0010
0001
1000
1000
1000
0001
0110
0100
,
0010
0000
0000
1000
0000
0001
0100
0000
0001
0000
0010
0000
0001
0000
0100
0000
,
0010
1000
0100
0010
0100
1000
0001
0010
,
0100
0000
0000
0001
0000
1000
0010
0000
1000
0000
0100
0000
1001
0000
1000
0000
,
1100
0100
0110
0010
0011
0002
1003
0010
,
0100
0001
0100
0010
1000
0100
0010
0100
,
1000
0001
0010
0001
1000
0010
0100
0001
,
0010
0001
0100
0010
1000
0001
0100
0001
,
0010
0001
1000
0010
1000
1000
0001
0100
,
0010
1000
0010
0100
0001
0010
0100
0010
,
0001
1000
0100
1000
0001
0100
0010
1000
,
0100
1000
0010
0100
0001
1000
1000
0001
,
0001
0100
0100
0010
0010
0100
0001
0010
,
1000
0010
0001
1000
0010
0100
0010
0001
,
0010
0100
0010
1000
0100
0010
1000
0010
,
0001
0010
1000
0010
0001
1000
0010
0100
,
0001
1000
0001
0010
0100
1000
1000
0100
,
0001
0100
1000
0001
0100
0010
0100
1000
,
0100
0010
0100
0001
0010
0100
0001
0100
,
1000
0100
0001
0100
1000
0001
0010
0001
,
2000
0000
3100
0010
0001
1000
1001
0000
,
1100
0000
0000
0000
0110
0000
0000
0100
0000
1000
0000
0001
0000
0000
0100
0000
,
0100
0010
0000
1000
0000
0000
0001
0000
0001
0010
0000
0000
1100
0000
1000
0000
,
1000
0010
0000
0000
0101
0000
0001
0000
0001
0100
0000
0000
1010
0000
0000
0000
,
0001
0010
0100
1000
0001
1000
1010
0000
,
0011
0000
0001
0000
0100
0010
0000
1000
0000
1000
0000
0000
0010
0000
0001
0000
,
0010
0100
0000
0001
0000
0000
0010
0000
0100
0000
0010
0000
0001
0010
0100
0000
,
1000
0000
0010
0100
0000
0010
0100
0000
0001
0000
1000
0000
0020
0000
0000
0000
,
0000
0000
0130
0000
0000
0000
0011
0010
,
0100
0000
1000
0000
0001
0000
0100
0010
0000
1000
0001
1000
0001
0000
0010
0000
,
0100
0000
1000
0000
0001
0000
0100
0001
0000
0100
0010
1000
0100
0000
1000
0000
,
0010
1000
0100
0010
0100
1000
0001
1000
,
0010
0000
1000
0000
0001
0100
0000
0010
0000
1000
0001
1000
0001
0000
0010
0000
,
0100
0000
1000
0000
0001
0000
0100
0001
0000
0100
0010
0000
1000
0000
0001
0000
,
0010
0001
0000
0100
0010
0110
0000
0001
,
1000
0100
1000
0001
0010
0110
0000
0001
,
1000
0100
1000
0001
0100
0110
0000
1000
,
0001
0010
0001
1000
0100
0110
0000
0001
,
1000
0100
1000
0010
0000
0000
0000
0000
,
0110
0000
0100
0000
0001
0000
0000
1000
0000
1000
0001
0000
1000
0000
0100
0000
,
1000
0010
0100
0001
0010
0100
0010
0001
,
1000
0000
0010
0000
0100
0000
0000
0001
0000
0001
1000
0000
0100
0000
0010
0000
,
1001
0000
0011
0000
0110
0010
0010
0100
,
1000
0000
0000
0000
;
