#TITLE:Lost Umbrella (English cover);
#SUBTITLE:;
#ARTIST:Inabakumori (Cover - Will Stetson);
#TITLETRANSLIT:;
#SUBTITLETRANSLIT:;
#ARTISTTRANSLIT:;
#GENRE:;
#CREDIT:;
#MUSIC:Lost Umbrella.ogg;
#BANNER:Umbrella BN.png;
#BACKGROUND:Umbrella BG.png;
#CDTITLE:;
#SAMPLESTART:55.150;
#SAMPLELENGTH:13.574;
#SELECTABLE:YES;
#OFFSET:0.897;
#BPMS:0.000=137.027;
#STOPS:;
#BGCHANGES:;
#FGCHANGES:;

//--------------- dance-single - SKooT ----------------
#NOTES:
     dance-single:
     SKooT:
     Beginner:
     3:
     0,0,0,0,0:
0000
0000
0000
0000
,
0000
0000
0000
0000
,
0000
0000
0000
0000
,
0000
0000
0000
0000
,
0000
0000
0000
0000
,
0010
0000
1000
0000
,
0100
0000
0000
0000
,
0010
0000
0001
0000
,
0200
0000
0000
0000
0000
0300
0000
0000
,
0000
0000
0002
0000
,
2003
0000
0000
0000
0000
3000
0000
0000
,
0000
0000
0000
0000
,
1000
0000
0001
0000
,
0001
0000
1000
0000
,
0001
0000
1000
0000
,
1000
0000
0001
0000
,
0100
0000
0010
0000
,
1000
0000
0001
0000
,
1000
0000
0100
0000
,
0010
0000
0001
0000
,
1000
0000
0001
0000
,
1000
0000
0001
0000
,
1000
0000
0100
0000
,
0010
0000
0100
0000
,
1000
0000
0010
0000
,
0100
0000
0001
0000
,
0001
0000
0100
0000
,
0010
0000
1000
0000
,
1000
0000
0001
0000
,
0100
0000
0001
0000
,
0000
0000
0000
0000
,
0000
0000
0000
0001
,
0000
1000
0000
1000
,
0000
0001
0000
0010
,
0000
1000
0000
0010
,
0000
0001
0000
1000
,
0000
0001
0000
0100
,
0000
1000
0000
0100
,
0000
0001
0001
0000
,
1000
0000
0010
0000
,
1000
0000
0010
0000
,
0100
0000
0001
0000
,
0100
0000
0001
0000
,
1000
0000
0001
0000
,
1000
0000
0010
0000
,
0001
0000
1000
0000
,
0001
0000
0100
0000
,
1000
0000
0010
0000
,
0001
0000
0100
0000
,
1000
0000
1000
0000
,
0001
0000
0001
0000
,
0100
0000
0010
0000
,
0100
0100
0000
0000
,
0001
0000
1000
0000
,
0001
0000
0100
0000
,
1000
0000
1000
0000
,
0001
0000
0001
0000
,
1000
0000
0010
0000
,
0100
0000
0001
0000
,
1000
0000
0001
0000
,
2000
0000
3000
0000
,
0001
0000
1000
0000
,
1000
0000
0001
0000
,
0010
0000
1000
0000
,
0010
0000
0001
0000
,
1000
0000
0001
0000
,
0100
0000
1000
0000
,
0100
0000
0001
0000
,
1001
0000
0001
0000
,
1000
0000
0010
0000
,
1000
0000
0100
0000
,
1000
0000
0001
0000
,
0020
0000
0230
0000
,
0320
0000
0230
0000
,
1300
0000
1000
0000
,
0001
0000
0002
0000
0000
0000
0000
0003
,
0100
0000
0100
0000
,
0010
0000
0010
0000
,
1000
0000
1000
0000
,
0001
0000
0001
0000
,
0100
0000
0010
0000
,
1000
0000
0001
0000
,
1000
0000
0100
0000
,
0010
0000
0001
0000
,
1000
0000
0001
0000
,
1000
0000
0001
0000
,
1000
0000
0010
0000
,
0001
0000
0100
0000
,
2000
0000
0000
3000
0000
0000
0000
0000
;

//--------------- dance-single - SKooT ----------------
#NOTES:
     dance-single:
     SKooT:
     Easy:
     5:
     0,0,0,0,0:
0000
0000
0000
0000
,
0000
0000
0000
0000
,
0000
0000
0000
0000
,
0000
0000
0000
0000
,
0000
0000
0000
0000
,
0010
0001
0100
0100
,
0010
1000
0001
0001
,
0100
0010
1000
0000
,
0210
0000
0000
0000
0000
0300
0000
0000
,
0000
0000
0002
0000
,
2003
0000
0000
0000
0000
3000
0000
0000
,
0000
0000
0000
0000
,
1000
0010
0100
0001
,
0100
0010
1000
0001
,
1000
0010
0100
0001
,
0010
0001
1000
1000
,
0001
0010
0001
1000
,
0001
0100
1000
0020
,
0130
0001
1000
0001
,
0100
0010
0100
2000
,
3010
0000
0110
0000
,
0001
0000
1001
0000
,
1000
0100
0010
0001
,
0010
0100
1000
1000
,
1000
0000
0010
0000
,
0100
0000
0001
0010
,
0001
0000
0100
0000
,
0100
0000
0010
1000
,
0010
0000
1000
0000
,
0001
0000
0001
1000
,
0000
0000
0000
0000
,
0000
0000
0000
0001
,
0010
1000
0010
0100
,
0001
0010
0100
1000
,
0001
1000
0100
0010
,
0001
1000
0001
0100
,
0010
0001
0100
0010
,
1000
1000
0001
1000
,
1000
0100
0010
0001
,
0001
0100
0010
1000
,
0010
0100
0001
1000
,
0001
0100
0010
1000
,
0100
1000
0001
0000
,
1000
0010
0100
0010
,
1000
0100
0010
0100
,
0010
0001
0100
0001
,
0010
0100
0010
0100
,
1000
0000
0001
0000
,
0001
0000
1000
1000
,
0001
0100
0001
1000
,
0010
0100
0001
0010
,
0001
0000
1000
0000
,
0010
0010
0000
0000
,
0000
1000
0001
0000
,
0100
0100
0010
0000
,
1001
0000
0011
0000
,
1001
0000
1010
0000
,
1000
0100
0001
0000
,
0001
0100
1000
0000
,
0001
0000
1000
0000
,
0002
0000
0003
0000
,
0100
0001
0100
0010
,
1000
0100
0010
0001
,
1000
0001
0010
0100
,
1000
0001
1000
0010
,
0100
1000
0010
0100
,
0001
0001
1000
0001
,
0001
0010
0100
0000
,
1001
0001
0001
0000
,
1000
0010
0010
0000
,
1000
0100
0100
0000
,
1000
0001
0001
0000
,
0200
0000
0320
0000
,
2030
0000
3002
0000
,
1003
1000
1000
0000
,
0001
0000
0220
0000
0000
0000
0000
0330
,
0100
0001
0001
0001
,
0010
0100
0100
0100
,
1000
0010
0010
0010
,
0100
0001
0001
0001
,
1000
0100
1000
0010
,
1000
0001
0010
0002
,
1003
0001
0010
0001
,
0100
0001
1000
0020
,
0130
0000
1010
0000
,
1001
0000
0011
0000
,
0001
1000
0001
1000
,
1000
0100
0010
0001
,
1002
0000
0000
0003
0000
0000
0000
0000
;

//--------------- dance-single - SKooT ----------------
#NOTES:
     dance-single:
     SKooT:
     Medium:
     9:
     0,0,0,0,0:
0000
0000
0000
0000
,
0000
0000
0000
0000
,
0000
0000
0000
0000
,
0000
0000
0000
0000
,
0000
0000
0000
0000
,
0010
1000
0001
0000
0010
0001
1000
0000
,
0010
0100
0001
0000
0100
0010
1000
0000
,
0100
1000
0001
0000
0100
0100
0010
0000
,
0210
0000
0000
0000
0000
0300
0000
0000
,
0000
0000
0002
0000
,
2003
0000
0000
0000
0000
3000
0000
0000
,
0000
0000
0000
0000
,
1000
0100
0010
0000
1000
0000
0001
0000
,
1000
0100
0010
0000
1000
0000
0001
0000
,
0001
0100
0010
0000
0001
0000
1000
0000
,
0001
0100
0010
0000
0001
0000
1000
0000
,
0010
0010
0100
0000
0001
0000
0010
0000
,
0001
0001
1000
0000
0010
0000
0002
0000
,
0103
0100
0010
0000
1000
0000
0100
0000
,
0010
0010
0001
0000
0100
0000
2000
0000
,
3100
0100
0001
0000
0100
0100
1000
0000
,
0010
0010
0001
0000
0010
0010
1000
0000
,
0010
0000
0100
0001
0010
0000
0100
1000
,
0010
0000
0100
0001
0010
0000
0001
0000
,
1000
0100
0010
0001
0010
0000
0001
1000
,
0100
0000
1000
0100
0001
0000
0100
0000
,
0001
0010
0100
1000
0100
0000
1000
0001
,
0010
0000
0001
0100
1000
0000
0010
0000
,
0001
1000
0100
0010
0001
0000
0100
0010
,
1000
0000
0001
0010
0000
0001
1000
0010
,
0000
0000
0000
0000
,
0000
0000
0000
2000
,
3010
0000
1010
0000
1000
0010
0100
0000
,
0001
0100
0010
0000
0010
0100
0001
0000
,
0010
0000
0011
0000
1000
0001
0100
0000
,
0001
1000
0001
1000
0100
0000
0010
0000
,
0110
0000
1000
0010
0100
0000
0010
0000
,
0100
0001
0010
0000
0001
1000
0010
0000
,
0100
0000
0100
0001
0010
0001
0100
0000
,
1000
0010
0100
0000
0100
0000
1000
0000
,
0001
0010
0100
0000
0001
0000
1000
0000
,
1000
0010
0100
0000
0001
0000
1000
0000
,
0001
0010
0100
0000
1000
0000
0000
0000
,
0010
0100
0010
0000
1000
0000
0001
0000
,
0010
0001
0010
0000
0100
0000
2000
3000
,
0010
0100
0010
0000
1000
0000
0100
0000
,
0010
0100
0010
0000
0100
0000
1000
0000
,
0001
0001
1000
0000
0001
0001
0100
0000
,
0001
0001
0010
0000
0001
1000
0001
1000
,
0010
0000
0100
0001
0010
0000
0001
0000
,
0011
0110
1100
0101
,
1001
0000
0100
0000
,
0010
1000
0010
0000
0000
0000
0000
0000
,
0000
0100
0010
0000
,
1000
0001
0010
0000
0100
0000
1000
0000
,
1001
0001
0011
0001
,
1001
1000
1010
1000
,
0001
0100
1000
0000
1000
0100
0001
0000
,
0001
1000
0001
1000
0100
0000
1000
0000
,
0010
0000
0100
0000
0001
0000
0000
0000
0100
0000
0000
1000
0000
0000
0000
0000
,
0010
0100
0010
0100
0000
0000
0000
0000
,
0101
0000
0100
0000
0001
0100
0010
0000
,
1000
0010
0100
0010
0100
0000
0001
0000
,
0010
0000
1100
0000
0001
1000
0010
0000
,
1000
0001
1000
0001
0010
0000
0100
0000
,
0110
0000
0001
0100
0010
0000
1000
0000
,
0001
0100
0001
0000
1000
0100
1000
0000
,
0001
0000
0100
0001
0100
0010
1000
0000
,
2001
0001
0001
0001
,
3001
1000
0001
0010
0001
0100
0010
1000
,
0100
1000
0020
0000
0100
0000
0100
0000
,
0100
0000
0130
0000
0100
0010
0100
0001
,
2000
0000
0000
3000
0100
0000
0000
0000
0002
0000
0000
0003
0100
0000
0000
0000
,
2000
0000
0000
3000
0100
0000
0000
0000
0002
0000
0000
0003
0100
0000
0000
0000
,
0100
0010
0100
0010
1000
0000
0100
0000
,
0001
0000
2002
0000
0000
0000
0000
3003
,
1000
1000
0001
0000
0001
0000
0001
0000
,
0001
0001
0100
0000
0100
0000
0100
0000
,
0100
0100
0010
0000
0010
0000
0010
0000
,
0010
0010
0100
0000
0100
0000
0100
0000
,
0100
0100
0010
0000
1000
0000
0100
0000
,
1000
1000
0001
0000
0100
0000
2000
0000
,
3010
0010
0100
0000
0001
0000
0010
0000
,
0100
0100
1000
0000
0010
0000
0002
0000
,
0013
0010
0100
0000
0010
0010
0001
0000
,
0100
0100
0010
0000
1000
1000
0001
0000
,
1001
0000
0010
1000
0100
0000
0010
0000
,
0011
1010
0101
1100
,
1001
0000
0000
0000
;

//--------------- dance-single - SKooT ----------------
#NOTES:
     dance-single:
     SKooT:
     Hard:
     13:
     0,0,0,0,0:
0000
0000
0000
0000
,
0000
0000
0000
0000
,
0000
0000
0000
0000
,
0000
0000
0000
0000
,
0000
0000
0000
0000
,
0010
0000
1000
0000
0001
0100
0001
0000
0010
0000
0001
1000
0000
0001
1000
0000
,
0010
0000
0100
0000
0001
0010
0001
0000
0100
0000
0010
1000
0000
0001
1000
0000
,
0100
0000
1000
0000
0001
0010
0001
0000
0100
0000
0100
0000
0010
0000
0000
0000
,
0210
0000
0000
0000
0000
0300
0000
0000
,
0000
0000
0002
0000
,
2003
0000
0000
0000
0000
3000
0000
0000
,
0000
0000
0000
0000
,
1000
0000
0100
0000
0010
0000
0100
0000
0010
0000
0001
0100
0000
0100
0010
0000
,
1000
0000
0100
0000
0010
0000
0100
0000
1000
0000
0010
0100
0000
0100
0001
0000
,
1000
0000
0100
0000
0010
0000
0100
0000
0010
0000
0001
0100
0000
0100
0010
0000
,
1000
0000
0100
0000
0010
0000
0100
0000
1000
0001
0000
0001
1000
0000
0001
1000
,
0001
0100
0010
1000
0010
0100
0001
0010
,
0001
0001
1000
0010
0100
0001
0020
0000
,
0031
0001
1000
0100
0001
0100
1000
0010
,
0100
0100
0001
0010
0100
1000
0002
0000
,
1003
1000
0010
0100
0001
0001
0010
0200
,
1300
1000
0010
0100
0001
0001
1000
0001
,
0010
0001
0100
0001
0010
0001
1000
0010
,
1000
0000
0010
0100
0010
0000
1000
0000
0100
0000
1000
0000
0010
0000
1000
0000
,
0001
0010
0100
1000
0010
0000
0100
0001
,
0100
0000
0001
0010
0001
0000
0100
0000
,
0010
1000
0010
0100
0001
0000
0001
0010
,
0001
0000
1000
0100
1000
0010
0100
0001
,
1000
0001
0010
0100
1000
0000
0010
0100
,
0001
0000
1000
0100
0000
1000
0010
0100
,
0000
0000
0000
0000
,
0000
0000
0000
0000
0000
0000
0002
0003
,
0010
0000
1100
0000
1000
0010
0100
0000
,
0001
0100
0010
0001
0010
0100
0001
0010
,
0100
0000
0110
0010
0001
1000
0010
0100
,
0001
0000
1000
0010
1000
0000
0010
0100
0010
0000
0100
0000
0001
0000
0010
0000
,
0100
0000
0000
0001
1000
0000
0010
0000
0100
0000
0001
0000
0010
0000
0000
0000
,
0100
0000
0000
0000
1000
0000
0010
0000
0001
0000
0010
0000
0100
0000
0010
1000
,
0000
0001
0100
0001
1000
0010
0100
0000
,
0001
0000
0010
0000
0100
0000
0010
0000
0100
0000
1000
0010
0000
0010
0100
0000
,
0001
0000
0010
0000
0100
0000
0010
0000
0001
0000
0100
0010
0000
0010
1000
0000
,
0001
0000
0010
0000
0100
0000
0010
0000
0100
0000
1000
0010
0000
0010
0100
0000
,
0001
0000
0010
0000
0100
0000
0010
0000
M001
0000
0000
0000
1000
0001
0000
0100
,
1000
0010
0001
0010
0100
0001
0010
0001
,
1000
1000
0010
0100
0001
0010
0001
0100
,
1000
1000
0100
0001
0010
0001
0100
0010
,
1000
1000
0100
0010
0100
0001
0100
1000
,
0001
0001
0010
0001
1000
1000
0010
2000
,
3001
0000
0100
0000
0010
1000
0000
0100
0000
0010
0000
0100
0000
1000
0000
0000
,
0001
0100
0010
0100
0001
1000
0010
1000
,
1100
0110
0011
0101
,
0100
0010
2000
0000
3100
0010
0100
0010
,
0001
0100
0020
0000
0030
0000
0000
0000
,
0000
0100
0002
0000
0013
0100
0010
0100
,
1000
0000
0010
0000
0200
0000
0000
0000
0310
0000
0000
0001
1000
0000
0001
0000
,
1001
0001
0011
0001
,
1001
1000
1010
1000
,
0001
0100
1000
0001
0100
1000
0010
1000
,
0100
0000
0000
0001
0000
0000
1000
0000
0000
0100
0000
0000
0001
0000
1000
0000
0001
0000
0100
0000
0000
0000
0000
0000
,
0010
0000
0100
0000
0001
0000
0000
0000
0100
0000
0000
1000
0000
0000
0010
0000
,
1000
0001
1000
0010
0000
0000
0000
0000
,
0101
0000
0001
0000
0010
0000
0001
0000
0100
0000
0010
0000
0100
0000
0001
1000
,
0001
0000
0100
0000
0010
0000
0001
0000
0010
0000
0100
0000
1000
0000
0100
0001
,
0100
0001
0010
1000
0010
0001
0100
0010
,
1000
0000
0100
0010
0100
0000
0010
0001
0010
0000
0001
0000
0010
0000
0100
0000
,
100M
0000
0000
0100
0001
0000
1000
0000
0010
0000
0001
0000
0010
0000
0100
1000
,
0100
0000
0001
0000
1000
0000
0100
0000
0010
0000
0100
0000
1000
0000
0010
0100
,
0000
0010
1000
0001
0100
0100
0010
0000
,
1001
0000
1000
0000
0010
0000
0100
0000
0001
0000
0010
0001
0000
0001
0100
0000
,
0010
0000
0100
0000
0001
0000
1000
0000
0001
0000
0100
0010
0000
0010
1000
0000
,
0001
0000
1000
0000
0001
0000
0100
0000
0001
0000
0010
0100
0000
0100
1000
0000
,
0010
0000
0100
0000
0010
0000
1000
0000
0100
0000
0010
0001
0010
0000
0100
0000
,
2000
0000
0000
3020
0000
0000
0130
0000
0002
0000
0000
0023
0000
0000
0130
0000
,
2000
0000
0000
3020
0000
0000
0130
0000
0002
0000
0000
0023
0000
0000
0031
0000
,
0100
0000
0010
0000
0100
0000
0010
0000
1000
0000
0001
0100
0000
0100
0010
0000
,
1000
0000
2002
0000
0000
0000
0000
3003
,
0100
0100
0001
1000
0001
1000
0001
1000
,
0010
0010
0100
0001
0100
0001
0100
0001
,
0010
0010
0100
1000
0100
1000
0100
1000
,
0001
0001
0100
0010
0100
0010
0100
0010
,
1000
0010
0100
0001
0010
0001
0100
0010
,
1000
1000
0100
0010
0001
0010
0200
0000
,
1300
1000
0001
0010
1000
0010
0001
0100
,
0010
0010
1000
0100
0010
0001
2000
0000
,
3001
0001
0100
0010
1000
1000
0100
0020
,
0031
0001
0100
0010
1000
1000
0001
0100
,
1001
0000
1000
0100
1001
0000
0010
1000
,
0001
0000
0010
0001
0010
0000
0100
0000
1000
0000
0010
0000
0100
0000
0000
0000
,
2002
0000
0000
3003
0000
0000
0000
0000
;
