#VERSION:0.83;
#TITLE:Literary Nonsense;
#SUBTITLE:;
#ARTIST:Eve;
#TITLETRANSLIT:;
#SUBTITLETRANSLIT:;
#ARTISTTRANSLIT:;
#GENRE:;
#CREDIT:SKooT;
#MUSIC:Literary Nonsense.ogg;
#BANNER:Literary Nonsense Banner.png;
#BACKGROUND:Literary Nonsense Bg.png;
#CDTITLE:;
#SAMPLESTART:29.892;
#SAMPLELENGTH:12.865;
#SELECTABLE:YES;
#OFFSET:-0.067;
#BPMS:0.000=153.900;
#STOPS:;
#SPEEDS:0.000=1.000=0.000=0,
170.000=0.000=0.000=0,
172.000=1.000=0.000=0,
172.125=0.000=0.000=0,
172.250=1.000=0.000=0,
172.375=0.000=0.000=0,
172.500=1.000=0.000=0,
172.625=0.000=0.000=0,
172.750=1.000=0.000=0,
173.000=0.000=0.000=0,
173.250=1.000=0.000=0,
173.375=0.000=0.000=0,
173.500=1.000=0.000=0,
173.563=0.000=0.000=0,
173.625=1.000=0.000=0,
173.688=0.000=0.000=0,
173.750=1.000=0.000=0,
173.813=0.000=0.000=0,
173.875=1.000=0.000=0
;
#BGCHANGES:;
#FGCHANGES:;

//--------------- dance-single - SKooT ----------------
#NOTEDATA:;
#STEPSTYPE:dance-single;
#DESCRIPTION:SKooT;
#DIFFICULTY:Beginner;
#METER:3;
#RADARVALUES:0,0,0,0,0;
#NOTES:
0000
0000
0000
0000
,
0000
0000
0000
0000
,
0000
0000
0000
0000
,
0000
0000
1000
0000
,
1000
0000
0001
0000
,
0001
0000
1000
0000
,
1000
0000
0100
0000
,
0100
0000
0010
0000
,
0010
0000
0001
0000
,
0001
0000
0100
0000
,
0100
0000
0010
0000
,
0010
0000
0100
0000
,
0001
0000
0001
0000
,
1000
0000
1000
0000
,
0100
0000
0010
0000
,
0010
0000
0100
0000
,
1000
0000
1000
0000
,
0001
0000
0001
0000
,
1000
0000
0001
0000
,
0000
0000
1001
0000
,
0000
0000
1000
0000
,
0000
0000
0100
0000
,
0100
0000
0010
0000
,
0000
0000
0001
0000
,
0001
0000
1000
0000
,
1000
0000
0010
0000
,
0000
0000
1001
0000
,
0000
0000
1001
0000
,
0000
0000
1000
0000
,
0000
0000
0010
0000
,
0010
0000
0100
0000
,
0000
0000
0001
0000
,
0001
0000
0001
0000
,
1000
0000
0010
0000
,
0010
0000
0010
0000
,
1000
0000
0001
0000
,
0001
0000
1000
0000
,
1000
0000
0010
0000
,
0010
0000
0100
0000
,
0100
0000
0001
0000
,
0001
0000
0100
0000
,
0100
0000
0010
0000
,
0010
0000
0010
0000
,
0000
0000
0100
0000
,
0100
0000
0001
0000
,
0001
0000
1000
0000
,
1000
0000
0010
0000
,
0010
0000
1000
0000
,
0001
0000
1000
0000
,
0001
0000
0001
0000
,
0010
0000
0100
0000
,
1000
0000
1001
0000
,
0000
0000
0001
0000
,
0000
0000
0010
0000
,
0010
0000
0100
0000
,
0000
0000
1000
0000
,
1000
0000
0001
0000
,
0001
0000
0100
0000
,
0000
0000
1001
0000
,
0000
0000
1001
0000
,
0000
0000
0001
0000
,
0000
0000
0100
0000
,
0100
0000
0010
0000
,
0000
0000
1000
0000
,
1000
0000
1000
0000
,
0001
0000
0100
0000
,
0100
0000
0100
0000
,
0001
0000
0000
0000
;

//--------------- dance-single - SKooT ----------------
#NOTEDATA:;
#STEPSTYPE:dance-single;
#DESCRIPTION:SKooT;
#DIFFICULTY:Easy;
#METER:5;
#RADARVALUES:0,0,0,0,0;
#NOTES:
0000
0000
0000
0000
,
0000
0000
0000
0000
,
0000
0000
0000
0000
,
0000
0000
1000
0010
,
1000
0000
0001
0100
,
0001
0000
1000
0001
,
1000
0000
0001
0010
,
0001
0000
1000
0100
,
1000
0000
0001
1000
,
0001
0000
0010
0100
,
0010
0000
0001
1000
,
0001
0000
1001
0000
,
0001
0000
0100
0000
,
1000
0000
0001
0000
,
1000
0000
0100
0000
,
0001
0000
1001
0000
,
0001
0000
0100
0000
,
1000
0000
1001
0000
,
0010
0100
1000
0000
,
0000
0000
0010
1000
,
0010
0000
1000
0100
,
1000
0000
0001
1000
,
0001
1000
0001
0001
,
1000
1000
0010
0100
,
0010
0000
1000
0001
,
1000
0000
0010
0000
,
0100
0000
1001
0000
,
0100
0000
1001
0000
,
0001
0000
0100
0000
,
1000
0000
0001
1000
,
0001
1000
0010
0010
,
0100
0100
1001
0000
,
1001
0000
1001
0000
,
1001
0000
0010
0010
,
1000
1000
0001
0001
,
1001
0000
0001
0010
,
0001
0000
1000
0010
,
1000
0000
0001
0100
,
0001
0000
1000
0100
,
1000
0000
0001
0001
,
1000
0000
1000
1000
,
0001
0000
0001
0001
,
1000
0010
0010
0000
,
0000
0000
1000
1000
,
1001
0000
0001
0001
,
1001
0000
0001
1000
,
0001
0010
0001
1000
,
0001
0010
0100
0000
,
1000
0000
0010
0010
,
0100
0000
0001
0000
,
1001
0000
1000
0000
,
0001
0000
0100
0010
,
0100
0000
0001
0010
,
0001
0000
1000
0001
,
1000
0001
1000
1000
,
0001
0001
0100
0010
,
0100
0000
0001
1000
,
0001
0000
0100
0000
,
0010
0000
1001
0000
,
0010
0000
1001
0000
,
1000
0000
0010
0000
,
0001
0000
1000
0001
,
1000
0001
0100
0100
,
0010
0010
1001
0000
,
1001
0000
0110
0000
,
0110
0000
0100
0100
,
0001
0001
1000
1000
,
1001
0000
0000
0000
;

//--------------- dance-single - SKooT ----------------
#NOTEDATA:;
#STEPSTYPE:dance-single;
#DESCRIPTION:SKooT;
#DIFFICULTY:Medium;
#METER:9;
#RADARVALUES:0,0,0,0,0;
#NOTES:
0000
0000
0000
0000
,
0000
0000
0000
0000
,
0000
0000
0000
0000
,
0000
0000
0000
0000
1000
0010
1000
0000
,
1000
0000
0000
0001
0000
0000
0001
0000
0100
0000
0000
0000
0100
0000
0000
0000
,
0100
0000
0000
0010
0000
0000
0010
0000
1000
0000
0000
0000
1000
0000
0000
0000
,
1000
0000
0000
0100
0000
0000
0100
0000
0000
0000
0010
0000
0000
0001
0000
0000
,
0100
0000
0000
0010
0000
0000
1000
0000
0000
0000
0001
0000
0001
0000
0001
0000
,
0100
0000
0000
0010
0000
0000
1000
0000
0000
0000
0001
0000
0010
0000
0000
0000
,
0001
0000
0000
1000
0000
0000
0010
0000
0000
0000
0100
0000
0010
0000
0000
0000
,
1000
0000
1000
0001
0100
0000
0010
1000
,
0001
0000
0010
0000
1001
0000
0010
0100
,
1000
0000
0000
0010
0000
0000
1000
0000
0001
0000
0000
0000
0000
0000
0010
0000
,
0100
0000
0000
1000
0000
0000
0001
0000
0100
0000
0000
0000
0000
0000
0010
0000
,
1000
0000
0000
0100
0000
0000
0010
0000
0001
0000
0010
0000
0001
0000
0000
0000
,
1000
0010
1000
0000
1001
0000
0000
0010
,
0100
0000
0000
1000
0000
0000
0001
0000
0100
0000
0000
0000
0000
0000
0010
0000
,
1000
0000
0000
0100
0000
0000
0010
0000
0000
0000
0001
0000
1000
0000
0000
0000
,
0010
0000
0100
0000
0001
1000
0001
1000
,
0001
0000
0000
0000
0100
0001
1000
0010
,
0000
0100
0000
0020
0000
0030
1000
0001
,
0000
0100
0000
0010
0100
0010
0100
0000
,
0001
1000
0001
0000
0001
0100
0100
0000
,
0001
1000
1000
0000
0001
0010
0001
0000
,
0100
0001
0100
0000
0010
0100
0010
0000
,
0010
0000
0000
0100
0000
0000
0000
0000
0001
0000
0100
0000
0010
0000
0000
0000
,
1000
0100
0010
0010
0000
0100
0010
0000
,
0010
0000
0001
0000
0001
1000
0001
0010
,
0000
0100
0000
0010
0000
0001
1000
0100
,
0000
0010
0000
0100
1000
0100
0010
0000
,
0010
0001
0100
0000
0001
0010
0010
0000
,
0001
1000
1000
0000
0100
0000
0000
0010
,
0100
0000
0000
0100
1000
0000
0000
1000
,
0010
0000
0000
0100
0001
0010
0001
0000
,
1000
0010
1000
0000
1001
0000
0110
0000
,
1001
0000
0000
0000
0000
0100
0001
0010
,
0001
0000
0000
1000
0000
0000
1000
0000
0000
0000
0100
0000
0010
0000
0000
0000
,
0010
0000
0000
0001
0000
0000
0001
0000
0000
0000
1000
0000
0001
0000
0000
0000
,
0001
0000
0000
0010
0000
0000
0010
0000
0000
0000
0001
0000
0000
0100
0000
0000
,
0010
0000
0000
1000
0000
0000
0001
0000
0000
0000
1000
0000
1000
0000
1000
0000
,
0010
0000
0000
0100
0000
0000
0010
0000
0000
0000
1000
0000
0001
0000
0000
0000
,
0010
0000
0000
0001
0000
0000
0100
0000
0000
0000
0001
0000
0010
0000
0000
0000
,
0100
1000
0000
0000
,
0000
0000
0000
0000
0001
0100
0001
0000
,
1000
0000
0000
1000
0000
0000
0000
0000
0010
0000
0100
0000
0010
0000
0000
0000
,
0100
0000
0000
0100
0000
0000
0000
0000
0001
0000
1000
0000
0010
0000
0000
0000
,
0010
0100
0001
0000
0001
1000
0010
0000
,
0010
1000
0100
0000
1001
0000
0000
1000
,
0010
0000
0000
0010
0000
0000
1000
0000
0100
0000
0000
0000
0001
0000
0000
0000
,
0100
0000
0010
0010
0000
1000
0001
0000
,
0001
0000
1000
0010
0100
0000
0010
0100
,
0001
0000
0001
0000
0001
1000
0001
0100
,
0000
0010
0000
0200
0000
0310
1000
0100
,
0000
1000
0000
0100
0010
0001
1000
0000
,
1000
0001
0100
0000
0100
0001
0001
0000
,
1000
0010
0010
0000
1000
0100
1000
0000
,
0001
0100
0001
0000
0100
0010
1000
0000
,
0100
0000
0000
0100
0000
0000
0000
0000
1000
0000
0010
0000
0100
0000
0000
0000
,
0001
0010
0100
0100
0000
0010
0100
0000
,
0100
0000
1000
0000
1000
0001
1000
0100
,
0000
0010
0000
0100
0000
1000
0001
0010
,
0000
0100
0000
0010
0001
0010
0100
0000
,
0100
1000
0010
0000
1000
0001
0001
0000
,
1000
0000
0010
0000
0010
0000
0000
0000
1000
0000
0000
0001
0000
0000
0100
0000
,
0010
0000
0000
1000
0000
0000
0001
0000
0100
0000
0000
0010
0000
0000
1000
0000
,
0001
0000
0000
0000
0000
0000
0010
0000
0100
0000
0000
1000
0000
0000
0001
0000
,
0010
0000
0000
0100
0000
0000
1000
0000
0010
0000
0000
0000
0100
0000
0000
0000
,
1001
0000
0000
0000
;

//--------------- dance-single - SKooT ----------------
#NOTEDATA:;
#STEPSTYPE:dance-single;
#DESCRIPTION:SKooT;
#DIFFICULTY:Hard;
#METER:13;
#RADARVALUES:0,0,0,0,0;
#NOTES:
0000
1000
0100
0000
0011
0000
0000
0101
,
0000
0000
1001
0000
0000
0010
1000
1000
,
1010
0000
0110
0000
0101
0000
1001
0000
0000
0000
0000
0000
,
0000
0000
0000
0000
1000
0010
1000
0100
,
1000
0000
0000
0001
0000
0000
0001
0000
0100
0000
0010
0000
1000
0000
0001
0000
,
0100
0000
0000
0010
0000
0000
0010
0000
1000
0000
0001
0000
0010
0000
0100
0000
,
1000
0000
0000
0100
0000
0000
0100
0000
0000
0000
0110
0000
0000
1100
0000
0000
,
0110
0000
0000
0011
0000
0000
0101
0000
0000
0000
1000
0001
1000
0001
1000
0001
,
1000
0000
0000
0010
0000
0000
0100
0000
0001
0000
1000
0000
0010
1000
0000
1000
,
0100
0000
0000
1000
0000
0000
0010
0000
0100
0000
0001
0000
1000
0000
0010
0000
,
0100
0010
1000
0010
0100
0001
0010
0001
,
0100
0001
0010
0000
1001
0000
0010
0100
,
1000
0000
0000
0010
0000
0000
0001
0000
0101
0000
0000
0000
0001
0000
1000
0000
,
0001
0000
0000
0010
0000
0000
1000
0000
1100
0000
0000
0000
0010
0000
1000
0000
,
0001
0000
0000
0100
0000
0000
0010
0000
1000
0000
0100
0000
1000
0000
0010
0000
,
0001
0010
1000
0001
0101
0000
0100
0010
,
1000
0000
0000
0001
0000
0000
0010
0000
0110
0000
0000
0000
0010
0000
0001
0000
,
1000
0000
0000
0100
0000
0000
0001
0000
0011
0000
0010
0000
0100
0000
1000
0000
,
1010
0010
0100
0001
1000
0001
1000
0001
,
0100
0000
0000
0000
0100
0001
1000
0010
,
0000
0000
0100
0010
0000
0000
0020
0000
0000
0000
0130
0000
0001
0000
1000
0000
,
0000
0000
0001
1000
0000
0000
0100
0000
0010
0000
0001
0000
0010
0000
0100
0000
,
0010
0000
0100
1000
0100
0000
0010
0000
0001
0000
0100
0000
0100
0000
0000
0000
,
1000
0001
0001
1000
0010
0100
0001
0100
,
0010
0000
1000
0001
0000
0000
0010
0000
0001
0000
1000
0000
0010
0000
0100
0000
,
0001
0000
0010
0001
0000
0000
0100
0000
0001
0000
1000
0000
0100
0000
1000
0000
,
0010
1000
0001
0010
0110
0100
1000
1001
,
0001
0000
0100
0000
0001
0010
0001
1000
,
0000
0000
0001
1000
0000
0000
0100
0000
0000
0000
1000
0000
0010
0000
0100
0000
,
0000
0000
0010
1000
0000
0000
0001
0000
0100
0000
1000
0000
0100
0000
0001
0000
,
1000
0000
0001
0010
0001
0000
1000
0000
0001
0000
0100
0000
0100
0000
0000
0000
,
0001
0000
1000
0000
1000
0000
0000
0000
0001
0000
0000
0011
0000
0000
0001
0000
,
0100
0000
0000
1010
0000
0000
0010
0000
1000
0000
0000
0011
0000
0000
0001
0000
,
1000
0000
0001
0000
1000
0000
0100
0000
0010
0000
0001
0100
0001
0000
1000
0000
,
0010
0000
1000
0010
1000
0000
0100
0000
0110
0000
0000
0000
0011
0000
0000
0000
,
1001
0000
0000
0000
0000
0000
0000
0000
0100
0000
0001
0000
1000
0010
0000
0010
,
0100
0000
0000
0001
0000
0000
0001
0000
0010
0000
0001
0000
0100
0010
0000
0010
,
1000
0000
0000
0100
0000
0000
1000
0000
0010
0000
0100
0000
0001
0010
0000
0010
,
0100
0000
0000
1000
0000
0000
0001
0000
0100
0000
0010
0000
1000
0001
0000
0001
,
0100
0000
0000
0001
0000
0000
1000
0000
0010
0000
0100
0010
0100
0010
0100
0010
,
0100
0000
0000
0001
0000
0000
0100
0000
0001
0000
1000
0000
0001
0100
0000
0100
,
0010
0000
1000
0100
0000
0000
0010
0000
0001
0000
0001
1000
0001
0000
0100
0000
,
0001
0010
0100
1000
0000
0000
0000
0000
,
0000
0000
0000
0000
0001
0100
0001
1000
,
0100
0000
0000
0110
0000
0000
0010
0000
0100
0000
0010
0000
0001
0000
1000
0000
,
0010
0000
0000
0110
0000
0000
1000
0000
0010
0000
0100
0000
1000
0000
0100
0000
,
0010
0001
0010
0100
0001
1000
0010
0100
,
0001
0010
0100
1000
0001
0000
0001
1000
,
0010
0000
0000
0001
0000
0000
1000
0000
0100
0000
0010
0000
0100
0000
1000
0000
,
0001
0000
1000
0001
0101
0100
0010
0000
,
1010
1000
0100
0000
0001
0000
1000
0100
,
1000
0000
1000
0000
0010
1000
0001
0100
,
0000
0000
0010
0100
0000
0000
0200
0000
0000
0000
0310
0000
1000
0000
0001
0000
,
0000
0000
1000
0001
0000
0000
0010
0000
0100
0000
1000
0000
0100
0000
0010
0000
,
0100
0000
0010
0001
0010
0000
0100
0000
1000
0000
0010
0000
0010
0000
0000
0000
,
0001
1000
1000
0001
0100
0010
1000
0010
,
0100
0000
0001
1000
0000
0000
0100
0000
1000
0000
0001
0000
0100
0000
0010
0000
,
1000
0000
0001
0010
0000
0000
0100
0000
1000
0000
0001
0000
0010
0000
0001
0000
,
0100
0001
1000
0100
0110
0010
0001
1001
,
1000
0000
0010
0000
1000
0100
1000
0001
,
0000
0000
1000
0001
0000
0000
0010
0000
0000
0000
0001
0000
0100
0000
0001
0000
,
0000
0000
0100
0010
0000
0000
1000
0000
0010
0000
0001
0000
0010
0000
1000
0000
,
0001
0000
1000
0100
1000
0000
0001
0000
1000
0000
0010
0000
0010
0000
0000
0000
,
1000
0000
0001
0000
0001
0000
0000
0000
1000
0000
0000
1100
0000
0000
1000
0000
,
0010
0000
0000
0101
0000
0000
0100
0000
0001
0000
0000
1100
0000
0000
1000
0000
,
0001
0000
1000
0000
0001
0000
0010
0000
0100
0000
1000
0010
1000
0000
0001
0000
,
0100
0000
0001
0100
0001
0000
0010
0000
0110
0000
0000
0000
1100
0000
0000
0000
,
1001
0000
0000
0000
;
