#TITLE:Koi wa a la mode;
#SUBTITLE:- Tokyo Mew Mew ED;
#ARTIST:The Mew Mews;
#TITLETRANSLIT:;
#SUBTITLETRANSLIT:;
#ARTISTTRANSLIT:;
#GENRE:;
#CREDIT:;
#MUSIC:Koi wa a la mode.ogg;
#BANNER:Koi wa a la mode Banner.png;
#BACKGROUND:Koi wa a la mode BG.png;
#CDTITLE:;
#SAMPLESTART:50.059;
#SAMPLELENGTH:17.250;
#SELECTABLE:YES;
#OFFSET:0.191;
#BPMS:0.000=160.000;
#STOPS:;
#BGCHANGES:0.000=Koi wa a la mode.avi=1.000=1=0=0=StretchNoLoop==CrossFade==;
#FGCHANGES:;

//--------------- dance-single - SKooT ----------------
#NOTES:
     dance-single:
     SKooT:
     Beginner:
     2:
     0,0,0,0,0:
0000
0000
0010
0000
,
0000
0000
0000
0000
,
0100
0000
0000
0000
,
0001
0000
1000
0000
,
0010
0000
0100
0000
,
0010
0000
1000
0000
,
0001
0000
0100
0000
,
0010
0000
0100
0000
,
0001
0000
0010
0000
,
0001
0000
1000
0000
,
0000
0010
0010
0000
,
0000
0100
0100
0000
,
0001
0000
1000
0000
,
0010
0000
2000
3000
,
0001
0001
0001
0000
,
0100
0100
0100
0000
,
0001
0000
1000
0000
,
0010
0000
0000
0000
0200
0000
0000
0300
,
0001
0001
0001
0000
,
1000
1000
1000
0000
,
0100
0000
0010
0000
,
0002
0003
2000
3000
,
0100
0100
0100
0000
,
0010
0010
0010
0000
,
0200
0000
0000
0300
0100
0000
0000
0000
,
2000
0000
0000
3000
1000
0000
0000
0000
,
0020
0000
0000
0030
0010
0000
0000
0000
,
0100
0000
0001
0000
,
1000
0000
0000
0010
0000
0000
0000
0000
,
1000
0000
0000
0010
0000
0000
0000
0000
,
1000
1000
1000
0000
,
0001
0001
0001
0000
,
1000
0000
1000
0000
,
0001
0000
1000
0000
,
0010
0000
0100
0000
,
0100
0000
0001
0000
,
0010
0000
0100
0000
,
1000
0000
0100
0000
,
0010
0000
0001
0000
,
0001
0000
0100
0000
,
0010
0000
0100
0000
,
0001
0000
1000
1000
,
0000
0010
0010
0000
,
1000
1000
0000
0000
,
0001
0000
0010
0000
,
0001
0000
0100
0000
,
0010
0000
0010
0000
,
1000
0000
0100
0000
,
0010
0000
0001
0000
,
0010
0000
0100
0000
,
1000
0000
1000
0000
,
0010
0000
0100
0000
,
0010
0000
1000
0000
,
0001
0001
0000
0100
,
0100
0000
0001
0001
,
0000
0000
1000
0000
,
0010
0000
2000
0000
,
0001
0000
3002
0000
,
1000
0000
1003
0000
;

//--------------- dance-single - SKooT ----------------
#NOTES:
     dance-single:
     SKooT:
     Easy:
     5:
     0,0,0,0,0:
0000
0000
0010
0010
,
0000
0000
0000
0000
,
0100
0100
0000
0000
,
0110
0000
1001
0000
,
0010
0001
1000
0100
,
0010
0001
0100
0001
,
0001
0100
0001
0010
,
0100
1000
0001
0100
,
1001
0000
0010
1000
,
0010
0010
0100
0001
,
1000
0100
0100
0000
,
0001
0100
0100
0000
,
1001
0010
1000
0001
,
0010
0001
2000
3000
,
0010
1000
0001
0000
,
0001
1000
0100
0000
,
0110
0000
0010
0100
,
0010
0001
2000
3000
,
0010
0100
0001
0000
,
0100
0010
1000
0000
,
1001
1000
0010
0100
,
0002
0003
2000
3000
,
0001
0001
0010
0000
,
0010
0001
1000
0000
,
0002
0000
0000
0103
0000
0000
0000
0000
,
0001
0000
0000
1000
0000
0000
0000
0020
,
0000
0000
0000
0100
0000
0030
0000
0000
,
0001
0000
0000
0001
0000
0100
0000
0000
,
0010
0000
0000
0110
0000
0000
0000
0000
,
0100
0000
0000
0010
0000
0000
1000
0000
,
0010
0010
1010
0000
,
0100
0100
0101
0000
,
0001
0010
0100
0010
,
0001
0000
1000
0010
,
0100
0010
1000
1010
,
0101
0000
0010
0001
,
0011
1000
0010
0100
,
0001
0001
0100
0010
,
1000
0001
0100
0010
,
0010
0000
1000
0000
1010
0000
0000
0010
,
0000
0010
1000
0100
,
0010
0001
1000
1000
,
0000
0110
0110
0000
,
0001
0001
0000
0000
,
0011
0000
1010
0000
,
0001
0100
0010
0100
,
0001
0101
1010
0000
,
0001
1000
1010
0010
,
0100
0001
1000
0010
,
0010
0100
0001
1000
,
0010
0100
0100
0001
,
0011
0000
0000
0100
0000
0000
0100
0000
,
0001
0010
0100
1000
,
0001
0001
0000
0110
,
0110
0000
1000
1000
,
0000
0000
1100
0000
,
0101
0001
2000
0100
,
0001
0000
0100
3000
0002
0000
0100
0000
,
1000
0000
0100
0003
1000
0000
0000
0000
;

//--------------- dance-single - SKooT ----------------
#NOTES:
     dance-single:
     SKooT:
     Medium:
     8:
     0,0,0,0,0:
0000
0000
0000
0000
0010
1000
0010
0100
,
0000
0000
0000
0000
,
0100
0001
0100
0010
0000
0000
0000
0000
,
0110
0000
1001
0000
,
0011
1010
0101
1100
,
0010
0001
1000
0010
,
1100
0101
1010
0011
,
0100
1000
0001
0100
,
1001
0000
0000
1000
0000
0020
0000
0230
,
0000
0000
0301
0000
0010
0000
0000
0001
,
0000
0010
0100
0000
0100
1000
0000
0000
,
0000
1000
0100
0000
0100
0010
0000
0000
,
1001
0000
0000
0100
0010
0100
0000
0001
,
0000
0002
2003
3000
,
0100
1000
0100
0000
1000
0001
0000
0000
,
0010
0001
0010
0000
0001
1000
0000
0000
,
0110
0000
0000
1000
0000
0010
0000
0002
,
0000
0003
0010
0000
2000
0000
0000
3000
,
0010
0100
0001
0000
0001
0200
0000
0300
,
0100
0010
1000
0000
1000
0010
0000
0000
,
1001
0000
0000
1000
0000
0010
0000
0200
,
0000
0300
0002
0000
0013
0000
0000
0000
,
0100
0010
0001
0000
0100
0001
0000
0000
,
0010
0100
1000
0000
0010
1000
0000
0000
,
0020
0000
0000
0130
0000
0000
0000
0010
,
1000
0100
0000
0010
0000
0100
0000
2000
,
0000
0010
0000
0010
0000
3010
0000
0100
,
0001
0010
0000
0001
0000
1000
0000
0010
,
0100
0000
0000
0110
0000
0000
0000
0010
,
1000
0000
0000
1001
0000
0000
1000
0000
,
0001
0100
0001
0000
0001
1000
0000
0000
,
1000
0010
1000
0000
1000
0001
0000
0000
,
0000
0010
0100
2000
0000
3100
0010
0001
,
0000
0000
0000
0000
0100
0010
0100
0010
,
0000
1000
0001
1000
0001
0000
0011
0000
,
1010
0000
0010
0000
0010
1000
0100
0000
,
1001
0000
1000
0100
0010
0000
0001
0100
,
0010
0000
1000
0000
0100
0010
0000
0010
,
0000
0001
1000
0010
0100
0000
0010
0000
,
1000
0000
0002
0000
0013
0000
0000
0001
,
0000
0001
1000
0100
,
0010
0000
0001
0000
1000
0001
1000
0001
,
0000
0110
0110
0000
,
0001
1000
0001
1000
0000
0000
0001
0000
,
0101
0100
1100
0001
,
0010
0000
0010
0100
0000
0100
0000
1000
,
0001
1100
0101
0001
,
0100
0001
0010
0000
1001
0000
1000
0000
,
1000
0010
0100
0000
0100
0000
0001
0000
,
0010
0100
0000
0100
0000
1000
0000
0001
,
0100
0001
1000
0002
,
0103
0000
0000
1000
0000
0001
0000
0000
,
0001
0010
0100
1000
,
0001
1000
0001
1000
0000
0000
0110
0000
,
0110
0000
0000
0000
1000
0001
1000
0001
,
0000
0010
1100
0010
,
0101
0010
2000
0100
,
0001
0000
0100
3000
0002
0000
0100
0000
,
1000
0000
0100
0003
1000
0000
0000
0000
;

//--------------- dance-single - SKooT ----------------
#NOTES:
     dance-single:
     SKooT:
     Hard:
     11:
     0,0,0,0,0:
0000
0000
0000
0000
0010
1000
0010
0100
,
0000
0100
0001
0100
0000
0010
0000
0010
,
0100
0001
0100
0010
0000
0010
1000
0010
,
0110
0010
1001
0100
,
0011
1010
0101
1100
,
0010
0100
0000
0001
1000
0000
0010
0000
,
1100
0101
1010
0011
,
0100
0010
0000
1000
0001
0000
0100
0000
,
1001
0000
0000
1000
0100
0020
0000
0230
,
0010
0000
1300
0000
0010
0100
0000
0001
,
0000
0010
0100
0010
0001
0100
0000
1000
,
0000
0100
0010
0100
1000
0001
0000
0001
,
1000
0000
0000
0010
0100
0010
0000
1000
,
0001
0000
2000
0000
3020
0100
0030
0001
,
0100
1000
0100
0010
0100
0001
0000
0000
,
0010
0001
0010
0100
0010
1000
0000
1000
,
0110
0000
0001
1000
0010
0100
0000
0002
,
1000
0003
0010
0000
1000
0002
0000
0103
,
0010
0100
0001
1000
0001
0200
0000
0310
,
0100
0010
1000
0001
1000
0010
0000
0010
,
0100
0000
0010
0100
0001
0010
0000
0200
,
0010
0300
0002
0000
0103
1000
0000
1000
,
0100
0010
0001
0010
0100
1000
0000
0010
,
0100
1000
0100
0010
0001
0010
0000
1000
,
0020
0000
0000
0130
0000
0100
0000
0010
,
1000
0100
0000
0010
0000
0100
0000
2000
,
0000
0010
0000
0010
0000
3010
0000
0100
,
0001
0010
0000
0001
0000
1000
0000
0010
,
0100
0000
0100
0010
0000
1000
0001
1000
,
0010
0000
0010
1000
0000
0100
1000
0100
,
0010
0001
0010
0100
0010
0001
0000
0010
,
0100
1000
0100
0010
0100
1000
0000
1000
,
0000
0100
0010
0002
0000
0013
0100
1000
,
0000
0000
0000
0000
0010
0100
0010
0100
,
0000
0001
1000
0001
1000
0001
0011
0000
,
1010
0000
0100
0000
0010
1000
0100
0000
,
0101
0000
1000
0100
0010
0001
1000
0010
,
0100
0000
1000
0000
0100
0010
0000
0010
,
0000
1000
0001
0010
0001
0100
0010
0000
,
0001
0000
2000
0000
3010
0100
0000
0001
,
0000
0001
0010
0200
0001
0000
0010
0000
,
1000
0300
0100
0000
1000
0001
1000
0001
,
0000
0110
0110
0000
,
0001
1000
0001
1000
0000
0000
0001
1000
,
1001
0010
0100
0010
0110
0100
0001
1000
,
1001
0001
0010
0100
0000
0100
0010
0001
,
1000
0010
1100
0000
0101
0000
0010
0000
,
0100
0001
0010
0000
1010
0000
0001
0010
,
0100
1000
0001
0100
0010
0000
0001
0000
,
0010
0100
0000
0100
0000
0001
1000
0100
,
1000
0010
0100
0000
1000
0000
0002
0000
,
0103
0010
0000
1000
0000
1000
0100
0020
,
1000
0000
0100
0000
0001
0030
0010
0000
,
0001
1000
0001
1000
0000
0000
0110
0000
,
0110
0000
0000
0000
1000
0001
1000
0001
,
0000
0000
1000
0001
1001
0100
0010
0100
,
0110
0010
1000
0000
2001
0000
0100
0000
,
0001
0000
0100
3000
1002
0000
0100
0000
,
1000
0000
0100
0003
1001
0000
0000
0000
;
