#TITLE:Kigeki;
#SUBTITLE:- SPYxFAMILY ED;
#ARTIST:Gen Hoshino;
#TITLETRANSLIT:;
#SUBTITLETRANSLIT:;
#ARTISTTRANSLIT:;
#GENRE:;
#CREDIT:;
#MUSIC:Kigeki.ogg;
#BANNER:Kigeki Banner.png;
#BACKGROUND:Kigeki BG.png;
#CDTITLE:;
#SAMPLESTART:2.763;
#SAMPLELENGTH:21.818;
#SELECTABLE:YES;
#OFFSET:0.646;
#BPMS:0.000=176.000;
#STOPS:;
#BGCHANGES:2.100=Kigeki.avi=1.000=1=0=0=StretchNoLoop==CrossFade==;
#FGCHANGES:;

//--------------- dance-single - SKooT ----------------
#NOTES:
     dance-single:
     SKooT:
     Beginner:
     2:
     0,0,0,0,0:
0000
0000
0000
0000
,
0000
0000
0000
0000
,
0000
0000
0010
0000
,
1000
0000
0010
0000
,
1000
0000
0001
0000
,
0010
0000
0001
0000
,
0010
0000
0001
0000
,
0100
0000
0100
0000
,
0001
0000
0001
0000
,
1000
0000
1000
0000
,
0001
0000
0010
0000
,
0100
0000
0010
0000
,
0001
0000
0010
0000
,
0100
0000
1000
0000
,
2000
0000
0000
3002
,
0000
0000
0003
2000
,
0000
0000
3000
0002
,
0000
0000
0003
2000
,
0000
3000
0001
0000
,
1000
0000
0010
0000
,
0100
0000
0010
0000
,
1000
0000
0001
0000
,
0010
0000
0001
0000
,
0010
0000
0010
0000
,
0100
0000
0100
0000
,
1000
0000
1000
0000
,
0001
0000
0001
0000
,
1000
0000
0010
0000
,
0100
0000
0001
0000
,
0100
0000
0010
0000
,
1000
0000
0001
0000
,
2000
0000
3000
0002
,
0000
0000
0003
2000
,
0000
0000
3000
0002
,
0000
0003
1000
0000
,
1000
0000
1000
0000
,
0001
0000
0001
0000
,
0001
0000
0100
0000
,
0001
0000
0100
0000
,
0010
0000
1000
0000
,
0100
0000
1000
0000
,
0002
0000
0000
0003
2000
0000
0000
3000
,
0002
0000
0000
0003
2000
0000
0000
3000
,
0000
0000
0001
0000
,
1000
0000
0100
0000
,
0100
0000
1000
0000
,
0001
0000
0010
0000
,
0010
0000
0001
0000
,
0100
0000
0001
0000
,
0001
0000
1000
0000
,
0001
0000
0001
0000
,
0010
0000
0001
0000
,
1000
0000
0010
0000
,
0010
0000
0100
0000
,
0001
0000
0100
0000
,
0100
0000
0010
0000
,
1000
0000
1000
0000
,
0001
0000
0001
0000
,
1000
0000
0001
0000
,
1000
0000
0010
0000
,
1000
0000
0001
0000
,
0100
0000
0001
0000
,
1000
0000
0010
0000
,
1000
0000
0000
0000
,
0000
2000
0000
0000
0000
0000
0000
0000
0000
0000
0000
0000
0000
0000
0000
0000
0000
0000
0000
0000
0000
0000
0000
0000
,
0000
3000
0000
0000
0000
0000
0000
0000
;

//--------------- dance-single - SKooT ----------------
#NOTES:
     dance-single:
     SKooT:
     Easy:
     4:
     0,0,0,0,0:
0000
0000
0000
0000
,
0000
0000
0000
0000
,
0000
0000
0010
0000
,
1001
0000
0100
0000
,
1001
0000
0010
0000
,
1001
0000
0100
0000
,
1001
0000
1000
0000
,
1100
0000
1100
0000
,
0011
0000
0011
0000
,
1001
0000
0010
0000
,
1000
0000
0010
0000
,
0101
0000
1100
0000
,
0101
0000
1000
0000
,
0100
0000
1001
0000
,
1000
0100
0010
0002
,
0000
0003
1000
2000
,
0000
3000
0001
0002
,
0000
0003
1000
2000
,
0000
3000
0001
0000
,
1000
0000
0010
0010
,
1000
0000
0011
0000
,
0100
0000
0001
0000
,
1000
0000
0001
0000
,
0101
0000
0101
0000
,
1010
0000
1010
0000
,
2001
0000
3010
0000
,
1000
0000
0001
0000
,
1100
0000
0101
0000
,
1100
0000
0001
0000
,
1000
0000
0110
0000
,
0010
0000
0100
0200
,
0000
0300
0010
0020
,
0000
0030
0100
0200
,
0000
0300
0001
0002
,
0000
0003
0100
0000
,
0001
0000
0010
0000
,
0100
0000
0010
0000
,
0001
0000
1001
0000
,
0001
0000
0100
0000
,
0010
0000
1001
0000
,
1000
0000
0001
0000
,
0200
0300
0020
0030
,
2000
3000
0002
0003
,
0000
0000
0001
0000
,
1000
0000
0100
0100
,
0100
0000
1000
0000
,
0001
0000
0010
0010
,
0010
0000
0001
0000
,
0100
0000
0001
0001
,
0001
0000
1000
0000
,
1001
0000
0110
0000
,
0010
0000
1000
0000
,
0001
0000
0010
0010
,
0010
0000
0001
0000
,
1000
0000
0100
0100
,
0100
0000
1000
0000
,
0010
0000
1000
1000
,
1000
0000
0001
0000
,
0110
0000
1001
0000
,
0010
0000
0100
0000
,
1000
0000
0010
0000
,
0100
0000
0001
0000
,
1000
1000
0001
0001
,
0100
0000
0000
0000
0000
0000
0000
0100
0000
0000
0000
0000
0000
0000
0000
0100
0000
0000
0000
0000
0000
0000
0000
0000
,
0000
0002
0000
0000
0000
0000
0000
0000
0000
0000
0000
0000
0000
0000
0000
0000
0000
0000
0000
0000
0000
0000
0000
0000
,
0000
0003
0000
0000
0000
0000
0000
0000
;

//--------------- dance-single - SKooT ----------------
#NOTES:
     dance-single:
     SKooT:
     Medium:
     6:
     0,0,0,0,0:
0000
0000
0000
0000
,
0000
0000
0000
0000
,
0000
0000
0010
0100
,
1001
0100
0010
0100
,
1001
0100
0001
0100
,
0010
1000
0010
0100
,
0001
0010
0001
0000
,
1100
0000
0011
0000
,
1010
0000
0101
0000
,
1001
0000
0010
0000
,
1000
0000
0000
0001
0000
0000
0010
0000
0010
0000
0000
0000
,
0101
0000
1100
0000
,
0101
0000
0000
0000
0000
0000
1000
0000
0000
0000
0001
0000
,
1000
0000
1001
0000
,
2000
3200
0320
0032
,
0000
0003
0100
0020
,
0000
0030
1000
0002
,
0000
0003
0100
0020
,
0000
0030
1000
1000
,
0001
0001
1000
0100
,
0010
0001
0011
0000
,
1000
0000
0000
0100
0000
0000
1000
0000
0000
0001
0000
0010
,
0000
0000
0000
0001
0000
1000
0000
0000
0000
0000
0000
0000
,
0011
0000
1100
0000
,
0101
0000
1010
0000
,
2001
0000
3010
0000
,
1000
0000
0000
0010
0000
0000
0100
0000
0001
0000
0000
0000
,
1100
0000
0101
0000
,
1100
0000
0000
0000
0000
0000
0001
0000
1000
0000
0001
0000
,
1000
0000
0010
0000
0000
0000
0110
0000
0000
0000
0000
0000
,
0010
1000
0100
2000
,
0010
3000
0100
0002
,
0000
0003
1000
0020
,
0000
0130
0001
2000
,
0000
3010
1000
0010
,
0101
0000
0011
0000
,
1000
0000
0001
0000
1000
0000
0010
0000
0000
0000
0010
0000
,
1000
0001
1100
0000
,
0001
0000
1000
0000
0001
0000
0100
0000
0000
0000
0100
0000
,
0001
1000
0011
0001
,
1000
0001
0001
1000
,
0200
0310
0002
1003
,
0200
0310
0200
1300
,
0001
0000
0001
0000
0000
0000
0001
0000
0000
0100
0000
0010
,
0000
0000
1000
0000
0000
0000
0100
0000
0000
0001
0000
0000
,
1010
0000
0000
0000
0000
0000
1000
0000
0000
0010
0000
0100
,
0000
0000
0001
0000
0000
0000
0010
0000
0000
1000
0000
0000
,
0101
0000
0000
0000
0000
0000
1000
0000
0000
0100
0000
0010
,
0000
0000
0100
0000
0000
0000
1000
0000
0000
0001
0000
0000
,
0101
0000
0000
0000
0000
0000
0010
0000
0100
0000
1000
0000
,
0010
0000
0101
0000
,
0010
0000
0000
0001
0000
0100
0000
0000
0001
0000
0000
1000
,
0000
0000
0010
0000
0000
0000
1000
0000
0000
0010
0000
0000
,
0101
0000
0000
0000
0000
0000
1000
0000
0000
0001
0000
0010
,
0000
0000
0001
0000
0000
0000
0100
0000
0000
0010
0000
0000
,
1010
0000
0000
0000
0000
0000
0001
0000
0000
0010
0000
0100
,
0000
0000
0010
0000
0000
0000
0100
0000
0000
1000
0000
0000
,
1100
0000
0000
0000
0000
0000
0100
0000
0010
0000
0000
0000
,
1001
0000
1010
0000
,
0100
0000
0000
0100
0000
0001
0000
0000
0000
1000
0000
0020
,
0000
0000
0000
0030
0000
0000
1000
0000
0001
0000
0100
0000
,
0001
0002
1000
0003
,
0001
0000
0000
0010
0000
0000
0100
0000
0100
0000
0000
0000
,
2000
0000
0000
0000
0000
0000
0000
3200
0000
0000
0000
0000
0000
0000
0000
0320
0000
0000
0000
0000
0000
0000
0000
0000
,
0000
0032
0000
0000
0000
0000
0000
0000
0000
0000
0000
0000
0000
0000
0000
0000
0000
0000
0000
0000
0000
0000
0000
0000
,
0000
0003
0000
0000
0000
0000
0000
0000
;

//--------------- dance-single - SKooT ----------------
#NOTES:
     dance-single:
     SKooT:
     Hard:
     10:
     0,0,0,0,0:
0000
0000
0000
0000
,
0000
0000
0000
0000
,
0000
0000
0000
0000
0000
0000
0010
0000
0000
0100
0000
0001
,
1000
0000
0000
0010
0000
0000
0100
0000
0001
1000
0000
1000
,
0001
0100
1000
0100
,
0001
0010
1000
0010
,
0001
0000
0000
0100
0000
0000
0001
0000
1000
0001
0000
0000
,
1100
0000
0000
1000
0000
0000
0011
0000
0000
0001
0000
1000
,
0100
0000
0000
1000
0000
0001
0010
0000
0000
0001
0000
0000
,
1001
0000
0110
0000
,
1000
0000
0000
0010
0000
0100
0010
0000
1000
0000
0000
0000
,
0101
0001
1100
1000
,
0101
0000
0000
0001
0000
0000
1100
0000
1000
0000
0001
0000
,
1000
0000
0001
0000
0000
0000
0011
0000
0000
1000
0000
0000
,
0200
0000
0000
1300
0000
0001
2000
0000
0000
3002
0000
0000
,
1000
0000
0000
0003
0000
1000
0100
0000
0000
0002
0000
0000
,
0000
0000
0000
0003
0000
0001
0100
0000
0000
2000
0000
0000
,
0000
0000
0000
3000
0000
1000
0100
0000
0000
0002
0000
0000
,
0000
0000
0000
1003
0000
0000
0010
0000
0100
0010
0000
1000
,
0001
0000
0000
0001
0000
0000
0100
0000
0010
0100
0000
0001
,
1000
0000
0000
1000
0000
0000
0011
0000
0000
0001
0000
0100
,
0010
0000
0000
1000
0000
0000
0001
0000
0000
0100
0000
0010
,
0000
0000
0000
1000
0000
0100
0000
0000
1000
0001
0000
0000
,
0011
0000
0000
0001
0000
0000
1100
0000
0000
1000
0000
0001
,
0010
0000
0000
0001
0000
1000
0100
0000
0000
1000
0000
0000
,
2001
0000
3010
0000
,
1000
0000
0000
0100
0000
1000
0001
0000
0100
0000
0000
0000
,
1100
0001
0101
1000
,
1100
0000
0000
0010
0000
0000
0001
0000
0010
0000
0100
0000
,
1000
0000
1000
0000
0000
0000
0110
0000
0000
0001
0000
0100
,
0010
0000
0000
1000
0000
0010
0100
0000
0000
0002
0000
0000
,
1000
0000
0000
0003
0000
0001
0010
0000
0000
2000
0000
0000
,
0000
0000
0000
3001
0000
1000
0010
0000
0000
0002
0000
0000
,
0000
0000
0000
1003
0000
0001
0010
0000
0000
2000
0000
0000
,
0000
3010
0010
0100
,
0001
0000
1000
0000
,
1000
0000
0001
0000
0100
0000
0010
0000
1000
0000
0001
0000
,
0100
0001
1100
0000
,
0001
0000
1000
0000
0010
0000
0100
0000
0001
0000
1000
0000
,
0010
0000
0000
1000
0000
0000
0101
0000
0000
0100
0000
0010
,
2000
0000
0000
3001
0000
0000
0002
0000
1003
0100
0000
0000
,
0200
0310
2000
3010
,
0002
0000
0000
0013
0000
0000
2000
0000
0000
3010
0000
0001
,
1000
0000
0100
0000
0000
0010
0001
0000
0010
0100
0000
0010
,
0000
0000
0001
0000
0000
0001
0100
0000
0000
0010
0000
0000
,
1010
0000
0010
0100
0000
0000
0001
0000
0100
0010
0000
0100
,
0000
0000
0001
0000
0000
1000
0010
0000
0000
0100
0000
0000
,
0101
0000
0100
0001
0000
0000
1000
0000
0000
0100
0000
0010
,
0000
0000
0100
0000
0000
1000
0010
0000
0000
1000
0000
0000
,
0011
0000
0001
1000
0000
0000
0010
0000
0100
0000
0001
0000
,
0011
0000
0000
0000
0000
0000
0101
0000
0000
0000
0000
1000
,
0010
0000
0000
1000
0000
0001
0100
0000
0010
0000
0000
1000
,
0000
0000
0001
0000
0000
1000
0010
0000
0000
0100
0000
0000
,
0101
0000
0100
0010
0000
0000
1000
0000
0010
0100
0000
0010
,
0000
0000
1000
0000
0000
0001
0100
0000
0000
0010
0000
0000
,
1010
0000
0010
1000
0000
0000
0001
0000
0000
0010
0000
0100
,
0000
0000
0010
0000
0000
0001
0100
0000
0000
0001
0000
0000
,
1100
0000
1000
0001
0000
0000
0100
0000
0010
0000
1000
0000
,
1001
0000
0000
0000
0000
0000
1010
0000
0000
0000
0000
0010
,
0100
0000
0000
0100
0000
0001
0000
0000
0000
1000
0000
0120
,
0000
0000
0000
0030
0000
0000
1000
0000
0100
0000
0010
0000
,
0001
0000
0000
0001
0000
1000
0200
0000
0000
0300
0000
0000
,
1000
0000
0000
0010
0000
0100
0001
0000
0100
0010
0000
0000
,
2000
0000
0000
0000
0000
0000
0000
3200
0000
0000
0000
0000
0000
0000
0000
0320
0000
0000
0000
0000
0000
0000
0000
0000
,
0000
0032
0000
0000
0000
0000
0000
0000
0000
0000
0000
0000
0000
0000
0000
0000
0000
0000
0000
0000
0000
0000
0000
0000
,
0000
0003
0000
0000
0000
0000
0000
0000
;
