#VERSION:0.83;
#TITLE:In the Back Room;
#SUBTITLE:;
#ARTIST:Syudou;
#TITLETRANSLIT:;
#SUBTITLETRANSLIT:;
#ARTISTTRANSLIT:;
#GENRE:;
#CREDIT:;
#MUSIC:In the Back Room.ogg;
#BANNER:Back Room Banner.png;
#BACKGROUND:;
#CDTITLE:;
#SAMPLESTART:48.891;
#SAMPLELENGTH:13.491;
#SELECTABLE:YES;
#OFFSET:0.458;
#BPMS:0.000=169.000;
#STOPS:;
#SPEEDS:0.000=1.000=0.000=0,
104.979=0.250=0.000=0,
105.000=1.000=2.000=0
;
#SCROLLS:0.000=0.700,
34.000=0.800,
34.500=0.850,
35.000=0.900,
65.000=0.800,
65.500=0.700,
66.000=0.600,
83.000=0.800,
100.000=0.600,
101.000=0.500,
102.000=0.400,
104.979=1.000,
105.000=1.100,
169.000=1.000,
170.000=0.900,
171.000=0.800,
172.000=0.700,
203.000=0.800,
204.000=0.900,
205.000=1.000,
218.250=0.850,
218.500=0.800,
218.750=0.750,
219.000=0.700
;
#BGCHANGES:1.200=In the Back Room.avi=1.000=1=0=0=StretchNoLoop==CrossFade==;
#FGCHANGES:;

//--------------- dance-single - SKooT ----------------
#NOTEDATA:;
#STEPSTYPE:dance-single;
#DESCRIPTION:SKooT;
#DIFFICULTY:Beginner;
#METER:3;
#RADARVALUES:0,0,0,0,0;
#NOTES:
0000
0000
0000
0000
,
0000
0000
0100
0000
0000
0100
0000
0000
,
0000
0000
0010
0000
0000
0010
0000
0000
,
0000
0000
1000
0000
0000
1000
0000
0000
,
0000
0010
0000
1000
,
0000
1000
0000
0001
,
0000
0001
0000
0010
,
0000
0000
0100
0000
0000
1000
0000
0000
,
0001
0000
0200
0300
,
0010
0000
0100
0000
,
0001
0000
1000
0000
,
0010
0000
0100
0000
,
0001
0000
1000
0000
,
0001
0000
0001
0000
,
1000
0000
1000
0000
,
0001
0000
1000
0000
,
0100
0000
0010
0000
,
0010
0000
0100
0000
,
0100
0000
1000
0000
,
0001
0000
1000
0000
,
1000
0000
0010
0000
,
0100
0000
0001
0000
,
1000
0000
1000
0000
,
0010
0000
0010
0000
,
0100
0000
0001
0002
,
0000
0000
0000
0003
,
0000
0020
0000
0130
,
0000
1000
0000
0010
,
0000
2000
0000
3001
,
0000
0010
0000
0001
,
0000
0200
0000
0310
,
0000
1000
0000
0001
,
0000
2000
3000
0010
,
0000
1000
0000
0100
,
0000
0020
0030
0010
,
0000
0001
0000
0100
,
0000
0002
0000
1003
,
0000
0100
0000
1000
,
0000
0020
0000
0130
,
0000
0001
0000
1000
,
0000
0002
0003
0100
,
0000
0001
0000
0010
,
0000
0010
0000
0200
,
0000
0320
0000
0032
,
0000
0003
1000
0000
0000
0000
0010
0000
,
0000
0100
0000
0001
,
0000
0001
0000
0020
,
0000
0230
0000
2300
,
0000
3000
0001
0000
0000
0000
1000
0000
,
0000
0010
0000
1000
,
0000
0001
0000
0001
,
0000
0010
0000
0001
,
0000
0100
0000
0010
,
0000
0000
0010
0000
0000
1000
0000
0000
,
0001
0001
0001
0001
,
0000
0000
0100
0000
0000
0100
0000
0000
,
0000
0000
0010
0000
0000
0010
0000
0000
,
0000
0000
1000
0000
0000
1000
0000
0000
,
0000
0010
0000
1000
,
0000
1000
0000
1000
,
0000
0001
0000
0010
,
0000
0000
0100
0000
0000
1000
0000
0000
,
0001
0000
0000
0000
;

//--------------- dance-single - SKooT ----------------
#NOTEDATA:;
#STEPSTYPE:dance-single;
#DESCRIPTION:SKooT;
#DIFFICULTY:Easy;
#METER:6;
#RADARVALUES:0,0,0,0,0;
#NOTES:
0000
0000
0000
0000
0000
0000
0000
0100
,
0000
0000
0010
0000
0000
1000
0000
0000
,
0010
0000
0100
0000
0000
0001
0000
0000
,
0010
0000
0100
0000
0000
0010
0000
0000
,
0001
0100
0010
1000
,
1000
1000
1000
0001
,
0100
0001
0010
0001
,
1000
0000
0010
0000
1000
0001
0000
0000
,
0100
0000
0200
0310
,
0010
0100
0100
0001
,
0001
1001
1000
0010
,
0010
0100
0100
0001
,
0001
1001
1000
0100
,
1000
0001
1000
0001
,
1000
0001
0010
0110
,
0100
0010
0001
0010
,
0100
2000
0000
3000
,
1000
0000
0020
0000
0030
1000
0000
0000
,
0001
0010
0100
0010
,
0100
0000
2000
0000
3000
0001
0000
0010
,
0000
0100
1000
0110
,
0020
0000
1000
0030
0000
0000
1000
0000
,
0000
0001
0001
1000
,
0100
1000
0001
0100
,
0001
0010
0100
2001
,
0000
0000
0000
3000
,
0000
0020
0000
0130
,
0001
1000
0010
0100
,
0001
0020
0001
0031
,
0100
0010
1000
0010
,
1000
0200
0310
0110
,
0010
0001
0100
0010
,
1000
0002
0013
0010
,
0100
1000
0100
0010
,
0001
2000
3010
0010
,
1000
0001
0100
0010
,
1000
0200
1000
1300
,
0010
0100
0001
0100
,
0001
0020
0130
0110
,
0100
1000
0010
0100
,
0001
2000
3100
0100
,
0010
0001
0010
0100
,
1000
0001
1000
2100
,
3000
0120
0030
0012
,
0003
0000
0001
0000
0001
0100
0000
0010
,
0000
1000
0000
1000
0000
0100
0000
0000
,
0100
0010
0001
0012
,
0003
0210
0300
2100
,
3000
0000
1000
0000
1000
0010
0000
0100
,
0000
0000
0001
0000
0000
0001
0000
0000
,
0010
0100
1000
1100
,
1100
0110
0110
0011
,
0000
0001
0000
0100
0000
0000
1001
0000
,
0000
0000
0110
0000
0000
1100
0000
0000
,
0001
0000
1000
0000
0001
0000
1000
0010
,
0000
0000
0100
0000
0000
0001
0000
0000
,
0100
0000
0010
0000
0000
1000
0000
0000
,
0100
0000
0010
0000
0000
0100
0000
0000
,
1000
0010
0100
0001
,
0001
0001
0001
1000
,
0010
1000
0100
1000
,
0001
0000
0100
0000
0001
1000
0000
0000
,
0100
0000
0000
0000
;

//--------------- dance-single - SKooT ----------------
#NOTEDATA:;
#STEPSTYPE:dance-single;
#DESCRIPTION:SKooT;
#DIFFICULTY:Medium;
#METER:10;
#RADARVALUES:0,0,0,0,0;
#NOTES:
0000
0000
0000
0000
0000
0000
0000
0100
,
0000
0001
0010
0000
0001
1000
0000
0010
,
1000
0000
1000
0000
0001
1000
0000
0010
,
0100
0000
0100
0000
0001
0010
0000
0001
,
0010
0010
0100
1100
,
1100
0011
0011
0100
,
0001
2000
0000
3001
0000
0100
0000
0001
,
1000
0001
1000
0000
1000
0001
0000
0010
,
0100
0000
0000
0000
2000
0000
3001
1000
,
0001
0000
0010
0100
0010
0000
0100
1000
,
0100
0000
1100
0000
1000
0000
1000
0001
,
1000
0000
0100
0010
0100
0000
0010
0001
,
0010
0000
0011
0000
0010
0100
1000
0000
,
0110
0100
0110
0010
,
0110
0100
0010
0011
,
1000
1010
1000
0100
,
0010
0002
0000
0003
,
1000
0000
0020
0000
1030
0010
0000
0100
,
0000
0001
0010
0000
0100
0000
0010
0000
,
0001
0000
0200
0000
0301
0100
0000
0010
,
0000
1000
0100
0000
0010
0000
0011
0000
,
0002
0000
1003
0000
0001
1000
0000
0010
,
0000
0100
0001
0000
0001
0000
1000
0010
,
1000
0010
0000
0100
0000
0200
0000
0301
,
0010
0110
1100
2001
,
0000
0000
0000
3000
,
0000
0020
0000
0130
,
0001
0000
1000
0010
0100
0000
0001
0100
,
0010
1020
1000
1030
,
0100
0000
0010
0001
0100
0000
0010
1000
,
0100
2000
3100
0110
,
0010
0000
0001
0100
0001
0000
1000
0010
,
1000
0000
0002
0000
0013
0000
0010
0100
,
1000
0000
0100
0010
0001
0000
0010
0100
,
1000
0020
0130
1001
,
1000
0000
0100
0010
0100
0000
1000
0010
,
0100
0000
0210
0000
0000
0300
0001
0100
,
0010
0000
0010
1000
0001
0000
0001
1000
,
0010
2000
3010
1001
,
0001
0000
0010
0100
0010
0000
0001
0100
,
0010
0000
0120
0000
1030
0000
0100
0010
,
0001
0000
0010
0100
1000
0000
0100
0010
,
0001
1000
0001
2100
,
3000
0120
0030
0012
,
0003
0000
0001
0100
0001
0010
0000
0010
,
0100
1000
0000
1000
0010
1000
0000
0010
,
0100
0010
1000
0000
1001
0000
0012
0000
,
0003
0210
0300
2100
,
3000
0000
1000
0010
1000
0100
0000
0100
,
0010
0000
0001
0000
0100
0010
0000
1000
,
0010
1000
0001
0000
1000
0000
0011
0000
,
0110
1100
1001
0101
,
0010
1000
0000
0100
0000
0000
1001
0000
,
0000
0000
0110
0000
0000
1100
0000
1000
,
0001
1000
0001
1000
0001
1000
0001
0100
,
0000
0001
0010
0000
0001
1000
0000
0010
,
1000
0000
1000
0000
0001
1000
0000
0010
,
0100
0000
0100
0000
0001
0010
0000
0001
,
0010
0010
0100
1100
,
1100
0011
0011
0100
,
0001
2000
0000
3001
0000
0100
0000
0001
,
1000
0001
1000
0000
1000
0001
0000
0010
,
0100
0000
0000
0000
;

//--------------- dance-single - SKooT ----------------
#NOTEDATA:;
#STEPSTYPE:dance-single;
#DESCRIPTION:SKooT;
#DIFFICULTY:Hard;
#METER:12;
#RADARVALUES:0,0,0,0,0;
#NOTES:
0000
0000
0000
0100
,
0001
0010
0000
0001
0000
0100
0010
0000
,
1000
0100
0000
1000
0000
0010
0100
0000
,
0001
0010
0000
0001
0000
1000
0000
0001
,
0010
0100
1000
0000
0100
0000
1100
0000
,
0110
0000
0011
0000
0101
0000
0010
0100
,
0001
2000
0000
3001
0010
0100
0010
0001
,
0100
0010
1000
0100
1000
0010
0000
0010
,
0100
0000
0000
0000
2000
0000
3001
0010
,
0001
0100
0010
1000
0100
0010
0100
1000
,
0100
0010
0100
0000
1000
0100
1000
0010
,
0100
0001
0010
0100
0010
0001
0010
0100
,
0020
0000
0031
1000
0100
0010
0100
0000
,
0110
1000
0110
0001
,
0110
1000
1001
1010
,
1001
0000
1010
1000
0100
0010
0001
1000
,
0001
2100
0000
3000
,
0001
0000
0020
0000
0031
1000
0000
1000
,
0010
0100
0010
0001
0010
1000
0100
0000
,
1000
0000
0200
0000
1300
0001
0000
0001
,
0100
0010
0100
1000
0100
0001
0011
0000
,
0020
0000
0031
0000
0001
1000
0000
0010
,
0000
0100
0001
0010
0001
1000
0100
1000
,
0001
0010
0001
0100
0001
2000
0000
3001
,
0100
0001
1000
0000
0011
0000
2100
0000
,
0000
0000
0000
3000
,
0000
0020
0000
0130
,
0001
1000
0010
0100
0010
1000
0001
0010
,
0001
0000
1020
0000
0100
0000
0130
0010
,
0100
0001
0010
0001
1000
0010
1000
0100
,
0010
0001
2000
0000
3100
0000
0101
0000
,
0010
0001
1000
0010
0100
0001
0010
0100
,
0010
0001
0200
0000
0310
1000
0010
0100
,
0001
0010
0100
0010
0001
0100
0010
1000
,
0100
0010
0002
0000
0103
0000
1100
0000
,
1000
0010
0100
0001
0100
0010
1000
0001
,
0100
0000
0210
0000
0301
0000
0010
0001
,
1000
0001
0100
0010
1000
0010
0100
1000
,
0100
0010
0200
0000
0310
0000
1001
0000
,
0100
0001
0010
0001
0100
0010
1000
0100
,
0010
0000
0120
0000
0031
0000
1000
0100
,
0010
0001
0100
0010
1000
0001
0010
0100
,
1000
0001
0100
0000
0001
0000
2100
0000
,
3001
1000
0002
0000
0103
0001
0020
0000
,
0031
1000
0001
0100
0001
0010
0000
0010
,
0100
1000
0001
0100
0010
1000
0000
0010
,
0100
0010
1000
0000
1001
0000
0012
0000
,
1003
0001
2000
0000
3010
1000
0200
0000
,
1300
0001
1000
0010
1000
0100
0000
0100
,
0010
0001
1000
0010
0100
0001
0000
0100
,
0010
0100
0001
0000
0010
0000
0011
0000
,
1001
1010
1001
0011
,
0001
1000
0000
0100
0010
0001
1001
0000
,
0000
0000
0110
0000
0000
1100
0000
1000
,
0001
0000
1000
0000
0001
0000
1000
0000
0001
1000
0001
1000
0001
0000
0000
0000
,
1000
0100
0000
1000
0000
0010
0100
0000
,
0001
0010
0000
0001
0000
0100
0010
0000
,
1000
0100
0000
1000
0000
0001
0000
1000
,
0100
0010
0001
0000
0010
0000
0011
0000
,
0110
0000
1100
0000
1010
0000
0100
0010
,
1000
0002
0000
1003
0100
0010
0100
1000
,
0010
0100
0001
0010
0001
0100
0000
0100
,
0010
0000
0000
0000
;
