#TITLE:Gunjo Sanka;
#SUBTITLE:;
#ARTIST:Eve (Feat. Hatsune Miku);
#TITLETRANSLIT:;
#SUBTITLETRANSLIT:;
#ARTISTTRANSLIT:;
#GENRE:;
#CREDIT:;
#MUSIC:Gunjo Sanka.ogg;
#BANNER:Gunjo Sanka Banner.png;
#BACKGROUND:Gunjo Sanka BG;
#CDTITLE:;
#SAMPLESTART:47.754;
#SAMPLELENGTH:15.177;
#SELECTABLE:YES;
#OFFSET:0.276;
#BPMS:0.000=168.021
,264.000=169.021
;
#STOPS:;
#BGCHANGES:0.500=Gunjo Sanka.avi=1.000=1=0=0=StretchNoLoop==CrossFade==;
#FGCHANGES:;

//--------------- dance-single - SKooT ----------------
#NOTES:
     dance-single:
     SKooT:
     Beginner:
     3:
     0,0,0,0,0:
0000
0000
0000
0000
,
0000
0000
0000
0000
,
0000
0000
0000
0000
,
0000
0000
0000
0000
,
0000
1000
0000
0000
,
1000
0000
0001
0000
,
0001
0000
1000
0000
,
1000
0000
0001
0000
,
0001
0000
0100
0000
,
0010
0000
0100
0000
,
0010
0000
1000
0000
,
0001
0000
1000
0000
,
0001
0000
0010
0000
,
0010
0000
0010
0000
,
0001
0000
1000
0000
,
0000
0020
0000
0000
0000
2030
0000
3000
,
0000
0000
0001
0000
,
0100
0000
0010
0000
,
0100
0000
0001
0000
,
1000
0000
0001
0000
,
1000
0000
0100
0000
,
0100
0000
0100
0000
,
1000
0000
0001
0000
,
0000
0100
0000
0000
0000
0100
0000
0000
,
0000
0010
0000
0000
,
0000
1000
0000
0000
,
0000
0100
0000
0000
,
0000
0010
0000
0001
,
0000
2000
0000
0000
,
3000
0001
0000
1000
,
0000
0002
0000
0000
,
0003
0000
0000
0010
,
0000
0100
0000
2000
,
0000
3000
0000
0000
,
0000
0001
0000
0000
,
0001
0000
0100
0000
,
0001
0000
1000
0000
,
0100
0000
1000
0000
,
0010
0000
0100
0000
,
0010
0000
0100
0000
,
0001
0000
0100
0000
,
0001
0000
0010
0000
,
0001
0000
0001
0000
,
1000
0000
0010
0000
,
1000
0000
0001
0000
,
1000
0000
0100
0000
,
1000
0000
0010
0000
,
0100
0000
0001
0000
,
0010
0000
0100
0000
,
0010
0000
0001
0000
,
0010
0000
0010
0000
,
0100
0000
0100
0000
,
1000
0000
1000
0000
,
0010
0000
0010
0000
,
0100
0000
0001
0000
,
1000
0000
0001
0000
,
0000
0002
1000
0000
,
1000
0000
1000
0000
,
1000
0000
0100
0000
,
0100
0000
0100
0003
,
0010
2000
0010
0000
,
0010
0000
0010
0000
,
0001
0000
0001
0000
,
0000
0001
0000
0000
0000
0000
0000
0000
,
3000
0001
0000
0000
0000
0000
0000
0000
;

//--------------- dance-single - SKooT ----------------
#NOTES:
     dance-single:
     SKooT:
     Easy:
     5:
     0,0,0,0,0:
0000
0000
0000
0000
,
0000
0000
0000
0000
,
0000
0000
0000
0000
,
0000
0000
0000
0000
,
0000
0010
1000
0001
,
0100
0010
1000
0001
,
0100
0001
0010
0001
,
1000
0010
1000
0010
,
0100
0001
1000
0001
,
1000
0010
0100
0010
,
0100
0001
0010
0001
,
1000
0100
1000
0001
,
0100
0010
1000
0001
,
0100
0010
1000
0001
,
0010
0001
1000
0001
,
0000
0010
0000
0000
0000
0100
0000
0000
,
0000
0001
0000
0000
1000
0000
0001
0000
,
1000
0001
0100
0010
,
0100
0010
1000
0100
,
1000
0001
0010
0001
,
1000
0010
0100
0001
,
1000
0010
0100
0001
,
0010
0100
0010
0001
,
0000
1001
0000
1000
0000
0001
0000
1000
,
0000
0002
0000
0003
,
0000
0001
0000
0100
,
0000
0010
0000
1000
,
0000
1000
0000
0001
,
0000
0002
0000
0003
,
0000
1000
0000
0010
,
0000
0000
2000
0000
,
0000
3000
1000
0100
,
0010
0001
0010
0100
,
1000
0000
0001
0001
0001
0000
0000
0000
,
0000
1001
0001
0001
,
0001
0100
0010
0100
,
0010
1000
0001
0010
,
0100
1000
0100
0010
,
0001
1000
1000
0010
,
0010
1000
0100
0010
,
0001
0001
1000
0010
,
0100
0001
0100
0010
,
1000
0001
0100
0010
,
0100
0001
0010
0100
,
1000
0001
1000
0001
,
0001
0010
0100
0010
,
0010
0001
1000
0000
,
0100
0001
0000
0000
1000
0000
0001
0000
,
1000
0000
0000
0000
0100
0001
0000
0000
,
1000
0010
0100
0010
,
1000
0010
0100
0001
,
0010
0001
0100
0010
,
1000
0001
0100
0010
,
1000
0000
0001
0000
0000
0100
0000
0000
,
0000
0001
0000
0000
0011
0000
0000
0000
,
0000
1000
0000
0000
1010
0000
0000
0000
,
0000
2000
0001
0000
,
0001
0000
0100
0000
,
0100
0000
0100
0000
,
0001
0000
0001
3000
,
0001
0002
1000
0000
,
1000
0000
1000
0000
,
0100
0000
0100
0000
,
0000
1000
0000
0000
0000
0000
1003
0000
,
0000
0001
0000
0000
0000
0000
0000
0000
;

//--------------- dance-single - SKooT ----------------
#NOTES:
     dance-single:
     SKooT:
     Medium:
     8:
     0,0,0,0,0:
0000
0000
0000
0000
,
0000
0000
0000
0000
,
0000
0000
0000
0000
,
0000
0000
0000
0000
,
0000
0000
1001
0000
0001
1000
0000
0100
,
0000
2000
0000
0000
0000
3010
0000
0010
,
1000
0000
0100
0000
1000
0001
0000
0000
,
0001
1000
0000
0100
0000
1000
0010
0000
,
0100
0001
1000
0000
1000
0000
1000
0000
,
1000
0001
0000
0001
1000
0001
1000
0001
,
1000
0010
0000
0010
0000
0010
0100
0000
,
0100
0002
0000
0000
0013
0000
0001
0010
,
0100
1000
1000
1000
,
1000
0000
1000
0001
0010
0000
0010
0000
,
0001
0000
1000
0010
0100
0000
0100
0000
,
0100
0020
0000
1030
0000
0200
0000
1300
,
0000
0001
0000
0000
1001
0000
1000
0000
,
1001
0000
0001
0000
1001
0000
1000
0001
,
1000
0001
0000
0000
0110
0000
0100
0000
,
0110
0000
0010
0000
0110
0000
0100
0010
,
0100
0010
1000
0000
1000
0000
1000
0000
,
1000
0000
1000
0001
0010
0000
0010
0000
,
0001
1000
0010
1000
0010
0000
0010
0000
,
1000
0001
0000
0001
0010
0100
0000
0100
,
0010
0001
2000
0000
0000
0000
0000
3001
,
0000
0001
0000
0000
1000
0000
0000
0000
0000
0000
0000
0000
0001
0000
0000
0000
,
0000
0000
1000
0100
1000
0000
0000
0000
,
0001
1000
0000
0010
0000
0100
0000
0001
,
0000
0010
0002
0000
0000
0000
0000
0103
,
0000
0001
1000
0000
0000
1000
0010
0000
,
0000
0100
0000
0001
2000
0000
0000
0000
,
3000
0000
1000
0100
,
0010
0001
0010
0100
,
1000
0000
0010
0010
0010
0000
0000
0000
,
0000
0000
1001
0000
0001
1000
0001
0000
,
1100
0110
0011
0110
,
1100
0000
0001
0000
1000
0001
0100
0000
,
0001
1000
0100
0000
1000
0000
0010
0000
,
0100
0010
0100
0000
0001
0000
0010
0000
,
0100
0110
1100
0110
,
0011
0100
0001
0010
,
0001
0000
1000
0000
0010
0000
1000
0001
,
1000
0110
0001
1000
,
0001
0011
0110
1100
,
1001
0000
0001
0000
0010
0001
0000
0100
,
0000
0001
0000
1000
0000
0001
0000
1000
,
0000
0000
1000
0010
0100
0000
0000
0010
,
1000
0100
0000
0010
0001
0000
0100
0000
,
0001
0000
0000
0010
0001
1000
0000
0001
,
0000
1000
0001
0000
0010
0000
0100
0000
,
1000
0000
0020
0000
0000
2030
0000
0000
,
3001
0000
0020
0000
0000
0032
0000
0000
,
2003
3001
0010
0001
,
1000
0000
0010
0000
1000
0000
0001
1000
,
0100
1000
0000
0000
0001
0010
0000
0001
,
0100
0001
0000
0000
1000
0010
0000
1000
,
0001
0000
1001
0000
0001
1000
0000
1000
,
0000
0002
0000
0000
0000
1003
0010
1000
,
0000
0001
0100
0000
0001
1000
0000
0000
,
0010
1000
0000
1000
0000
0010
0100
0000
,
0010
0000
0100
0000
0100
0001
0000
0001
,
0000
2000
0000
0000
0000
3001
0010
0001
,
0000
0010
0100
0000
1000
0010
0000
0000
,
0000
1001
0000
0001
0000
0010
0100
0000
,
1000
0001
0000
0000
0000
0000
0000
0000
;

//--------------- dance-single - SKooT ----------------
#NOTES:
     dance-single:
     SKooT:
     Hard:
     12:
     0,0,0,0,0:
0000
0000
0000
0000
,
0000
0000
0000
0000
,
0000
0000
0000
0000
,
0000
0000
0000
0000
,
0000
0000
1001
0000
0001
1000
0000
0100
,
0000
2000
0000
0000
0010
3000
0010
1000
,
0001
0100
0010
0000
1000
0001
0000
0000
,
0001
1000
0000
0100
0000
1000
0010
0000
,
0100
0001
1000
0001
0000
1000
0010
0000
,
0100
0001
0000
0010
0100
0010
0001
1000
,
0010
0100
0000
0010
0000
0010
1000
0000
,
0001
0010
0000
0010
0100
1000
0001
1000
,
0010
0100
0001
1000
0001
0000
0001
0000
,
0001
0000
0001
2000
0010
3000
0100
0001
,
0010
0100
0010
0001
1000
0000
1000
0000
,
1000
0002
0000
0013
0000
2000
0000
3010
,
1000
0100
1000
0000
0101
0000
0010
0000
,
1100
0000
0010
0000
0101
0000
1000
0010
,
0100
0010
1000
0000
0101
0000
0010
0000
,
1100
0000
0010
0000
0101
0000
0100
1000
,
0100
0010
0100
0001
0010
0000
0010
0000
,
0010
0000
0010
0001
1000
0100
1000
0100
,
0010
0001
0100
0010
1000
0000
1000
0000
,
1000
1001
0000
1000
0010
0110
0000
0010
,
1000
0100
0020
0000
0000
0000
0000
0031
,
0000
0100
0000
0000
1000
0000
0000
0000
0000
0000
0000
0000
0001
0000
0000
0000
,
0000
0000
1000
0010
1000
0000
0000
0000
,
0100
0010
0000
0010
0000
0001
0000
1000
,
0000
0010
0200
0000
0000
0000
0000
0310
,
0000
1000
0100
0000
0000
1000
0001
1000
,
0000
0010
0000
0100
0002
0000
0000
0000
,
0003
0000
1000
0100
,
0010
0000
0001
0100
0010
1000
0100
1000
,
0001
0100
0010
0010
0010
0000
0000
0000
,
0000
0000
1001
0000
0010
1000
0010
0000
,
1100
0110
0011
0110
,
1100
0000
0001
0000
0001
0100
1000
0000
,
1000
0100
0001
0000
0001
0010
1000
0010
,
0001
0100
0002
0000
1003
0100
1000
0000
,
0001
0011
0110
1100
,
0110
0000
0001
0000
1000
0010
0001
0000
,
0001
0010
1000
0000
1000
0100
0001
0100
,
1000
0010
2000
0000
3001
0010
0001
0000
,
1001
1100
0101
0011
,
1100
0000
1000
0000
0100
0010
0000
0010
,
0001
0010
0000
0001
1000
0010
0000
0100
,
0001
0000
0010
0001
0010
0000
0010
1000
,
0010
0001
0000
0100
0010
1000
0001
0010
,
0100
0000
0100
0001
0100
1000
0000
0010
,
0100
0001
0010
0000
0010
0000
0100
0000
,
0010
0000
0002
0000
0103
0001
2000
0000
,
3010
0000
0002
0000
0103
0001
2000
0000
,
3010
0001
0011
1000
,
1010
0000
0001
0000
0101
0000
0001
1000
,
0100
1000
0000
0010
0001
0010
0000
0100
,
1000
0100
0000
0001
0010
0001
0000
1000
,
0100
0000
1100
0000
0001
0100
0000
1000
,
0000
0002
0000
1000
0000
1003
0010
1000
,
0010
0001
0010
0000
1000
0001
0000
0000
,
0010
0001
0000
1000
0001
0010
0100
0000
,
1000
0000
0001
0000
1000
0100
0000
0001
,
0000
2000
0000
0001
0000
3001
0100
0001
,
0100
1000
0100
0000
0001
1000
0000
0000
,
0100
1000
0000
0001
1000
0100
0010
0000
,
0001
0100
0000
0000
0000
0000
0000
0000
;
