#TITLE:Goya no Machiawase;
#SUBTITLE:- Noragami OP;
#ARTIST:Hello Sleepwalkers;
#TITLETRANSLIT:;
#SUBTITLETRANSLIT:;
#ARTISTTRANSLIT:;
#GENRE:;
#CREDIT:;
#MUSIC:Goya no Machiawase.ogg;
#BANNER:Goya no Machiawase Banner.png;
#BACKGROUND:Goya no Machiawase BG.png;
#CDTITLE:;
#SAMPLESTART:40.824;
#SAMPLELENGTH:10.319;
#SELECTABLE:YES;
#OFFSET:0.293;
#BPMS:0.000=188.973;
#STOPS:;
#BGCHANGES:;
#FGCHANGES:;

//--------------- dance-single - SKooT ----------------
#NOTES:
     dance-single:
     SKooT:
     Beginner:
     4:
     0,0,0,0,0:
0000
0000
0000
1000
,
0000
0000
0001
0000
0000
0010
0000
0000
,
0000
0100
0000
1000
,
0000
0000
0001
0000
0000
1000
0000
0000
,
0000
0010
0000
1000
,
0000
0000
0001
0000
0000
0010
0000
0000
,
0000
0100
0000
1000
,
0000
0000
0001
0000
0000
1000
0000
0000
,
0000
0010
0000
1000
,
0000
0010
0000
0100
,
0000
0001
0000
0010
,
0000
0001
0000
1000
,
0000
0001
0000
0010
,
0000
0100
0000
0010
,
0000
0001
0000
1000
,
0000
0010
0000
0100
,
0000
0010
0000
1000
,
1000
1000
0000
0001
,
0001
0001
0000
0100
,
0000
0100
0000
0010
,
0000
0010
0000
0100
,
0100
0100
0000
0010
,
0010
0010
0000
1000
,
0000
0010
0000
0100
,
0000
0002
0000
1003
,
0000
1000
0000
1000
,
0000
0010
0000
0100
,
0000
0001
0000
1000
,
0000
2000
0000
0001
,
0000
3001
0000
0100
,
0000
0010
0000
0100
,
0100
0100
0100
0000
,
0000
0000
0000
0001
,
0000
0001
0000
0100
,
0000
0010
0000
1000
,
0000
1000
0000
0001
,
0000
0001
0000
0100
,
0000
0010
0000
1000
,
0000
1000
0000
0010
,
0000
0100
0000
0001
,
0000
1000
0000
0001
,
0000
0001
0000
0100
,
0000
0010
0000
1000
,
0000
1000
0000
0001
,
0000
0001
0000
0100
,
0000
0010
0000
1000
,
0000
1000
0000
0001
,
0000
0100
0000
0010
,
0000
1000
0000
0001
,
0001
0001
0000
0100
,
0100
0100
0000
0010
,
0010
0010
0000
1000
,
1000
1000
0000
1000
,
0000
0001
0000
0100
,
0000
0010
0000
0100
,
0000
0001
0000
1000
,
0000
0001
0000
0001
,
0001
0001
0000
1000
,
1000
1000
0000
0010
,
0010
0010
0000
0100
,
0100
0100
0000
0010
,
0000
1000
0000
1001
,
0000
0000
0000
1000
,
0000
0000
0001
0000
0000
0010
0000
0000
,
0000
0100
0000
1000
,
0000
0000
0001
0000
0000
1000
0000
0000
,
0000
0010
0000
0100
,
0000
0001
0000
0001
,
0001
1000
1000
0001
,
0000
0000
0010
0000
0000
0200
0000
0000
,
0000
0000
0000
0000
,
0000
0000
0300
0000
;

//--------------- dance-single - SKooT ----------------
#NOTES:
     dance-single:
     SKooT:
     Easy:
     6:
     0,0,0,0,0:
0000
0000
0000
1000
,
1000
0000
0001
0000
0001
0100
0000
0000
,
0001
1000
1000
0001
,
0001
0000
1000
0000
1000
0100
0000
0000
,
0010
0001
1000
0001
,
0001
0000
1000
0000
1000
0010
0000
0000
,
1000
0001
0001
1000
,
1000
0000
0001
0000
0001
0010
0000
0000
,
0100
1000
0001
1000
,
0001
0000
0100
0000
0000
0010
0000
0100
,
0000
0001
0000
0000
0010
0000
0100
0000
,
0010
0000
0001
0000
0000
1000
0000
1000
,
0000
1001
0000
0001
,
0001
0000
0010
0000
0000
0100
0000
0010
,
0000
0001
0000
0000
1000
0000
0010
0000
,
0100
0000
0010
0000
0000
1000
0000
1000
,
0000
1001
0000
0100
,
0010
0100
0100
0010
,
0100
0100
0010
0100
,
0001
1000
0010
0100
,
0001
0000
2000
0000
0000
3000
0010
0000
,
0100
0010
0010
0100
,
0010
0010
0100
0010
,
1000
0001
0100
0010
,
1000
0002
0000
1000
,
1003
1000
1000
1000
,
1000
1000
0001
1000
,
0010
1000
0001
0100
,
0010
2000
0001
0001
,
0001
3000
0001
0000
0001
0000
0001
0000
,
0001
0001
1000
1000
,
1000
0001
1000
0000
,
0000
0000
0100
0010
,
0100
0000
0010
0000
0000
1001
0000
0000
,
0000
1001
0000
0000
0000
0000
0100
0000
,
0000
0100
0000
0000
0000
0010
0000
0000
,
0000
0100
0001
1000
,
0001
0000
1000
0000
0000
0110
0000
0000
,
0000
0110
0000
0000
0000
0000
1000
0000
,
0000
0001
0000
0000
0000
0100
0000
0000
,
0000
0001
1000
0100
,
1000
0000
0100
0000
0000
1001
0000
0000
,
0000
1001
0000
0000
0000
0000
0010
0000
,
0000
0010
0000
0000
0000
0100
0000
0000
,
0000
0010
0001
0100
,
0001
0000
0100
0000
0000
0110
0000
0000
,
0000
0110
0000
0000
0000
0000
0001
0000
,
0000
0001
0000
0000
0000
1001
0000
0000
,
0000
0110
0000
1000
,
0001
1000
0010
0100
,
0010
1000
0001
0010
,
0001
0010
0001
1000
,
0100
0000
1000
0000
0000
0100
0000
0000
,
0100
1000
0001
1000
,
0010
0100
0010
1000
,
0001
0010
0001
0010
,
0001
1000
1000
0010
,
0100
0001
1000
0010
,
0100
0010
1000
0001
,
1000
0010
0100
0010
,
1000
0001
1000
0000
,
0010
0000
0100
0000
0000
0001
0000
1000
,
0000
0010
0000
0000
0000
0000
1000
0000
,
0100
0000
0010
0000
0000
0001
0000
0000
,
0001
0010
0100
1000
,
0100
0000
0010
0000
0000
0001
0000
0000
,
0010
0100
1000
1000
,
0001
1000
0001
1000
,
1000
0001
0001
1000
,
0010
0000
0100
0000
0000
0002
0000
0000
,
0000
0000
0000
0000
,
0000
0000
0003
0000
;

//--------------- dance-single - SKooT ----------------
#NOTES:
     dance-single:
     SKooT:
     Medium:
     10:
     0,0,0,0,0:
0000
0000
0000
0001
,
1000
0000
0001
0100
0001
1000
0000
0000
,
0001
0000
0100
0010
1000
0000
0001
0000
,
0001
0000
0010
0001
1000
0001
0000
0000
,
0100
0000
0001
0010
0100
0000
1000
0000
,
0001
0000
1000
0010
1000
0001
0000
0000
,
1000
0000
0010
0100
0001
0000
0001
0000
,
1000
0000
0100
1000
0001
1000
0000
0000
,
0010
0000
1000
0100
0010
0000
1001
0000
,
1001
0000
0001
1000
0010
0100
0000
0100
,
0000
0001
0000
1000
0010
0000
0100
0000
,
0010
0000
1000
0001
0000
0110
0000
0110
,
0000
0100
0010
0000
0000
1000
0010
0000
,
0100
0000
0100
0001
1000
0001
0000
0100
,
0001
0010
0000
0010
0001
0000
1000
0000
,
0100
0000
0010
0001
0000
0100
0000
0010
,
0000
1000
0001
0000
0000
0000
1000
0000
,
0001
0000
0001
1000
0001
0100
0000
0010
,
0000
0100
0001
0000
0100
0000
0100
0010
,
0000
0010
0100
0000
0001
0010
0000
0010
,
0000
1002
0000
1000
,
1003
0000
0001
0000
0001
0100
0000
0001
,
0000
1000
0001
0000
0100
0000
0010
0100
,
0000
0100
0001
0000
1000
0010
0000
0010
,
0000
1002
0000
1003
,
0100
0000
1000
0000
1000
0010
0000
0100
,
0000
0001
1000
0000
0010
0000
0100
0000
,
0001
1000
0001
0010
,
0100
2000
0000
0001
,
3001
0000
0100
0010
0100
0001
0000
0001
,
0000
0100
0010
0000
0100
0000
0001
0000
,
1001
0000
1100
0000
0101
0000
1000
0001
,
1000
0001
1000
0001
1001
0000
0110
0000
,
1001
0000
0110
0000
0010
0100
0000
0100
,
0000
0001
0000
1000
0100
0000
1000
0000
,
0010
0100
0000
0100
0000
0001
0000
0010
,
0000
0001
1000
0000
0110
0000
1001
0000
,
0110
0000
1001
0000
0100
0001
0000
0001
,
0000
0010
0000
0100
0010
0000
0001
0000
,
0100
0010
0000
0010
0000
1000
0000
0001
,
0000
0100
0001
0000
1001
0000
0110
0000
,
1001
0000
0110
0000
0100
0010
0000
0010
,
0000
1000
0000
0001
0010
0000
0001
0000
,
0100
0010
0000
0010
0000
1000
0000
0100
,
0000
1000
0001
0000
0110
0000
1001
0000
,
0110
0000
1001
0000
0010
1000
0000
1000
,
0000
0100
0000
0010
0100
0000
1000
0000
,
0010
0100
0000
0100
0000
0001
0000
1000
,
0010
1100
0001
1000
,
0001
0000
0100
0010
0100
0001
0000
0100
,
0000
0001
1000
0000
0010
0100
0010
0000
,
1000
0000
0001
0000
0010
0100
0000
0100
,
0000
1000
0001
0010
0000
0010
0000
0000
,
0001
0000
0001
1000
0001
0100
0000
0010
,
0000
1000
0001
0000
0010
0100
0000
0100
,
0000
0010
0100
0000
1000
0010
0000
0010
,
0100
0001
0001
1000
,
0010
0100
0000
0100
0000
0010
0000
1000
,
0000
0001
0100
0000
0100
0001
0000
0001
,
0000
1000
0100
0010
0000
0010
0000
0001
,
1000
0100
0010
0001
1000
0000
1000
0000
,
1000
0001
0100
0001
0000
0100
0000
1001
,
0000
1000
0000
0001
1001
0000
1000
0000
,
0100
0000
0010
0100
0010
0001
0000
0000
,
1000
0000
1000
0100
1000
0000
0001
0000
,
0010
0000
0100
0000
0100
1000
0000
0000
,
1000
0000
0001
0010
0001
0000
1000
0010
,
1000
0001
1000
0010
1000
0001
0000
0100
,
0000
0001
0000
1000
0001
0000
0001
0100
,
0001
0010
0001
0100
0001
2000
0000
0000
,
0000
0000
0000
3000
;

//--------------- dance-single - SKooT ----------------
#NOTES:
     dance-single:
     SKooT:
     Hard:
     13:
     0,0,0,0,0:
0000
0000
0000
1000
,
1000
0000
0001
0100
0001
0011
0000
0000
,
0001
0010
0100
0010
0001
0000
0100
0000
,
0100
0000
0010
1000
0100
1100
0000
0001
,
0100
0010
1000
0010
0100
0000
0001
0000
,
0001
0000
1000
0010
1000
1100
0000
0000
,
1000
0100
0010
0100
1000
0000
0010
0000
,
0010
0000
0100
0001
0010
0011
0000
1000
,
0010
0100
0001
0100
0010
0000
1010
0000
,
1100
0000
0001
1000
0010
0100
0000
0100
,
0000
0001
0000
0100
0010
1000
0100
0000
,
0010
0000
0100
1000
0000
0101
0000
1010
,
0000
0100
0010
0000
0000
0100
0010
0100
,
0001
0000
0100
0001
1000
0001
0000
0100
,
0001
0010
0000
0010
0001
1000
0001
0000
,
0100
0000
0010
1000
0000
0100
0000
0010
,
0000
0001
1000
0000
0001
0000
1000
0000
,
0001
0000
0001
1000
0001
0100
0001
0010
,
0001
0100
0001
0010
0100
0000
0100
0010
,
0000
0001
0100
0000
0010
1000
0000
0100
,
0000
1000
0002
0000
0100
0000
1000
0000
,
1003
0000
0001
0010
0001
0100
0001
1000
,
0010
1000
0001
0000
0100
0000
0010
0100
,
0000
0010
0100
0000
0100
0010
0000
1000
,
0000
0001
2001
0000
0001
0000
3001
0000
,
0010
0000
0001
0010
0001
0100
0001
1000
,
0010
1000
0100
0000
0100
0000
1000
0001
,
1000
0100
0010
0000
0010
0001
0000
0100
,
0000
0100
0002
0000
0100
0000
1000
0000
,
1003
0000
0001
0010
0001
0100
0001
1000
,
0010
1000
0001
1000
0100
0010
0011
0000
,
1001
0000
1010
0000
1001
0000
1000
0001
,
0100
0001
1000
0001
1001
0000
0011
0000
,
1001
0000
1010
0000
0010
0100
0000
0100
,
0010
1000
0000
0010
0100
0001
1000
0000
,
0010
0100
0000
0100
0000
0001
0000
0010
,
0000
1000
0001
0000
1001
0000
0011
0000
,
1001
0000
1010
0000
0100
0001
0000
0001
,
0100
0010
0000
0100
0010
1000
0001
1000
,
0100
0010
0000
0010
0000
0001
0000
0100
,
0000
0001
1000
0000
1100
0000
1001
0000
,
0101
0000
1001
0000
0100
0010
0000
0010
,
0100
0001
0000
0100
0010
1000
0001
0000
,
0100
0010
0000
0010
0000
1000
0000
0100
,
0000
0001
1000
0000
1001
0000
0101
0000
,
1001
0000
1100
0000
1000
0100
0000
0100
,
0010
0001
0000
1000
0100
1000
0010
0000
,
0001
0010
0000
0100
0000
0101
0000
1000
,
1010
0000
1001
0000
0001
0000
0001
0100
,
0001
1000
0100
1000
0010
1000
0100
0010
,
0001
1000
0100
1000
0001
0100
0001
1000
,
0010
0100
0010
1000
0001
0100
0010
1000
,
0001
1000
0001
1001
0000
0110
0000
0100
,
0010
1000
0001
0010
0001
0100
0001
1000
,
0100
1000
0010
0100
0001
0010
0001
0100
,
0001
1000
0100
0010
0100
1000
0001
0100
,
0010
0100
0001
0000
0001
1000
0010
0100
,
0001
1000
0100
0010
0100
1000
0001
0010
,
0100
1000
0010
1000
0001
1000
0100
1000
,
0001
0100
0010
0100
0001
0100
0001
1000
,
0001
0100
0001
0010
0001
0000
0001
0000
,
1000
0001
0100
0001
1000
0100
0000
1001
,
0000
0100
0000
0100
1001
0000
1000
0000
,
0100
1000
0010
0100
0001
0010
0000
0000
,
0001
0000
1000
0100
1000
0000
0001
0000
,
0010
0001
0100
0010
1000
0100
0000
0000
,
1000
0000
0001
0010
0001
0000
1000
0100
,
1000
0001
0100
0010
0100
0101
0000
1100
,
0000
0001
0000
1000
0100
0000
1000
0010
,
0100
0001
1000
0010
0100
1002
0000
0000
,
0000
0000
0000
0003
;
