#TITLE:Ghost Town;
#SUBTITLE:;
#ARTIST:Trickle;
#TITLETRANSLIT:;
#SUBTITLETRANSLIT:;
#ARTISTTRANSLIT:;
#GENRE:;
#CREDIT:;
#MUSIC:Ghost Town.ogg;
#BANNER:Ghost Town BN.png;
#BACKGROUND:Ghost Town BG.png;
#CDTITLE:;
#SAMPLESTART:31.219;
#SAMPLELENGTH:20.053;
#SELECTABLE:YES;
#OFFSET:0.632;
#BPMS:0.000=189.974;
#STOPS:;
#BGCHANGES:;
#FGCHANGES:;

//--------------- dance-single - SKooT ----------------
#NOTES:
     dance-single:
     SKooT:
     Beginner:
     3:
     0,0,0,0,0:
0000
0000
0000
0000
,
1000
0000
1000
0000
,
1000
0000
1000
0000
,
0010
0000
0001
0000
,
0010
0000
1000
0000
,
0002
0000
0000
0000
1000
0003
0000
0000
,
1000
0000
1000
0000
,
0010
0000
0001
0000
,
0100
0000
0000
0000
,
1000
0000
0001
0000
,
0100
0000
1000
0000
,
0100
0000
0001
0000
,
1000
0000
1000
0000
,
0001
0000
1000
0000
,
0010
0000
0001
0000
,
0010
0000
1000
0000
,
0001
0000
0000
0000
0001
0000
0000
0001
,
0000
2000
0001
3000
,
0000
1000
0000
0000
1000
0000
0000
1000
,
0000
0000
0000
0000
0001
0000
0000
0010
,
0000
0000
0000
0100
0000
0000
0000
1000
,
0000
0000
0000
0000
0010
0000
0000
0010
,
0000
0000
0000
0000
0010
0000
0000
0100
,
0000
0100
0100
0100
,
0100
0000
0000
0100
0000
0000
0000
0000
,
0001
0000
0001
0000
,
1000
0000
1000
0000
,
0010
0000
0010
0000
,
1000
0000
0001
0000
,
1000
0000
1000
0000
,
0010
0000
0010
0000
,
0100
0000
0100
0000
,
0001
0000
0000
0000
0001
0000
0000
0001
,
0000
0100
0000
0010
,
0000
0000
1000
0000
0000
0000
0000
0001
,
0000
1000
0000
0010
,
0000
0000
0000
0010
0000
0000
0000
0010
,
0000
0100
0000
0001
,
0000
0000
1000
0000
0000
0000
0000
0002
,
0000
0000
0000
0000
0000
0000
0000
1003
,
0000
0001
0001
0001
,
0001
1000
0000
0100
,
0000
0100
0000
0010
,
0000
0010
0000
0100
,
0000
1000
0000
0001
,
0000
0001
0000
0100
,
0000
0100
0000
0010
,
0000
0010
0000
0000
,
0100
0000
0100
0000
0100
0000
0000
0100
,
0000
0000
0002
0000
0000
0000
0003
2000
,
0000
0000
0000
0000
3000
0000
0000
0010
,
0000
0000
0000
0000
1000
0000
0000
0001
,
0000
0000
0000
0001
0000
0000
0000
0001
,
0000
1000
0000
0010
,
0000
0000
1000
0000
0000
0000
0000
0001
,
0000
0000
1000
0000
1000
0000
0000
0001
,
0000
0000
1000
0000
1000
0000
0000
0001
;

//--------------- dance-single - SKooT ----------------
#NOTES:
     dance-single:
     SKooT:
     Easy:
     6:
     0,0,0,0,0:
0000
0000
0000
0000
,
0100
0100
0100
0100
,
0100
0100
0100
0100
,
0010
0100
0001
0010
,
0001
0100
0010
0200
,
0302
0000
0100
0000
0100
0003
0100
0000
,
0100
0100
0100
0010
,
1000
0100
1000
0010
,
0100
0000
0000
0100
0000
0000
0000
0000
,
0001
0010
0001
0100
,
0001
0000
0000
1000
0000
1000
0000
0010
,
0000
0100
0001
0001
,
0010
0000
0000
0001
0000
0000
0000
1000
,
0000
0100
0010
0001
,
1000
0000
0000
0001
0000
0001
0000
0100
,
0000
0010
1000
1000
,
0001
0000
0000
0010
0000
0000
0000
0100
,
0000
0000
2000
0000
3200
0000
0300
0010
,
0000
0001
0000
0000
1000
0000
0000
1000
,
0000
0000
0010
0000
0010
0000
0000
0100
,
0000
0000
0000
0001
0000
0000
0000
0010
,
0000
0000
0100
0000
1000
0000
0000
0001
,
0000
1000
0000
0001
0000
0000
0000
0100
,
0000
0010
0100
0010
,
0100
0000
0000
0001
0000
0000
0000
0000
,
0001
1000
0001
0100
,
0010
0100
0010
1000
,
0100
1000
0001
0100
,
0001
0010
0100
1000
,
0010
0100
0010
0100
,
0001
1000
0001
0010
,
0001
1000
0010
1000
,
0001
0000
0010
0000
0100
0000
0000
1000
,
0000
0000
0001
0000
0100
0000
0000
1000
,
0000
0000
0000
0001
0000
0010
0000
0100
,
0000
1000
0100
1000
,
0001
0000
0000
0100
0000
0000
0000
0001
,
0000
0000
1000
0000
0010
0000
0000
0001
,
0000
0000
0000
0100
0000
0000
0000
2000
,
0000
0000
0001
0000
0001
0000
0000
3001
,
0000
0010
0100
1000
,
1000
0001
1000
0010
,
0100
0010
0100
0001
,
0010
0001
1000
0010
,
1000
0100
0010
0001
,
0100
0010
0100
0010
,
1000
0001
1000
0100
,
1000
0001
0100
0001
,
1000
0000
0100
0000
0010
0000
0000
0001
,
0000
0000
2001
0000
0000
0000
3000
0002
,
0000
1000
0000
1003
,
0000
0000
0010
0000
0000
0000
0000
0100
,
0000
0000
0000
0110
0000
0000
0000
0110
,
0000
0010
0000
0100
,
0000
0000
0000
1000
0000
0000
0000
1000
,
0000
0000
0001
0000
0001
0000
0000
1000
,
0000
0000
0001
0000
0001
0000
0000
1000
;

//--------------- dance-single - SKooT ----------------
#NOTES:
     dance-single:
     SKooT:
     Medium:
     10:
     0,0,0,0,0:
0000
0000
0000
0000
,
0100
0000
0100
0000
0100
0000
0100
0001
,
0100
0000
0100
0000
0100
0010
0000
1000
,
0000
0001
0100
0000
0001
0010
0001
0000
,
0100
0001
0100
0020
,
2030
0000
0100
0000
0100
3000
0100
1000
,
0100
0000
0100
0000
0100
0010
0000
0001
,
0000
1000
0010
0000
1000
0100
1000
0000
,
0001
0010
0100
1000
0000
0000
0000
0000
,
0010
0100
0010
0000
0010
1000
0010
0000
,
0010
0000
1000
0001
0000
0001
0100
0001
,
0000
0010
0100
0000
1000
0100
1000
0000
,
0001
0000
0100
0010
0100
0001
0000
1000
,
0000
0010
0100
0000
0100
0001
0100
0000
,
0100
0000
0001
1000
0000
1000
0010
1000
,
0000
0100
0010
0000
0001
0010
0001
0000
,
1000
0000
0001
0100
0010
1000
0000
2001
,
0000
0000
3020
0000
0230
0000
0300
0010
,
0000
0001
0000
1000
0001
0000
0001
1000
,
0000
1000
0001
0010
0001
1000
0000
1001
,
0000
0000
1000
0100
0000
0000
0010
0001
,
0000
0000
0010
0000
0100
0000
1000
0010
,
0000
0100
0000
0001
0000
1000
0010
2000
,
0000
3010
0100
0010
,
0100
0010
0100
0001
0000
0010
0010
0010
,
0100
0000
1000
0000
0001
1000
0100
0000
,
0010
0100
0010
0100
0000
1000
0001
0100
,
0000
0010
0100
0001
0000
1000
0100
0020
,
0000
0000
0031
0000
0010
0001
0100
0000
,
0110
0100
0101
0001
,
0010
0001
0010
0001
0000
1000
0010
1000
,
0000
1000
0001
1000
0100
0000
0010
0000
,
0001
0000
0010
0000
0100
0100
0100
1000
,
0000
0000
0001
0000
0010
0000
0001
0100
,
0000
0100
0010
0100
0000
0100
0010
1000
,
0000
0001
0100
0000
0010
0000
1000
0100
,
0010
0000
0100
1000
0000
0001
1000
0010
,
0000
0000
1000
0000
0100
0000
0010
0001
,
0000
0100
0010
0100
0000
0100
0010
1000
,
0000
0000
0001
0000
0001
0000
0001
0010
,
0000
0001
0010
0100
1000
0100
0100
0100
,
0010
0000
0001
0000
1000
0010
0100
0000
,
0010
0100
0010
0100
0000
0001
1000
0010
,
0000
0100
0010
1000
0000
0001
0010
0200
,
0000
0000
1300
0000
0010
0100
0001
0000
,
0011
0100
1100
1000
,
0100
1000
0100
1000
0000
0001
0100
0001
,
0000
0001
1000
0001
0010
0000
0100
0000
,
1000
0000
1000
0000
0010
0010
0010
0100
,
0000
0000
0210
0000
0000
0300
0001
2000
,
0000
0000
0001
0000
0000
3000
0100
0001
,
0000
0001
0010
0000
0100
0000
0010
0001
,
0000
0100
0000
0110
0000
0010
0000
1010
,
0000
0000
0100
0000
0010
0000
0010
1000
,
0000
0001
0000
0010
0000
0001
0000
1001
,
0000
1000
0100
0000
0100
0000
0100
1000
,
0000
0001
1000
0000
0100
0100
0100
0020
,
0000
0030
0000
0000
0000
0000
0000
0000
;

//--------------- dance-single - SKooT ----------------
#NOTES:
     dance-single:
     SKooT:
     Hard:
     13:
     0,0,0,0,0:
0000
0000
0000
0000
,
0100
0000
0100
0000
0100
0001
0100
0001
,
0100
0000
0100
0001
0000
0010
0000
0001
,
0000
0001
0100
0000
0001
0010
0100
0010
,
0001
0000
0100
0000
0100
0010
2000
0000
,
3002
0000
0100
0000
0100
0013
1000
0010
,
0100
0000
0100
1000
0100
0001
0000
1000
,
0000
1000
0100
0000
0001
0100
1000
0001
,
1000
0010
0100
0001
0000
0000
0000
0000
,
0010
0001
0100
0000
0010
1000
0100
0010
,
0100
0000
1000
0001
0000
0001
1000
0010
,
0000
0100
0010
1000
0100
0000
1000
0000
,
0001
0000
1000
0001
0010
0100
0000
0001
,
0000
1000
0010
0000
0010
0100
0001
1000
,
0010
0000
0100
0001
0000
1000
0001
0010
,
0000
0010
0001
0000
0010
0100
1000
0000
,
0001
0000
0100
0001
1000
0100
0000
2001
,
0000
0000
3020
0000
0230
0000
0300
0010
,
0000
0001
0000
1000
0001
0000
0010
0001
,
0000
0100
0001
0010
0001
1000
0010
1010
,
0000
0010
0100
0110
0000
0100
0001
0101
,
0000
0000
1000
0000
0010
0000
1000
0100
,
0000
0010
0000
1000
0000
1000
0001
1000
,
0000
1000
0100
1000
0010
0100
0001
0010
,
0001
0100
0001
1000
0000
0010
0010
0010
,
0110
0000
1010
0000
1000
0001
0100
0000
,
0001
1000
0100
1000
0000
0010
0100
0001
,
0000
0010
0100
1000
0000
0010
1000
0200
,
0000
0310
0001
0100
0010
1000
0100
0000
,
0110
0000
0011
0000
0101
0000
0100
0010
,
1000
0001
0010
0100
0000
1000
0010
1000
,
0000
1000
0001
0010
0001
0000
0001
0100
,
0010
0000
0010
0000
0100
0100
0100
0110
,
0000
0000
0100
0000
1000
0000
0001
0010
,
0000
0001
0100
0010
0000
0100
0001
0010
,
0000
0100
1000
0000
0010
0000
0100
0001
,
0010
0100
1000
1100
0000
0100
0010
0011
,
0000
0000
0001
0000
0100
0000
1000
0001
,
0000
0001
0100
0010
0000
1000
0001
0100
,
0000
0001
0010
1000
0010
0001
0100
0010
,
0000
1000
0100
0010
0001
0100
0100
0100
,
0110
0000
0101
0000
0001
1000
0010
0000
,
1000
0001
0010
0001
0000
0100
0010
1000
,
0000
0100
0010
0001
0000
0100
0001
0020
,
0000
0130
1000
0010
0100
0001
0010
0000
,
0011
0000
0110
0000
1100
0000
0010
0100
,
0001
1000
0100
0010
0000
0001
0100
0001
,
0000
0001
1000
0100
1000
0000
1000
0010
,
0100
0000
0100
0000
0010
0010
0010
0100
,
0000
0000
0210
0000
0000
0300
0001
2000
,
0000
0000
0001
0000
0000
3001
0100
0001
,
0000
0001
0010
0100
1000
0001
0100
0010
,
0000
0010
0100
0101
0000
0100
0010
1010
,
0000
0000
1000
0000
0010
0001
0010
1000
,
0000
1000
0001
0010
0000
0010
0100
1100
,
0000
1000
0001
0010
1000
0010
0001
0011
,
0000
0001
0100
0010
1000
1000
1000
0020
,
0000
0030
0000
0000
0000
0000
0000
0000
;
