#TITLE:Fight Song;
#SUBTITLE:;
#ARTIST:Eve;
#TITLETRANSLIT:;
#SUBTITLETRANSLIT:;
#ARTISTTRANSLIT:;
#GENRE:;
#CREDIT:;
#MUSIC:Fight Song.ogg;
#BANNER:Fight Song Banner.png;
#BACKGROUND:Fight Song BG.png;
#CDTITLE:;
#SAMPLESTART:44.811;
#SAMPLELENGTH:14.881;
#SELECTABLE:YES;
#OFFSET:1.737;
#BPMS:0.000=126.000;
#STOPS:;
#BGCHANGES:3.300=Fight Song.avi=1.000=1=0=0=StretchNoLoop==CrossFade==;
#FGCHANGES:;

//--------------- dance-single - SKooT ----------------
#NOTES:
     dance-single:
     SKooT:
     Beginner:
     4:
     0,0,0,0,0:
0000
0000
0000
0000
,
0001
0001
0001
0001
,
1000
1000
1000
1000
,
0001
0001
0001
0001
,
1000
1000
0000
0000
,
1000
0100
0000
0100
,
0000
0010
0000
0001
,
0000
1000
0000
0010
,
0000
0100
0000
0001
,
0000
0010
0000
0100
,
0100
0010
0000
0001
,
0001
1000
0000
0010
,
0000
0100
0001
0001
,
0001
1000
0000
1000
,
0000
0001
0000
0001
,
0000
0010
0000
0100
,
0000
0010
0000
0001
,
0000
0100
0000
0100
,
0000
0010
0000
0010
,
0000
1000
0000
0001
,
1000
0000
1000
0000
,
0001
0000
0000
0000
,
0001
0000
0000
0000
,
1000
0000
0010
0100
,
0010
0000
0000
0000
,
1001
0000
1000
0001
,
1000
0000
0010
0100
,
0010
0000
1000
0001
,
1000
0000
0010
1000
,
0010
0000
0100
0001
,
0100
0000
0001
0010
,
0001
0000
0001
0000
,
1000
0000
0100
0000
,
1000
0000
0001
1000
,
0001
0000
0100
0010
,
0100
0000
0001
1000
,
0001
0000
0100
0000
,
0010
0000
0100
0000
,
0010
0000
0000
0010
0000
0000
0000
0000
,
1000
0000
0001
0000
,
0100
0000
0001
0000
,
1000
0001
0001
0001
,
0100
0010
0010
0010
,
1000
0100
0100
0100
,
0010
0000
0001
0000
0000
0001
0000
0000
,
0001
1000
1000
1000
,
0010
0100
0100
0100
,
0001
0010
0010
0100
,
0100
0010
0000
0000
,
1000
0001
0001
0001
,
0100
0010
0010
0010
,
1000
0100
0100
0100
,
0010
0001
0001
0001
,
1000
0001
1000
0001
,
1000
0001
0200
0000
,
0000
0300
0010
0000
,
0000
0000
1000
0000
,
0000
0000
0001
0000
,
0010
0010
0100
0000
,
0000
2000
0000
0000
0001
0000
0001
0000
,
0000
0000
3001
0000
,
1000
0000
0001
0000
,
0100
0010
0100
0000
,
0001
1000
0001
0000
,
0100
0001
0100
0000
,
0010
1000
0010
0000
,
1000
0100
1000
0000
,
1000
0000
0001
0000
,
0010
0000
0001
0000
,
1000
0001
1000
0000
,
0010
0100
0010
0000
,
1000
0001
1000
0000
,
0010
0000
0100
0000
,
0010
0000
0000
0000
0100
0000
0000
0100
,
0000
0000
0001
0000
,
1000
0000
0010
0000
,
1000
0000
0001
1000
,
0001
0001
1000
1000
,
0001
1000
0001
1000
,
0001
0001
1000
1000
,
0001
0000
1000
0000
0000
0002
0000
0000
,
0000
0000
0000
0000
,
0003
0000
0000
0000
;

//--------------- dance-single - SKooT ----------------
#NOTES:
     dance-single:
     SKooT:
     Easy:
     6:
     0,0,0,0,0:
0000
0000
0000
0000
,
0001
0001
0001
0001
,
1000
0001
0001
0001
,
1000
1000
1000
0001
,
1000
1000
0000
0000
,
1000
0100
1000
0001
,
0010
0001
1000
0001
,
0001
1000
0010
1000
,
0100
1000
0001
0100
,
0001
0001
1000
0001
,
1000
1000
0001
1000
,
0001
0100
0000
0010
,
1000
0000
0000
0000
0100
0000
0000
0000
0010
0000
0000
0010
0000
0010
0000
0010
,
0000
0001
1000
0001
,
1000
0100
0010
0001
,
0010
0001
1000
0001
,
1000
0100
0010
0001
,
0100
0010
0100
0001
,
0001
0100
0010
1000
,
1000
0001
1000
0010
,
1000
0000
0001
0000
,
0010
0000
0000
0000
,
0001
0000
0000
0000
,
1000
0001
0010
0100
,
1000
0000
0000
0000
,
1001
0001
0100
0010
,
1000
1000
0001
0100
,
0001
0001
1000
0001
,
0100
0100
0010
1000
,
0001
0010
0100
0010
,
0001
1000
0001
0010
,
0100
0000
0000
1000
0000
0000
0010
0000
,
0100
0000
0001
0000
,
1001
1000
0010
0100
,
0001
0001
1000
0010
,
1000
1000
0001
1000
,
0100
0010
0100
0010
,
0001
0100
0010
0000
,
1000
0000
0000
0001
0000
0000
0001
0000
,
1000
0000
0010
0000
,
0100
0000
0001
0001
,
1000
0010
1000
1000
,
0001
0010
0001
0001
,
1000
0100
1000
1000
,
0001
0100
0001
1000
,
0001
0010
0100
0100
,
1000
0010
0100
0100
,
0010
1000
0010
0100
,
0010
0000
0100
0100
0000
0000
0000
0000
,
0001
0100
0001
0001
,
1000
0100
1000
1000
,
0001
0010
0001
0001
,
1000
0010
1000
1000
,
0001
1001
1000
1001
,
0001
0000
1001
0000
1000
0002
0000
0000
,
0000
0003
0010
0000
,
0000
0000
1000
0000
,
0000
0000
0001
0000
,
0010
0100
1000
0000
,
0000
2000
0000
0000
0001
0000
0001
0000
,
0002
3003
1000
0000
,
0001
0000
1000
1000
,
0001
0100
0001
0001
,
1000
0001
0100
0100
,
0010
1000
0001
0010
,
0100
0010
0001
1000
,
0001
0000
0010
0000
0100
0000
0000
1000
,
0000
0010
0100
0000
,
0001
0000
1001
1000
,
0010
0100
0001
0001
,
1000
0010
1000
1000
,
0001
1000
0100
0010
,
0100
0010
0001
0100
,
0010
0000
0000
0000
1000
0000
0000
0001
,
0000
0001
1000
0000
,
0010
0000
0100
0100
,
0001
1000
1001
1000
,
0001
0001
0010
0010
,
0100
1000
0010
0100
,
0001
0001
0010
0010
,
0100
0000
1000
0000
0000
0002
0000
0000
,
0000
0000
0000
0000
,
0003
0000
0000
0000
;

//--------------- dance-single - SKooT ----------------
#NOTES:
     dance-single:
     SKooT:
     Medium:
     10:
     0,0,0,0,0:
0000
0000
0000
0000
,
0001
0001
0001
0001
,
1000
0001
0010
0100
,
1000
1000
1000
0001
,
1000
0010
0000
0000
,
1000
0000
0010
0000
0100
0000
0000
0001
0000
0001
0000
0000
1000
0000
0001
0000
,
0010
0000
0000
0000
0100
0000
0000
1000
0000
0000
0100
0000
0010
0000
0100
0000
,
1000
0000
0001
0000
0010
0000
0000
0100
0000
0100
0000
0000
1000
0000
0001
0000
,
1000
0000
0000
0010
0000
0000
0010
0000
1000
0000
0000
0000
0001
0000
0010
0000
,
0100
0000
1000
0000
0001
0000
0000
0100
0000
0000
0100
0000
0010
0000
1000
0000
,
0001
0000
0000
0000
1000
0000
0000
0010
0000
0000
0010
0000
0100
0000
0001
0000
,
1000
0000
0000
0000
1000
0000
0000
0001
0000
0001
0000
0000
0010
0000
0001
0000
,
1000
0000
0000
0000
1000
0000
0010
0000
0100
0000
0000
0100
0000
0100
0000
0100
,
0000
0000
0001
0000
1000
0000
0000
0100
0000
0010
0000
0010
0000
0000
0001
0000
,
0100
0000
0000
1000
0000
0000
0100
0000
0000
0001
0000
0000
0100
0000
0010
0000
,
0100
0000
0001
0000
1000
0000
0000
0010
0000
1000
0000
0001
0000
0000
1000
0000
,
0100
0000
0000
0000
0010
0000
0000
0100
0000
0000
1000
0000
0001
0000
0000
0000
,
0100
0000
0010
0000
0100
0000
0000
0001
0000
0001
0000
0000
0010
0000
0100
0000
,
1000
0000
0000
0000
0001
0000
0000
1000
0000
1000
0000
0000
0100
0000
0010
0000
,
0001
0000
0000
0000
0100
0000
0000
0010
0000
0100
0000
0100
0000
0000
0001
0000
,
0010
0000
0000
0001
0100
0000
0000
0001
1000
0000
0010
0000
0000
0000
0000
0000
,
0100
0000
0000
0000
,
0001
0000
0000
0000
0000
1000
0000
0000
,
1001
0001
0010
0100
,
1000
0100
0010
0001
0000
0000
0000
0000
,
1100
0000
0000
0000
0011
0000
0000
0000
0100
0000
0000
0010
0000
1000
0000
0001
,
0000
0000
0000
0000
0100
0000
0000
0000
0100
0000
0000
0010
0000
1000
0000
0100
,
0000
0000
1000
0000
0001
0000
0000
0000
0010
0000
0000
0001
0000
0100
0000
0001
,
0000
0000
0010
0000
0100
0000
0000
0000
1000
0000
0000
0010
0000
0100
0000
0000
,
0110
0000
0000
0000
0010
0000
0000
0000
0100
0000
0000
0100
0000
0001
0000
0010
,
0000
0000
0001
0000
0100
0000
0010
0000
1000
0000
0000
0100
0000
1000
0000
0010
,
0000
0000
0100
0000
0000
0000
0002
0000
0000
0003
1000
0000
0100
0000
0000
0000
,
0100
0000
0000
1000
0000
0000
0001
0000
0010
0000
0000
0010
0000
0100
0000
0000
,
0011
0000
0000
0000
0100
0000
0000
0000
0010
0000
0000
1000
0000
0010
0000
0100
,
0000
0000
0001
0000
0010
0000
0000
0000
0001
0000
0000
0010
0000
0100
0000
1000
,
0000
0001
1000
0000
0010
1000
0010
1000
,
0001
0010
0001
0100
0010
0100
0010
0100
,
0001
1001
0010
0100
,
0010
0000
0000
0001
0000
0000
1001
0000
0000
0000
0100
0000
0001
0000
0010
0000
,
0000
0001
1000
0020
0000
0130
0000
0001
,
0010
0100
1000
1000
,
0100
0000
1000
0000
0010
0000
0000
0100
0000
0001
0000
0001
0000
0001
0000
0000
,
1000
0000
0000
0000
0100
0000
0000
0010
0000
0100
0000
0100
0000
0100
0000
0000
,
1000
0000
1000
0000
0001
0000
0000
0100
0000
0010
0000
0010
0000
0010
0000
0000
,
0100
0000
0100
0000
0001
0000
0000
0010
0000
0000
0001
0000
0010
0000
0100
0000
,
1000
0000
0000
0000
1000
0000
0000
0010
0000
1000
0000
1000
0000
1000
0000
0000
,
0001
0000
0000
0000
0100
0000
0000
0001
0000
0001
0000
0001
0000
0000
0100
0000
,
0010
0000
1000
0000
0001
0000
0000
0001
1000
0000
0010
0000
0000
0010
1000
0000
,
0100
0000
0010
0000
0001
0000
0100
0000
0000
0010
0000
0010
0000
0010
0000
0000
,
1000
0000
0001
0000
0100
0000
0000
0001
0000
1000
0000
0001
0000
1000
0000
0000
,
0001
0000
0100
0000
0010
0000
0000
0100
0000
0010
0000
0100
0000
0000
0010
0000
,
0010
0000
0100
0000
0001
0000
0000
0010
0000
0001
0000
0100
0000
0010
0000
0000
,
0100
0000
0010
0000
1000
0000
0000
0100
0000
1000
0000
0010
0000
0100
0000
0000
,
0110
1010
0110
0101
,
0011
0000
0110
0000
0100
2000
0000
0000
,
0000
0000
0000
0000
3000
0000
0000
0010
0000
0000
0000
0000
0000
0000
0000
0000
,
0000
0000
0000
0000
0000
0000
0000
1000
0000
0000
0000
0000
0000
0000
0000
0000
,
0000
0000
0001
0000
,
0001
0010
0100
0000
,
0000
2000
0000
0000
3010
0100
0001
2000
,
0000
0000
0000
0000
0000
3000
0000
0000
0001
0000
0000
0000
0000
0000
0000
0000
,
0000
0000
1000
1000
,
0010
0000
0000
0100
0000
0001
0000
0010
0000
0000
0001
0000
1000
0000
0000
0000
,
0100
0000
0000
1000
0000
0010
0000
1000
0000
0000
0100
0000
0010
0000
0000
0000
,
0001
0000
0000
0100
0000
0010
0000
0000
0110
0000
0000
0000
0100
0000
0000
0000
,
0010
0000
0000
0010
0000
1000
0000
0100
0000
0000
1000
0000
0010
0000
0100
0000
,
0001
0000
0000
0010
0000
0001
0000
0100
0000
0000
0100
0000
0000
0000
2000
0000
,
0000
3000
0001
0000
0010
0000
0000
0000
0010
0000
0000
0001
0000
0000
1000
0000
,
0100
0000
0000
0010
0000
0010
0000
0000
0001
0000
0000
0000
0100
0000
0000
0000
,
0100
0000
0000
0001
0000
0100
0000
0010
0000
0000
1000
0000
0100
0000
0000
0000
,
1000
0000
0000
0100
0000
0010
0000
0001
0000
0000
1000
0000
0001
0000
0000
0000
,
0100
0001
0100
0001
1000
0001
1000
0010
,
0100
0010
0100
0010
1000
0000
0001
0000
,
0100
0000
0000
0000
0010
0000
0000
0000
0100
0000
0000
0001
0000
0000
1000
0000
,
0000
0010
1000
0100
0000
1000
0001
0200
,
0000
0310
0000
1000
0100
0000
0010
0000
,
0001
1000
1001
1000
,
0001
1000
0001
0000
0010
0001
0010
0000
,
0100
1000
0010
0100
,
0001
1000
0001
0000
1000
0010
1000
0000
,
0001
0000
0001
0000
0000
0100
0000
0000
0000
0000
0020
0000
0000
0000
0000
0000
,
0000
0000
0000
0000
,
0030
0000
0000
0000
;

//--------------- dance-single - SKooT ----------------
#NOTES:
     dance-single:
     SKooT:
     Hard:
     14:
     0,0,0,0,0:
0000
0000
0000
0000
,
0001
0001
0001
0001
,
1000
0001
0010
0100
,
1000
1000
1000
0001
,
1000
0010
0000
0000
,
1000
0000
0010
0000
0100
0000
0100
0001
0000
0001
0000
0001
1000
0000
0100
0000
,
0010
0000
0000
0000
0110
0000
0000
1000
0000
0010
0100
0000
0001
0100
0001
0010
,
0001
0000
1000
0000
0010
0000
0010
0100
0000
0001
0000
0100
0010
0000
1000
0000
,
0001
0000
0100
0001
0000
0010
0001
0000
0100
0000
0001
0000
1000
0010
0100
0001
,
0010
0000
0001
0000
0010
0000
0100
1000
0000
1000
0100
0000
0010
0000
0001
0000
,
0101
0000
0100
0000
1000
0000
0100
0001
0000
0001
0010
0000
0100
1000
0010
0000
,
1010
0000
1000
0000
0001
0000
0000
0011
0000
0110
0000
1000
0001
0000
0100
0000
,
0110
0000
0000
0000
1000
0000
0010
0100
0001
0010
0000
0110
0000
0110
0000
0110
,
0000
0000
1000
0000
0001
0000
0100
0010
0000
0100
0000
0010
1000
0000
0001
0000
,
0100
0000
0010
1000
0000
0001
0100
0000
0010
1000
0000
0000
1000
0001
1000
0001
,
0010
0000
0001
0000
0001
0000
0010
0100
0000
1000
0000
0001
0010
0000
0001
0000
,
0100
0000
0000
0010
1000
0000
0001
1000
0000
0100
1000
0000
0001
0100
0010
1000
,
0100
0000
0010
0000
0100
0000
0010
0001
0000
0001
0010
0000
0100
0000
1000
0000
,
1010
0000
0010
0000
0001
0000
0010
1000
0000
1000
0000
0100
0010
0000
0001
0000
,
0101
0000
0100
0000
0010
0000
0000
1000
0000
0001
0000
1000
0001
0000
1000
0000
,
0010
0000
0000
1000
0100
0000
0000
0001
0100
0000
0010
0000
0000
0000
0000
0000
,
1000
0000
0000
0000
,
0001
0000
0000
0000
0000
0100
0000
0000
,
1001
0000
1000
0001
0010
0001
0100
0010
,
1000
0100
0010
0001
0000
0000
0000
0000
,
1100
0000
0000
0000
0011
0000
0001
0000
0100
0000
0100
0010
0000
1000
0000
0000
,
0100
0000
0010
0000
0001
0000
0100
0001
0100
0000
1000
0100
0000
0001
0000
0101
,
0000
0000
0110
0000
0100
0000
0001
1000
0100
0000
0001
0100
0000
1000
0000
1010
,
0000
0000
1001
0000
1000
0000
0100
0010
0001
0000
0001
0010
0000
0100
0000
0000
,
0110
0000
0000
0000
0010
0000
0100
1000
0100
0000
0001
0100
0000
1000
0000
1010
,
0000
0000
0110
0000
0010
0000
0001
0010
1000
0000
1000
0100
0000
0010
0000
0011
,
0000
0110
0100
2000
0000
3010
0001
0010
,
0100
0000
0000
1000
0001
0000
0001
0100
0010
0000
0010
1000
0000
0100
0000
0000
,
0011
0000
0000
0000
0100
0000
0010
0000
1000
0001
0000
0100
0000
0100
0000
0001
,
0000
0000
0011
0000
0010
0000
0100
0000
1000
0010
0000
0010
0000
0100
0000
0001
,
0000
1100
0100
1000
0010
0100
0010
1000
,
0001
0000
0010
0000
0001
0000
0100
0000
0010
0000
1000
0000
0010
0100
0010
0000
,
1000
0000
0001
0000
1001
0000
0100
0000
0010
1000
0000
0100
0000
0010
0000
0001
,
0000
1000
0000
0001
0000
0000
1010
0000
0000
0000
0100
0000
0001
0000
0010
0000
,
0001
0001
1000
0020
0000
0130
0000
1000
,
0010
0100
0001
0010
,
0100
0000
1000
0000
0010
0100
0000
0010
0000
1000
0000
0100
0000
0001
0000
1000
,
0010
0000
0010
0000
0100
0010
0000
0100
0000
0001
0000
0010
0000
1000
0000
0001
,
0100
0000
0100
0000
0010
1000
0000
0010
0000
1000
0000
0100
0000
0001
0000
1000
,
0100
0000
0100
0010
0001
0100
0000
0001
0000
1000
0001
0000
0010
0001
0100
0010
,
1000
0000
0001
0000
1000
0100
0000
0010
0000
0100
0000
0001
0000
1000
0000
0010
,
0100
0000
0001
0000
0010
0100
0000
0010
0000
1000
0000
0001
0100
0000
0010
0000
,
1000
0000
0001
0000
1000
0010
0000
0001
0010
0000
1000
0010
0000
0001
0010
0000
,
1000
0001
0100
0010
0100
0001
0100
0000
0000
0110
0000
0110
0000
0110
0000
0010
,
1000
0000
0001
0000
0100
0010
0000
0100
0000
0001
0000
0010
0000
1000
0000
0001
,
0100
0000
0100
0000
0010
1000
0000
0100
0000
0001
0000
1000
0010
0000
0100
0000
,
0001
0000
1000
0000
0010
0100
0000
0010
0000
1000
0000
0010
0000
0001
0000
0100
,
0001
0000
0100
0001
1000
0001
0000
0010
0000
0100
0000
1000
0000
0010
0000
1000
,
0010
0100
0001
0100
1000
0100
0040
0130
,
1000
0100
0001
0010
0001
2001
0000
0000
,
0000
0000
0000
0000
3000
0000
0000
0100
0000
0000
0000
0000
0000
0000
0000
0000
,
0000
0000
0000
0000
0000
0000
0000
0010
0000
0000
0000
0000
0000
0000
0000
0000
,
0000
0000
0001
0000
,
0001
0010
0100
0000
,
0000
2000
0000
0000
3010
0100
0001
2000
,
0000
0000
0000
0000
0000
3000
0000
0000
0011
0000
0000
0000
1000
0000
0000
0000
,
0010
0000
0010
0100
0000
0001
0000
0000
0010
0000
0100
0000
1000
0000
0010
1000
,
0010
0000
0001
0010
0000
1000
0000
1010
0000
0000
0110
0000
0010
0000
1000
0001
,
0010
0000
1000
0010
0000
0001
0000
0101
0000
0000
1001
0000
0001
0000
0010
0100
,
1000
0000
1000
0100
0000
0010
0000
0000
0110
0000
0000
0000
0100
0000
0010
0001
,
0010
0000
1000
0010
0000
0001
0000
0101
0000
0000
0110
0000
0100
0000
1000
0100
,
0001
0000
0001
0010
0000
0100
0000
1100
0000
0000
0110
0000
0010
0000
0002
0000
,
0000
0000
0103
0000
1000
0000
0100
0000
0010
0000
0000
0001
1000
0000
1000
0010
,
0100
0000
0100
0001
0000
0010
0000
0000
1100
0000
0000
0000
0010
0000
0100
0000
,
0001
1000
0000
0010
0000
0010
0000
1000
0000
0000
1100
0000
0100
0000
0010
0000
,
0001
0100
0000
0100
0000
0010
0000
1000
0000
0000
0011
0000
0010
0000
0001
0000
,
0100
0010
0100
0001
1000
0100
1000
0010
,
0100
0000
0001
0000
0100
0010
0100
0000
0001
0000
1000
0000
1001
0000
0010
0000
,
0100
0001
0000
0010
0000
0100
0000
1000
0000
0001
0000
1000
0000
0000
0101
0000
,
0000
0010
1000
0100
1000
1000
0001
0200
,
0000
0310
0000
0001
0100
0000
0010
0000
,
1000
0000
0000
0000
0100
0000
0000
0000
1010
0000
0100
0000
0001
0000
0000
0001
,
0000
0010
0000
0100
0000
0001
0000
0010
0000
0100
0000
0000
1000
0000
1000
0000
,
0001
0010
0001
0000
1000
0010
1000
0000
0001
0000
0010
0000
1000
0000
0000
1000
,
0000
0100
0000
0010
0000
1000
0000
0100
0000
0010
0000
0000
0001
0000
0001
0000
,
1000
0100
1000
0000
0001
0100
0001
0100
0000
0020
0000
0000
0000
0000
0000
0000
,
0000
0000
0000
0000
,
0030
0000
0000
0000
;
