#VERSION:0.83;
#TITLE:Drift King (Instrumental);
#SUBTITLE:;
#ARTIST:Professional Microwave;
#TITLETRANSLIT:;
#SUBTITLETRANSLIT:;
#ARTISTTRANSLIT:;
#GENRE:;
#CREDIT:;
#MUSIC:Drift King.ogg;
#BANNER:Drift King BN.png;
#BACKGROUND:Drift King BG.png;
#CDTITLE:;
#SAMPLESTART:137.439;
#SAMPLELENGTH:13.873;
#SELECTABLE:YES;
#OFFSET:-0.323;
#BPMS:0.000=185.974;
#STOPS:;
#SPEEDS:0.000=1.000=0.000=0;
#SCROLLS:0.000=1.000,
359.000=0.800,
360.000=0.750,
361.000=0.700,
362.000=0.650,
363.000=0.600,
424.938=1.000
;
#BGCHANGES:;
#FGCHANGES:;

//--------------- dance-single - SKooT ----------------
#NOTEDATA:;
#STEPSTYPE:dance-single;
#DESCRIPTION:SKooT;
#DIFFICULTY:Easy;
#METER:5;
#RADARVALUES:0,0,0,0,0;
#NOTES:
0000
0000
0000
0000
,
0000
0000
0000
0000
,
0000
0000
0000
0000
,
0000
0000
0000
0000
,
0000
0000
0000
0000
,
0000
0000
0000
0000
,
0000
0000
0000
0000
,
0000
0000
0000
0000
,
0000
0000
0000
0000
,
0000
0000
0000
0000
,
1000
0000
0010
0000
,
0100
0000
0001
0000
,
0010
0000
0100
0000
,
1000
0000
0001
0000
,
1000
0000
0010
0000
,
0100
0000
0010
0000
,
1000
0000
0001
0000
,
0010
0000
0100
0000
,
1000
0000
0001
0000
,
1000
0000
0010
0000
,
0100
0000
0010
0000
,
1000
0000
0001
0000
,
1000
0000
0001
0000
,
0100
0000
0010
0000
,
0100
0000
0001
0000
,
0100
0000
0010
0000
,
0100
0100
0000
0010
,
0100
0000
0001
0000
,
0100
0100
0000
0001
,
0000
1000
0000
0100
,
0000
1000
1000
0000
,
0100
0000
0010
0000
,
0100
0100
1000
0000
,
1000
0000
0001
0000
,
0100
0100
0000
0010
,
0010
0000
0100
0000
,
0010
0010
0000
1000
,
0000
0001
0000
1000
,
0000
0010
0010
0000
,
1000
0000
0100
0000
,
1000
0000
0010
0000
,
0100
0000
0001
0000
,
0001
0000
0100
0000
,
0010
0000
1000
0000
,
0100
0000
0010
0000
,
0001
0000
1000
0000
,
0001
0000
0100
0000
,
0010
0000
0100
0000
,
0001
0000
1000
0000
,
0100
0000
0010
0000
,
0001
0000
1000
0000
,
0001
0000
0100
0000
,
0010
0000
0100
0000
,
0001
0000
1000
0000
,
0001
0000
1000
0000
,
0010
0000
0100
0000
,
0010
0000
1000
0000
,
0010
0000
0100
0000
,
0010
0010
0000
0100
,
0010
0000
1000
0000
,
0010
0010
0000
1000
,
0000
0001
0000
0010
,
0000
0001
0001
0000
,
0010
0000
0100
0000
,
0010
0010
0001
0000
,
0001
0000
1000
0000
,
0010
0010
0000
0100
,
0100
0000
0010
0000
,
0100
0100
0000
0001
,
0000
1000
0000
0001
,
0000
0100
0100
0000
,
0001
0000
0010
0000
,
0001
0000
0100
0000
,
0001
0000
1000
0000
,
2000
0000
3001
0000
,
1000
0000
0001
0000
,
0002
0000
1003
0000
,
0001
0000
1000
0000
,
2000
0000
3001
0000
,
0001
0000
0010
0000
,
0100
0000
1000
0000
,
0100
0000
0010
0000
,
0002
0000
0103
0000
,
0001
0000
1000
0000
,
2000
0000
0100
3000
,
1000
0000
0001
0000
,
0002
0000
0100
0003
,
0001
0000
1000
2000
,
3000
0200
0300
0020
,
0030
0002
1003
0002
,
0000
0000
0000
0000
,
0000
1003
0000
2000
,
0000
0000
0000
0000
,
0000
3001
0000
0002
,
0000
0000
0000
0000
,
0000
1003
0000
2000
,
0000
0000
3000
0000
0200
0000
0000
0300
,
0000
0020
0030
0001
,
0000
0001
0000
0001
,
0000
1000
0010
1000
,
0000
1000
0000
1000
,
0000
0001
0100
0001
,
0000
0001
0000
0001
,
0000
1000
0001
1000
,
0000
0010
0000
0200
,
0000
0300
0000
0000
,
0000
1MM1
0000
0001
,
0000
0010
0010
0000
,
0001
0000
1000
0000
,
0010
0000
1000
0000
,
0100
0000
1000
0000
,
0010
0000
0100
0000
,
0001
0010
0000
0000
,
0001
1000
0000
0000
,
0010
2000
0000
3000
,
0001
0000
0010
0000
,
0100
0000
1000
0000
,
0010
0000
0100
0000
,
0001
1000
1000
1000
,
1000
0001
0001
0001
,
0001
0100
0000
0010
,
0000
1000
0000
0001
,
0000
2000
0000
0000
,
0000
3000
0000
0000
;

//--------------- dance-single - SKooT ----------------
#NOTEDATA:;
#STEPSTYPE:dance-single;
#DESCRIPTION:SKooT;
#DIFFICULTY:Medium;
#METER:9;
#RADARVALUES:0,0,0,0,0;
#NOTES:
0000
0000
0000
0000
,
0000
0000
0000
0000
,
0000
0000
0000
0000
,
0000
0000
0000
0000
,
0000
0000
0000
0000
,
0000
0000
0000
0000
,
0000
0000
0000
0000
,
0000
0000
0000
0000
,
0000
0000
0000
0000
,
0000
0000
0000
1000
,
1000
0000
0010
1000
0010
0000
1000
0000
,
0001
0000
0010
0001
0010
0000
0001
0000
,
1000
0000
0100
1000
0100
0000
1000
0000
,
0001
0000
0100
0001
0100
0000
0001
0000
,
0001
0000
0100
0010
0100
0000
0001
0000
,
1000
0000
0100
0010
0100
0000
1000
0000
,
0001
0000
0010
0001
0010
0000
0001
0000
,
1000
0000
0010
1000
0010
0000
1000
0000
,
1000
0000
0001
1000
0100
0000
0010
0000
,
0010
0000
0001
1000
0100
0000
1000
0000
,
1000
0000
0001
1000
0010
0000
0100
0000
,
0100
0000
0001
1000
0010
0000
1000
0000
,
0001
0000
1000
0001
0010
0000
0100
0000
,
0100
0000
1000
0001
0010
0000
0001
0000
,
0001
0000
1000
0001
0100
0000
0010
0000
,
0010
0000
1000
0001
0100
0000
0001
0000
,
1000
0000
0001
1000
0000
0000
1000
0000
,
0001
1000
0000
0100
0010
0100
0000
0000
,
1000
0000
0001
0000
0000
0001
0000
0010
,
0000
0100
0000
1000
0100
0000
1000
0000
,
0000
0010
1000
0000
0010
0100
0000
0001
,
0100
0001
0000
0010
0001
0010
0000
0000
,
0010
0000
0100
0000
1000
0001
0000
0001
,
1000
0010
0000
0010
1000
0000
0100
0000
,
0010
0000
0001
1000
0000
0000
1000
0000
,
0001
1000
0000
0000
0001
0000
0010
0000
,
0100
0000
1000
0001
0000
0000
1000
0000
,
0010
0100
0001
0001
,
1000
0000
0001
0000
0100
0001
0000
0000
,
0100
0010
0000
0000
1000
0001
1000
0000
,
0100
0010
0010
0001
,
0001
1000
1000
0001
,
0100
0000
0010
0100
0010
0000
1000
0000
,
0001
0000
0100
0010
0100
0000
0001
0000
,
1000
0000
0100
0010
0100
0000
1000
0000
,
0100
0000
0010
0100
0010
0000
0001
0000
,
0100
0000
0010
1000
0100
0000
0010
0000
,
0001
0000
1000
0001
0100
0000
0010
0000
,
0010
0000
0100
0001
0010
0000
0100
0000
,
1000
0000
0001
1000
0100
0000
1000
0000
,
0010
0000
0100
0010
0100
0000
0001
0000
,
1000
0000
0010
0100
0010
0000
1000
0000
,
0001
0000
0010
0100
0010
0000
0001
0000
,
0010
0000
0100
0010
0100
0000
1000
0000
,
0010
0000
0100
0001
0010
0000
0100
0000
,
1000
0000
0001
1000
0010
0000
0100
0000
,
0100
0000
0010
1000
0100
0000
0010
0000
,
0001
0000
1000
0001
0010
0000
0001
0000
,
1000
0000
0010
0100
0000
0000
0100
0000
,
0010
1000
0000
0010
0100
0010
0000
0000
,
1000
0000
0001
0000
0000
1000
0000
0100
,
0000
0010
0000
0001
0010
0000
0001
0000
,
0000
0100
0001
0000
0100
0010
0000
1000
,
0010
1000
0000
0100
1000
0100
0000
0000
,
0100
0000
0010
0000
0001
1000
0000
1000
,
0001
0100
0000
0100
0001
0000
0010
0000
,
0100
0000
1000
0001
0000
0000
0001
0000
,
1000
0001
0000
0000
1000
0000
0100
0000
,
0010
0000
0001
1000
0000
0000
0001
0000
,
0100
0010
1000
1000
,
0001
0000
1000
0000
0010
1000
0000
0000
,
0010
0100
0000
0000
0001
1000
0001
0000
,
0010
0100
0100
1000
,
1000
0001
0001
2000
,
0100
0000
3100
1000
,
0001
0000
1000
0002
,
0100
0000
0103
0000
,
1000
0010
0010
2000
,
0100
0000
3100
0000
,
0001
0200
0302
0013
,
0100
1000
1000
0100
,
0010
0100
1000
2000
,
0000
0100
3000
0100
,
0010
0000
0001
0002
,
0100
0000
0103
0001
,
0001
0100
0010
2000
,
0100
0000
3100
0100
,
1000
0001
1000
0020
,
0000
2030
0000
0000
3002
0000
0003
0020
,
0000
0032
2003
3002
,
0000
0000
0000
0000
,
0000
1003
0001
2000
,
0000
0000
0000
0000
,
0000
3001
1000
0002
,
0000
0000
0000
0000
,
0000
1003
0001
2000
,
0000
0000
3000
0000
0200
0000
0000
0300
,
0000
0020
0030
0001
,
0000
0001
0000
0001
,
0000
1000
0010
1000
,
0000
1000
0000
1000
,
0000
0001
0100
0001
,
0000
0001
0000
0001
,
0000
1000
0001
1000
,
0000
1000
0000
1000
,
0000
0000
1000
1000
1000
1000
0000
0000
,
0000
1MM1
1000
0001
,
1000
0000
0010
0000
0010
0000
0100
0001
,
0000
1000
0000
0001
1000
0000
0010
0000
,
0100
0010
0100
0001
,
0010
0000
0100
0000
0010
0100
0000
0000
,
1000
0001
1000
0000
0001
0000
0100
0000
,
0010
0000
1000
0000
0001
1000
0000
0000
,
0001
0000
0100
0000
0001
1000
0000
0010
,
1000
0000
0002
0000
0000
0100
0003
1000
,
0001
1000
0000
0001
0010
0001
0000
0001
,
0100
0001
0000
1000
0010
1000
0000
1000
,
0100
1000
0000
1000
0001
0000
0010
0000
,
0001
1000
0100
1000
,
0010
0100
0001
0010
,
0100
0000
1000
1000
0010
0000
0100
0000
,
0001
1000
0000
0100
0000
0010
0000
0001
,
1000
0002
0000
0000
,
0000
0003
0000
0000
;

//--------------- dance-single - SKooT ----------------
#NOTEDATA:;
#STEPSTYPE:dance-single;
#DESCRIPTION:SKooT;
#DIFFICULTY:Hard;
#METER:14;
#RADARVALUES:0,0,0,0,0;
#NOTES:
0000
0000
0000
0000
,
0000
0000
0000
0000
,
0000
0000
0000
0000
,
0000
0000
0000
0000
,
0000
0000
0000
0000
,
0000
0000
0000
0000
,
0000
0000
0000
0000
,
0000
0000
0000
0000
,
0000
0000
0000
0000
,
0000
0000
0000
0001
,
1000
0000
0001
1000
0001
0100
0000
1000
,
0001
1000
0010
0100
0001
1000
0010
0000
,
0001
0000
0001
1000
0001
0010
0000
1000
,
0001
1000
0100
0010
0001
0010
0100
0000
,
0001
0000
1000
0001
1000
0010
0000
0001
,
1000
0001
0100
0010
1000
0001
0100
0000
,
1000
0000
1000
0001
1000
0100
0000
0001
,
1000
0001
0010
0100
1000
0100
0010
0000
,
1000
0000
0010
0001
0010
1000
0000
0100
,
0010
0001
0010
1000
0010
0001
0100
0000
,
0010
0000
0100
1000
0100
0001
0000
0010
,
0100
1000
0100
0001
0100
1000
0001
0000
,
0001
0000
0100
1000
0100
0001
0000
0010
,
0100
1000
0100
0001
0100
1000
0010
0000
,
0100
0000
0010
0001
0010
1000
0000
0100
,
0010
0001
0010
1000
0010
0001
0100
0000
,
0010
1000
0001
0010
0000
0010
0100
1000
,
0001
0100
0000
0001
0100
0010
0000
1000
,
0001
0010
0001
1000
0000
1100
0000
1001
,
0000
0101
0000
0001
0010
0100
1000
0100
,
0000
0100
1000
0100
0010
0001
0000
1000
,
0100
0001
0000
0001
0100
1000
0000
1000
,
0010
0100
0010
0001
0010
0100
0000
0001
,
0100
0001
0000
0010
0001
1000
0100
1000
,
0010
1000
0001
0010
0000
0010
0100
1000
,
0001
0100
0000
0100
0001
1000
0100
0010
,
0001
0100
0001
1000
0000
0010
1000
0000
,
1010
0000
1001
0000
0011
0000
0001
0010
,
0001
0100
0001
1000
0001
0100
0000
0001
,
1000
0100
0000
1000
0001
0100
0001
0010
,
0100
0010
0001
0010
0100
1000
0010
0000
,
0100
0001
1000
1001
,
0001
0000
1000
0001
1000
0010
0000
0001
,
1000
0001
0100
0010
1000
0001
0100
0000
,
1000
0000
1000
0001
1000
0100
0000
0001
,
1000
0001
0010
0100
1000
0100
0010
0000
,
1000
0000
0001
1000
0001
0100
0000
1000
,
0001
1000
0010
0100
0001
1000
0010
0000
,
0001
0000
0001
1000
0001
0010
0000
1000
,
0001
1000
0100
0010
0001
0010
0100
0000
,
0001
0000
0100
1000
0100
0001
0000
0010
,
0100
1000
0100
0001
0100
1000
0010
0000
,
0100
0000
0010
0001
0010
1000
0000
0100
,
0010
0001
0010
1000
0010
0001
1000
0000
,
1000
0000
0010
0001
0010
1000
0000
0100
,
0010
0001
0010
1000
0010
0001
0100
0000
,
0010
0000
0100
1000
0100
0001
0000
0010
,
0100
1000
0100
0001
0100
1000
0010
0000
,
0100
0001
1000
0100
0000
0100
0010
0001
,
1000
0010
0000
1000
0010
0100
0000
0001
,
1000
0100
1000
0001
0000
0011
0000
1001
,
0000
1010
0000
1000
0100
0010
0001
0010
,
0000
0010
0001
0010
0100
1000
0000
0001
,
0100
1000
0000
1000
0100
0001
0000
0001
,
0100
0010
0100
1000
0100
0010
0000
1000
,
0010
1000
0000
0100
1000
0001
0010
0001
,
0100
0001
1000
0100
0000
0100
0010
0001
,
1000
0010
0000
0010
1000
0001
0010
0100
,
1000
0010
1000
0001
0000
0100
0001
0000
,
0101
0000
1001
0000
1100
0000
1000
0100
,
1000
0010
1000
0001
1000
0010
0000
1000
,
0001
0010
0000
0001
1000
0010
1000
0100
,
0010
0100
1000
0100
0010
0001
0100
0000
,
0010
1000
0001
2100
,
0001
0000
0100
0000
3001
0000
1000
0001
,
0010
0001
0000
1000
0001
0000
0102
0000
,
1000
0000
0100
0000
1003
0001
0000
0001
,
1000
0100
0010
0001
0010
0100
2000
0000
,
0001
0000
0100
0000
3001
1000
0000
0020
,
0000
0030
0200
0000
0302
0000
0013
0001
,
0100
0010
1000
0100
1000
0010
0100
0001
,
0010
0001
0100
0010
1000
0100
2000
0000
,
0001
0000
0100
0000
3001
0000
1000
0001
,
0100
0010
0000
0100
0001
0010
0002
0000
,
1000
0000
0010
0000
1003
0000
1000
0001
,
1000
0010
0100
0001
0100
0010
2000
0000
,
0001
0000
0010
0000
3001
0000
0010
0100
,
1000
0010
0100
0010
1000
0001
0020
0000
,
0000
0230
0000
0000
2300
0000
0000
3020
,
0000
0230
0302
2003
,
0000
0000
0000
0000
,
0000
3001
0100
0002
,
0000
0000
0000
0000
,
0000
1003
0100
2000
,
0000
0000
0000
0000
,
0000
3001
0100
0002
,
0000
2003
0000
0000
3200
0000
0000
2300
,
0000
0000
3002
0000
0103
0000
0001
1000
,
0000
0001
0000
1000
0000
0001
0000
1000
,
0000
0001
0000
0100
0000
0001
0000
1000
,
0000
0100
0000
1000
0000
0001
0000
0010
,
0000
0001
0000
1000
0000
0010
0000
1000
,
0000
0001
0000
0100
0000
0010
0000
0100
,
0000
0001
0000
0010
0000
0001
0000
1000
,
0000
0010
0000
0100
0000
0010
0000
1000
,
0000
0001
1000
1000
1000
2000
0000
0000
,
0000
0000
3000
0000
1MM1
0000
0000
0000
0001
1000
0001
0000
0010
0000
0001
0000
,
1000
0010
0100
0000
1000
0000
0001
1000
,
0001
0000
0200
0000
0000
0000
0300
0010
1000
0000
0000
0100
0010
0000
0000
0001
,
0100
0000
0000
0010
1000
0000
0000
0100
1000
0000
0000
0010
0100
0000
1000
0000
,
0100
0010
0001
0010
1000
0200
0000
1300
,
0010
0100
0001
0010
0001
1000
0100
1000
,
0010
1000
0001
0000
0100
0010
0000
0010
,
1000
0000
0100
0000
0010
0100
0000
0100
,
0010
0000
0002
0000
0000
1000
0003
1000
,
0001
0000
0010
0000
0000
0000
0010
0000
0001
0000
1000
0000
0000
0000
0010
1000
,
0010
1000
0000
1000
0001
0100
0000
0100
,
0001
1000
0000
1000
0010
0100
0001
0010
,
0001
0000
0100
0000
0001
1000
0000
0000
0001
0100
0000
0000
M001
0010
0000
0000
,
1000
0010
0000
0000
1000
0100
0000
0000
1000
0001
0000
0000
1000
0010
0000
0000
,
1000
0100
0010
0010
0001
1000
0001
0000
,
0001
1000
0000
0100
0000
0001
0000
0001
,
0100
1000
0002
0000
0000
0000
0000
0000
,
0000
0003
0000
0000
0000
0000
0000
0000
;
