#TITLE:Doctorine;
#SUBTITLE:;
#ARTIST:NILFRUITS (Cover - Meychan);
#TITLETRANSLIT:;
#SUBTITLETRANSLIT:;
#ARTISTTRANSLIT:;
#GENRE:;
#CREDIT:;
#MUSIC:Doctorine.ogg;
#BANNER:Doctorine Banner.png;
#BACKGROUND:Doctorine BG.png;
#CDTITLE:;
#SAMPLESTART:34.069;
#SAMPLELENGTH:17.190;
#SELECTABLE:YES;
#OFFSET:0.426;
#BPMS:0.000=130.018;
#STOPS:;
#BGCHANGES:;
#FGCHANGES:;

//--------------- dance-single - SKooT ----------------
#NOTES:
     dance-single:
     SKooT:
     Beginner:
     2:
     0,0,0,0,0:
0000
0000
0000
0000
,
0000
0000
0000
0000
,
0000
0000
0000
0000
,
1000
0000
0100
0000
,
0001
0000
0010
0000
,
1000
0000
0100
0000
,
0010
0000
0001
0000
,
1000
0000
0010
0000
,
0100
0000
0001
0000
,
0010
0000
0100
0100
,
1000
1000
0000
0001
,
0000
0001
0001
0100
,
0000
0010
0000
1000
,
0000
1000
1000
0010
,
0000
0100
0000
0010
,
0000
0100
0100
0001
,
0000
1000
0000
0010
,
0010
0100
0100
0001
,
0000
1000
0000
0000
0000
0000
1000
0000
,
1000
1000
0000
0001
,
0001
0001
0000
1000
,
0000
0010
0000
0100
,
0000
0001
0000
1000
,
1000
1000
0000
0100
,
0100
0100
0000
0010
,
0000
0010
0000
0100
,
0000
0000
0100
0000
0000
0000
0000
0001
,
0000
0001
0000
0100
,
0000
0010
0000
0100
,
0000
0001
0000
1000
,
0000
0010
0000
0100
,
0000
0000
0010
0000
0000
0000
0000
0010
,
0000
1000
0000
0001
,
0000
0100
0000
0010
,
0000
0100
0000
1000
,
0000
0001
0000
0001
,
0000
1000
0000
0001
,
0000
0010
0000
0100
,
0000
0010
0000
0001
,
0000
0010
0000
0100
,
0000
0000
0002
0000
0000
0003
1000
0000
,
1000
1000
1000
0100
,
0100
0100
0000
0010
,
0010
0010
0000
0001
,
0000
0100
0000
0010
,
0000
1000
0000
0001
,
0001
0001
0000
0010
,
0010
0010
0000
0100
,
0000
0100
0000
0010
,
0000
0000
0010
0000
0000
0000
0000
0001
,
0000
1000
0000
0010
,
0000
0100
0000
0010
,
0000
1000
0000
0001
,
0000
0000
0100
0000
0000
0000
0000
0010
,
0000
1000
0000
0010
,
0000
0100
0000
0010
,
0000
1000
0000
0001
,
0000
0000
0010
0000
0000
0100
0000
0000
;

//--------------- dance-single - SKooT ----------------
#NOTES:
     dance-single:
     SKooT:
     Easy:
     5:
     0,0,0,0,0:
0000
0000
0000
0000
,
0000
0000
0000
0000
,
0000
0000
0000
0010
,
0100
0001
1000
0001
,
0100
0010
0100
0001
,
1000
0100
0010
0100
,
1000
0001
0001
1000
,
0100
1000
0010
1000
,
0001
0010
0001
0100
,
0001
0001
1000
0001
,
1000
0002
0103
0001
,
1000
0000
0001
1000
0001
0000
0010
0000
,
0100
1000
0010
1000
,
0001
0000
1000
0001
1000
0000
0100
0000
,
0010
0000
0001
1000
0001
0000
1000
0000
,
0001
0000
1000
0001
1000
0000
0100
0000
,
0010
0001
0100
0010
,
1000
0001
1000
0110
,
0000
0110
0000
0000
0001
0000
0100
0000
,
0100
0100
0010
1000
,
1000
1000
0010
0100
,
0001
1000
0001
0001
,
1000
1000
0100
0010
,
0010
0010
0001
0100
,
0100
0100
0010
1000
,
1000
0000
0001
0000
1000
0001
1000
0001
,
0000
0000
0010
0000
0100
0000
0000
1100
,
0000
0100
0010
0001
,
1000
0001
0010
0100
,
0010
0001
1000
0001
,
0010
0100
0010
0001
,
0000
0001
1000
0000
0100
0000
0000
0010
,
0000
0100
0000
0000
2000
0000
3001
0000
,
0100
0010
0010
0100
,
0001
1000
0010
1000
,
0001
0100
0010
0100
,
0001
1000
0100
0010
,
0010
0100
0010
0001
,
0001
1000
0020
0130
,
0010
1000
0001
0100
,
0010
0000
1002
0000
0000
0003
1000
0001
,
1000
0001
1000
0001
1000
0000
0010
0000
,
0010
0010
0100
0001
,
0001
0001
0100
0010
,
1000
0001
0010
0001
,
1000
0001
1000
0100
,
0100
0100
1000
0010
,
0010
0010
0100
0001
,
0001
1000
0010
1000
,
0001
0000
0100
0000
0010
0000
0000
0110
,
0000
0010
0100
0001
,
1000
0001
0100
0010
,
0100
0001
1000
0001
,
0100
0000
0010
0000
0100
0000
0000
0110
,
0000
1000
0001
1000
,
0100
1000
0010
0100
,
0001
0010
0001
0100
,
0010
0000
1000
0000
0001
0100
0000
0000
;

//--------------- dance-single - SKooT ----------------
#NOTES:
     dance-single:
     SKooT:
     Medium:
     8:
     0,0,0,0,0:
0000
0000
0000
0000
,
0000
0000
0000
0000
,
0000
0000
0000
0000
0000
0000
0000
0010
,
0100
0000
0000
0001
0000
0000
1000
0000
0010
0000
1000
0000
0001
0000
0001
0000
,
0100
0000
0010
0000
1000
0000
0010
0100
,
0001
0000
0000
0010
0000
0000
0001
0000
0001
0000
0000
0000
0010
0000
0100
0000
,
1000
0000
0000
0010
0000
0000
0010
0000
1000
0000
0000
0000
0001
0000
0010
0000
,
0100
0000
0000
0010
0000
0000
0001
0000
0100
0000
0010
0000
1000
0000
1000
0000
,
0010
0000
0100
0000
0001
0010
0001
0000
,
1000
0100
0010
0001
0010
0100
1000
0000
,
0001
0000
2000
0000
3100
0000
0010
0100
,
0010
0000
0001
1000
0001
0000
0010
0001
,
1000
0000
1000
0001
0100
0000
0010
1000
,
0010
0000
0100
0001
0100
0000
0010
1000
,
0100
0000
0100
0010
0001
0000
1000
0010
,
1000
0000
0001
0100
0001
0000
0100
0010
,
1000
0000
1000
0001
0010
0000
0001
0100
,
0001
0000
1000
0001
0100
0000
1001
0000
,
0000
0001
2000
0000
3010
0000
0100
0010
,
0100
0010
0100
0000
0001
0000
0010
0100
,
0010
0100
0010
0000
0001
0000
0100
0010
,
1000
0000
0100
0010
0001
0000
1000
0001
,
1000
0001
1000
0001
1000
0000
0010
0100
,
0010
0100
0010
0000
1000
0000
0100
0010
,
0100
0010
0100
0000
1000
0000
0010
0000
,
0100
0000
0001
0000
0010
0001
1000
0001
,
0000
1000
0100
1000
0100
0010
0000
0011
,
0000
0000
0001
0000
0100
0000
0000
0100
0000
0000
0010
0000
0000
0000
1000
0000
,
0000
0010
0100
0010
1000
0001
0000
0010
,
0000
0000
0100
0000
0010
0000
0000
0010
0000
0000
0100
0000
0000
0000
1000
0000
,
0010
0000
1000
0000
0001
0000
0000
0000
0100
0000
0000
0000
0001
0000
0000
0001
,
0000
0001
1000
0000
1000
0010
0000
0100
,
0000
0001
0000
0001
2000
0000
3001
0010
,
0100
0000
1000
0000
0001
0000
0100
0010
,
1000
0000
1000
0001
0010
0000
0001
0000
,
0100
0000
0000
0000
0010
0000
0000
1000
0000
0000
0010
0000
0100
0000
0000
0000
,
0001
1000
0001
0000
0010
0000
0011
0000
,
1001
0000
0001
0010
0100
0000
0100
0010
,
0001
0000
0100
0000
0020
0000
0130
0010
,
1000
0000
0010
0100
0001
0000
0010
0100
,
1000
0001
0200
0000
0000
0300
0001
1000
,
0001
1000
0001
1000
0010
0000
0010
0100
,
0010
0100
0010
0000
1000
0000
0100
0010
,
0100
0010
0100
0000
1000
0000
0010
0100
,
0001
0000
0010
0100
1000
0000
0001
1000
,
0001
1000
0001
0010
0001
0000
0100
0010
,
0100
0010
0100
0000
0001
0000
0010
0100
,
0010
0100
0010
0000
0001
0000
0100
0000
,
0010
0000
1000
0000
0100
1000
0001
1000
,
0001
0000
0010
0001
0010
0100
0000
1100
,
0000
0000
1000
0000
0010
0000
0000
0010
0000
0000
0100
0000
0000
0000
0001
0000
,
0000
0100
0010
0100
0001
1000
0000
0100
,
0000
0000
0010
0000
0100
0000
0000
0100
0000
0000
0010
0000
0000
0000
0001
0000
,
0100
0001
1000
0000
0010
1000
0000
1001
,
0000
0000
0001
0000
0100
0000
0000
0100
0000
0000
0010
0000
1000
0000
0000
0000
,
0100
0000
0000
0000
0010
0000
0000
0000
0010
0000
0100
0000
1000
0000
0000
0010
,
0000
0100
0001
0000
0001
0100
0010
0000
,
1000
0000
0001
0000
1000
0100
0000
0000
;

//--------------- dance-single - SKooT ----------------
#NOTES:
     dance-single:
     SKooT:
     Hard:
     12:
     0,0,0,0,0:
0000
0000
0000
0000
,
0000
0000
0000
0000
,
0000
0000
0000
0000
0000
0000
0000
0010
,
0100
0000
0000
0000
0000
0000
0100
0000
0000
0001
0000
0000
0000
0000
0000
0000
1000
0000
0001
0000
0000
0000
0000
0000
0010
0000
0000
0000
0000
0000
0001
0000
0000
0000
0100
0000
0010
0000
0000
0000
0000
0000
1000
0000
0000
0000
0000
0000
,
0010
0100
0001
0010
0100
0010
0001
0100
,
0001
0000
0000
0000
0000
0000
1000
0000
0000
0100
0000
0000
0000
0000
0000
0000
0100
0000
0010
0000
0000
0000
0000
0000
0001
0000
0000
0000
0000
0000
0100
0000
0000
0000
0000
0000
0010
0000
0000
0000
0000
0000
1000
0000
0000
0000
0000
0000
,
0100
0000
0000
0010
0000
0000
0010
0000
0100
0000
0010
0000
0001
0000
0010
0000
,
0100
0000
0000
0000
0000
0000
1000
0000
0000
0001
0000
0000
0000
0000
0000
0000
0001
0000
0100
0000
0000
0000
0000
0000
0010
0000
0000
0000
0000
0000
1000
0000
0000
0000
0000
0000
0001
0000
0000
0000
0000
0000
0100
0000
0000
0000
0000
0000
,
0010
0100
0001
0000
0010
1000
0001
0000
,
0001
0010
0100
1000
0100
0010
0110
0000
,
1100
0000
0012
0000
0103
0010
1000
0010
,
0100
0000
0001
0000
1000
0010
0100
0010
0100
0000
0001
0000
0010
0000
0100
0000
,
0010
0001
0100
0010
0100
0001
1000
0001
,
0010
0000
0001
0000
1000
0010
1000
0010
0100
0000
0001
0000
0010
0000
0001
0000
,
0100
0010
1000
0100
0010
0100
1000
0001
,
0010
0000
0001
0000
0100
0001
0100
0001
1000
0000
0000
0000
0100
0000
0001
0000
,
1000
0000
0010
0000
0001
0000
0010
0000
0110
0000
0000
0000
1000
0010
0100
0000
,
0001
0000
0001
0010
0100
0000
1000
0010
0100
0000
0001
0000
1001
0000
0000
0000
,
0000
0011
2000
0000
3100
0000
1000
1000
,
1000
0000
1000
0001
1000
0010
0000
0000
0100
0000
0001
0000
0010
0000
0010
0000
,
0010
0000
0010
0100
0010
0001
0000
0000
0100
0000
0010
0000
0001
0000
0010
0000
,
1000
0000
0010
0001
0010
1000
0001
0010
,
0100
0010
1000
0010
0001
0100
0010
0010
,
0010
0000
0010
0100
0010
1000
0000
0000
0001
0000
0010
0000
0001
0000
0001
0000
,
0001
0000
0001
1000
0001
0100
0000
0000
0001
0000
0100
0000
0010
0000
0000
0000
,
1000
0000
0010
0000
0100
0001
0000
0010
,
0001
0100
0001
0010
0100
1000
0000
0110
,
0010
0000
0001
0000
0100
0000
0000
0110
0000
0000
1010
0000
0000
0000
0001
0000
,
0100
0001
0010
0100
0010
0001
0000
0001
,
0100
0000
0010
0000
1000
0000
0000
0110
0000
0000
0101
0000
0000
0000
1000
0000
,
0010
0000
0100
0000
0010
0000
1000
0000
0001
0000
0100
0000
0110
0000
0000
1010
,
0000
0001
0011
0000
1000
0010
0000
0100
,
0000
0001
0000
0001
2000
0000
3001
0010
,
0100
0000
1100
0000
0011
0000
0100
0010
,
1000
0001
0010
0001
0100
0000
0010
1000
,
0001
0000
0000
0000
0010
0000
0000
1100
0000
0000
0010
0000
0100
0000
1000
0000
,
0001
0100
0010
1000
0001
0000
1010
0000
,
0101
0000
1001
0010
0100
0010
1000
0010
,
0001
0000
0100
0000
0010
0010
0000
0000
0200
0000
0000
0300
0110
0000
0010
0000
,
1000
0001
0010
0001
1000
0010
0110
0101
,
0000
0011
0210
0000
0000
0300
0010
0100
,
0010
0000
0100
0000
0010
0000
0100
1000
0001
1000
0000
0000
0001
0000
0001
0000
,
0001
0000
0001
0100
0001
1000
0000
0000
0010
0000
1000
0000
0100
0000
0100
0000
,
0100
0000
0100
0010
0100
1000
0000
0000
0010
0000
0100
0000
1000
0000
0100
0000
,
0001
0000
0100
1000
0100
0001
1000
0100
,
0010
0100
0001
0100
1000
0010
0100
0100
,
0100
0000
0100
0001
0100
0010
0000
0000
1000
0000
0100
0000
1000
0000
1000
0000
,
1000
0000
1000
0100
1000
0000
0010
0000
0000
0000
0100
0000
0010
0000
0001
0000
,
0010
0000
0000
1000
0000
0000
0100
0000
0100
0000
0010
0000
0001
0000
1000
0000
,
1001
0000
1000
0100
0010
0001
0000
0110
,
0100
0000
1000
0000
0010
0000
0000
0110
0000
0000
0101
0000
0001
0000
1000
0000
,
0010
1000
0100
0010
0100
1000
0000
0001
,
1000
0000
0001
0000
0010
0000
0000
0110
0000
0000
1100
0000
1000
0000
0001
0000
,
0100
0010
0100
0001
1000
0100
0000
0110
,
0010
0000
0100
0000
1000
0000
0000
0011
0000
0000
0101
0000
1000
0000
0010
0000
,
0100
0000
0010
0000
1000
0000
0000
0000
0001
0000
0100
0000
0110
0000
0000
1010
,
0000
1001
0011
0000
0100
0010
0100
1000
,
0010
0100
0001
0000
1000
0100
0000
0000
;
