#TITLE:Dive Back In Time;
#SUBTITLE:- Link Click OP;
#ARTIST:Bai Sha JAWS - (Cover) Gen Kakon;
#TITLETRANSLIT:;
#SUBTITLETRANSLIT:;
#ARTISTTRANSLIT:;
#GENRE:;
#CREDIT: ;
#MUSIC:Dive Back In Time.ogg;
#BANNER:Dive Back In Time Banner.png;
#BACKGROUND:Dive Back In Time BG.png;
#CDTITLE:;
#SAMPLESTART:19.039;
#SAMPLELENGTH:20.278;
#SELECTABLE:YES;
#OFFSET:0.668;
#BPMS:0.000=108.000;
#STOPS:;
#BGCHANGES:0.800=Dive Back In Time.avi=1.000=1=0=0=StretchNoLoop==CrossFade==;
#FGCHANGES:;

//--------------- dance-single - SKooT ----------------
#NOTES:
     dance-single:
     SKooT:
     Beginner:
     3:
     0,0,0,0,0:
0000
0000
0000
0001
,
0000
0000
0000
0100
,
0000
0000
0000
1000
,
0000
0000
0000
0100
,
0010
0001
1000
0001
,
1000
0010
0100
0001
,
1000
0100
0010
0100
,
0000
0010
0000
0001
,
0000
0100
0200
0000
,
0000
0300
0000
0000
,
0001
1000
0010
1000
,
0001
0001
1000
0100
,
1000
1000
0001
0010
,
0001
0001
0010
0100
,
1000
1000
0100
1000
,
0001
0001
1000
0010
,
1000
1000
0001
0100
,
0001
1000
1000
0100
,
0010
0001
1000
0001
,
0010
0001
1000
0001
,
0100
0001
1000
0001
,
0010
0100
0010
0001
,
0001
0100
0001
1000
,
0100
1000
0001
1000
,
0010
1000
0001
1000
,
0010
0100
0002
0000
,
0000
0003
0000
0000
0000
0000
0000
0000
;

//--------------- dance-single - SKooT ----------------
#NOTES:
     dance-single:
     SKooT:
     Easy:
     5:
     0,0,0,0,0:
0000
0000
0000
0001
,
0000
0000
0000
0100
,
0000
0000
0000
1000
,
0000
0000
0000
0100
,
0010
0001
0002
1003
,
0000
1000
0010
0100
,
0000
0001
0010
0100
,
0000
1000
0000
0001
,
0000
1000
0002
0000
,
0000
0003
0000
0000
,
0000
0000
2000
0000
3001
0000
1000
0001
,
0100
0000
0001
0000
0100
0100
0001
0000
,
1000
0000
0100
0000
1000
0000
0001
0010
,
0001
0100
0010
1001
,
0001
0000
1001
0000
1000
0000
0001
1000
,
0010
0000
1000
0000
0010
0010
1000
0000
,
0001
0000
0010
0000
0001
0000
1000
0100
,
1000
0010
0100
0001
,
2000
3002
1003
1001
,
0100
0100
0001
1001
,
0001
0010
0100
1001
,
1000
0000
0010
0000
0100
0010
0100
0000
,
0002
2003
3001
1001
,
0010
0010
1000
1001
,
1000
0100
0010
1001
,
0001
0100
0020
0000
,
0000
0030
0000
0000
0000
0000
0000
0000
;

//--------------- dance-single - SKooT ----------------
#NOTES:
     dance-single:
     SKooT:
     Medium:
     8:
     0,0,0,0,0:
0000
0000
0000
0001
,
0000
0000
0000
0100
,
0000
0000
0000
1000
,
0000
0000
0000
0200
,
0320
0000
0031
0200
0302
0000
1003
0001
,
0100
0000
0010
0000
1010
0000
0000
0001
0000
0001
0000
0000
1000
0000
0001
0000
,
0100
0000
0001
0000
0011
0000
0000
1000
0000
1000
0000
0000
1100
0000
0000
0100
,
0000
0001
0011
0000
1000
0010
0100
0000
,
0001
0010
2000
0000
,
0000
3000
0000
0000
,
0000
0000
0002
0000
1003
0010
0100
0010
,
1000
0000
0000
0001
0000
0001
0000
0000
1000
0000
0100
0000
0010
0000
0100
0000
,
1000
0000
0000
0100
0000
0100
0000
0000
0010
0000
0001
0000
1000
0000
0001
0000
,
1000
0000
0000
0100
0000
0010
0000
0000
0011
0000
0000
0000
1100
0000
0000
0000
,
1010
0000
0101
0000
0001
0100
0010
1000
,
0100
0000
0000
1000
0000
1000
0000
0000
0001
0000
0010
0000
0100
0000
0010
0000
,
0001
0000
0000
0010
0000
0010
0000
0000
0100
0000
1000
0000
0001
0000
0100
0000
,
0001
0000
0000
0010
0000
0000
0010
0000
0100
0000
0010
0000
0001
0000
0100
0000
,
0002
0000
0023
0030
1001
0000
1010
0000
,
1000
0010
0100
0001
0011
0000
1001
0000
,
0001
0100
0010
1000
1100
0000
1001
0000
,
0100
0001
1000
0010
0100
0001
0010
0001
,
0200
0000
0320
0030
0110
0000
1001
0000
,
0001
0100
0010
1000
1010
0000
1001
0000
,
1000
0100
0010
0001
0011
0000
1001
0000
,
1000
0010
0100
0001
2000
0000
0000
0000
,
0000
3000
0000
0000
0000
0000
0000
0000
;

//--------------- dance-single - SKooT ----------------
#NOTES:
     dance-single:
     SKooT:
     Hard:
     12:
     0,0,0,0,0:
0000
0000
0000
0001
,
0000
0000
0000
0100
,
0000
0000
0000
1000
,
0000
0000
0000
0000
0000
0000
0000
0000
0000
0000
0000
0000
0100
0000
0000
0010
,
0000
0010
0000
0000
0001
0000
0100
0000
0001
0000
0000
0000
0011
0000
0001
0100
,
0000
0000
0010
0000
1010
0000
0000
0100
0000
0100
0000
0010
1000
0000
1000
0010
,
0000
0000
0100
0000
0110
0000
0000
0001
0000
0001
0000
0000
0011
0000
0000
0010
,
0000
0000
0001
0000
0101
0000
0000
0000
0100
0000
0010
1000
0100
0000
0100
0010
,
0000
0001
0000
0100
0000
0010
0000
0000
2000
0000
0000
0000
0000
0000
0000
0000
,
0000
0000
3000
0000
,
0000
0000
0000
0000
0002
0000
0000
0000
1003
0000
0010
0100
0010
0000
1000
0000
,
0001
0000
0010
0001
0000
0100
0000
0010
1000
0000
1000
0001
0100
0000
0001
0000
,
0010
0000
0001
1000
0000
0010
0000
0100
0001
0000
0010
0000
0100
0000
1000
0001
,
0100
0000
0010
0100
0000
0010
0000
0000
0110
0000
0100
0000
0101
0000
1100
0000
,
1000
0100
0010
0001
0100
0000
0010
0000
1010
0000
1000
0000
0100
0000
0010
0001
,
0100
0000
0100
1000
0000
0100
0000
0001
1000
0000
0001
0000
0010
0000
0100
1000
,
0010
0000
0010
0001
0000
0010
0000
1000
0100
0000
0010
0000
0200
0000
1300
0010
,
1000
0000
0001
0010
0001
0000
0100
0000
0010
0000
1000
0000
1000
0000
0001
0000
,
0010
0000
0001
1000
0001
1000
0100
0000
1100
0000
0000
0000
1001
0000
0000
0000
,
0001
0100
0010
0001
0000
0010
0100
0000
0101
0000
0000
0000
1001
0000
1000
0000
,
1000
0100
0010
1000
0000
1000
0010
0001
0100
0000
0000
0000
0110
0000
0000
0000
,
1000
0001
0010
0100
0000
0100
0010
0000
0001
1000
0010
0000
0110
0000
0100
0000
,
0001
2000
0000
0000
3002
0000
0003
0000
0011
0000
0000
0000
1001
0000
0000
0000
,
1000
0010
0100
1000
0000
0100
0010
0000
1010
0000
0000
0000
1001
0000
1000
0000
,
0001
0010
0100
0001
0000
0001
0100
1000
0010
0000
0000
0000
0110
0000
0000
0000
,
0001
1000
0010
0100
0000
0100
0010
0000
1000
0000
0001
0000
0011
0000
1010
0000
,
1000
0010
0100
0000
0001
0000
0010
0100
0000
0000
0000
0000
0000
0000
0000
0000
;
