#TITLE:Can't I Even Dream?;
#SUBTITLE:;
#ARTIST:Fummy - feat. Hatsune Miku;
#TITLETRANSLIT:;
#SUBTITLETRANSLIT:;
#ARTISTTRANSLIT:;
#GENRE:;
#CREDIT:;
#MUSIC:Can't I Even Dream.ogg;
#BANNER:Dream Banner.png;
#BACKGROUND:Dream BG.png;
#CDTITLE:;
#SAMPLESTART:45.723;
#SAMPLELENGTH:20.470;
#SELECTABLE:YES;
#OFFSET:0.253;
#BPMS:0.000=139.963;
#STOPS:;
#BGCHANGES:;
#FGCHANGES:;

//--------------- dance-single - SKooT ----------------
#NOTES:
     dance-single:
     SKooT:
     Beginner:
     2:
     0,0,0,0,0:
0000
0000
0000
0000
,
0000
0000
0000
0000
,
0000
0000
0000
0000
,
0000
0000
2000
0000
0000
0000
0000
3000
,
0010
0000
0000
0200
,
0000
0000
0000
0300
0002
0000
0000
0003
,
0000
0020
0000
0000
,
0001
0000
0000
0030
0000
0000
0200
0000
,
0000
0000
0301
0000
,
0000
0020
0000
0000
,
0100
0030
0000
0000
0000
0000
2000
0000
,
0000
0000
3001
0000
,
0000
0020
0000
0030
,
0002
0000
0000
0000
,
0003
0000
0100
0000
,
0001
0000
0002
0000
0000
0000
0000
0003
,
0100
0000
0000
0020
,
0000
0000
0000
0030
2000
0000
0000
3000
,
0000
0002
0000
0000
,
1000
0000
0003
2000
,
0000
0000
3001
0000
,
0000
0200
0000
0000
,
0310
0000
0000
2000
,
0000
0000
3001
0000
,
0000
0020
0000
0000
,
0031
0000
0000
0020
,
0000
0000
0031
0000
,
0000
1000
0000
0010
,
0010
0000
0000
0010
,
0000
1000
1000
0000
,
0000
0100
0000
0010
,
0010
0000
0000
0002
,
0000
0000
1003
0000
,
0000
0001
0000
1000
,
1000
0000
0000
0010
,
0000
1000
1000
0000
,
0000
0010
0000
0100
,
0100
0000
0000
0002
,
0000
0000
1003
0000
,
0001
0001
0000
1000
,
1000
0000
0000
1000
,
0000
0001
0001
0000
,
0000
0010
0000
0000
,
0100
0000
0000
2000
,
0000
0000
3010
0000
,
0000
0200
0000
0000
,
0301
0000
0000
0002
,
0000
0000
1003
0000
,
0000
2000
0000
0000
,
3010
0000
0000
0020
,
0000
0000
0230
0000
,
0000
0000
0300
0000
,
0001
0000
0000
0001
,
0000
0000
0100
0000
,
0000
0010
0000
0000
,
1000
0000
0000
0100
,
0000
0000
0010
0000
,
0000
0000
0000
0000
0001
0000
0000
0000
0000
0000
0000
0000
0000
0000
0000
1000
,
0000
0000
0000
0000
0000
0000
0000
0001
0000
0000
0000
0000
0000
0000
0000
0000
;

//--------------- dance-single - SKooT ----------------
#NOTES:
     dance-single:
     SKooT:
     Easy:
     5:
     0,0,0,0,0:
0000
0000
0000
0000
,
0000
0000
0000
0000
,
0000
0000
0000
0000
,
0000
0000
2000
0000
0000
0000
0010
3000
,
0010
0000
0100
0200
,
0000
0000
0001
0300
0002
0000
0000
0003
,
1000
0020
1000
1000
,
0000
0000
0100
0030
0100
0000
0002
0000
,
1000
0000
1000
0003
0000
0000
0010
0000
,
0100
2000
0000
0100
,
0001
3000
0000
0000
0100
0000
0002
0000
,
0000
0000
0100
0000
1000
0003
0000
0000
,
1000
0000
0020
0000
0000
0000
1000
0030
,
2000
0000
0000
0000
0100
0000
0001
3000
,
0000
0001
0100
0010
,
1000
0000
0002
0000
0000
0000
0100
0003
,
0100
0000
0010
0020
,
0000
0000
1000
0030
2000
0000
0000
3000
,
0001
0200
0001
0001
,
0000
0000
0010
0300
0010
0000
2000
0000
,
0001
0000
0001
3000
0000
0000
0100
0000
,
1000
0002
0000
0010
,
1000
0003
0000
0000
0010
0000
2000
0000
,
0000
0000
0010
0000
0001
3000
0000
0000
,
0001
0200
0000
0001
,
0001
0000
0000
0300
0001
0000
0020
0000
,
0000
0000
0030
0000
,
0000
1001
0000
0001
,
1001
0000
0100
0010
,
0000
1000
1001
0000
,
0010
0100
0000
0001
,
1001
0000
0010
0020
,
0000
0030
0110
0000
,
0100
0110
0000
0010
,
0110
0000
1000
0001
,
0000
0100
0110
0000
,
0001
2000
0000
0100
,
0100
0000
3001
0002
,
0000
0000
1000
0003
1001
0000
1000
0000
,
0001
1001
0000
1000
,
1001
0000
0010
0100
,
0000
0001
1001
0000
,
0100
0020
0000
0030
,
1001
0000
2000
0000
0000
3000
0002
0000
,
0000
0000
0000
0003
1001
0000
0000
0000
,
0010
2000
0000
3000
,
1001
0000
0010
0200
,
0000
0310
0110
0000
,
1000
0000
0020
0000
0000
0000
0000
0030
,
0100
0000
0100
0002
,
0000
0000
2003
0000
,
0000
0000
3000
0000
,
0001
0001
0001
0000
,
0100
0100
0000
0010
,
0010
0000
1000
1000
,
0000
0010
0100
0000
,
0100
0010
0000
1000
,
0001
0000
0000
0000
0000
0000
0000
0000
0001
0000
0000
0000
1000
0000
0000
1000
,
0000
0000
0000
0000
0000
0000
0000
0010
0000
0000
0000
0000
0000
0000
0000
0000
;

//--------------- dance-single - SKooT ----------------
#NOTES:
     dance-single:
     SKooT:
     Medium:
     8:
     0,0,0,0,0:
0000
0000
0000
0000
,
0000
0000
0000
0000
,
0000
0000
0000
0000
,
0000
0000
2000
0000
0001
0000
0100
3000
,
1001
0000
0101
0000
0010
1000
0002
0000
,
1000
0000
0010
0003
1001
0000
1100
0000
,
1000
0001
0100
0000
0001
0000
1000
0000
,
0010
0100
0001
0110
,
0010
0000
1000
0000
0010
0000
0100
0001
,
1000
0010
0100
0000
0001
0000
1000
0000
,
0100
0000
0010
0001
0100
0010
1000
0000
,
0100
0000
1000
0000
0001
0000
0010
0001
,
1000
0100
2000
0000
0001
0000
0001
0000
,
3020
1000
1000
0100
,
0130
0000
0001
0000
0001
0100
0001
1000
,
0001
0010
0002
0000
1000
0000
0010
0003
,
1001
0000
1010
0000
0100
0001
2000
0000
,
0001
0000
0100
3000
1001
0000
0011
0000
,
0001
1000
0010
0000
1000
0000
0001
0000
,
0100
0010
1000
0110
,
0100
0000
0001
0000
0100
0000
0010
1000
,
0001
0100
0010
0000
1000
0000
0001
0000
,
0010
0000
0100
1000
0010
0100
0001
0000
,
0010
0000
0001
0000
1000
0000
0100
1000
,
0001
0010
0002
0000
1000
0000
1000
0000
,
0203
0001
0001
0320
,
1000
0000
1000
0030
0010
0000
0000
0000
,
0000
0000
1001
0000
0100
0010
0000
0000
,
1100
0000
0001
1000
0010
0100
0001
0000
,
0001
1000
0000
0000
0101
0000
1000
0100
,
1000
0010
0100
0000
0100
0001
0000
0000
,
1010
0000
1000
0001
0010
0100
2000
0000
,
0000
0001
0000
3000
1001
0000
1000
0001
,
0100
0000
0101
0000
0010
1000
0000
0000
,
0101
0000
1000
0001
0100
0010
1000
0000
,
1000
0010
0000
0000
1100
0000
0001
0010
,
0001
1000
0001
0000
1000
0010
0000
0000
,
0101
0000
1000
0000
0010
0100
0002
0000
,
0000
1000
0000
0003
1010
0000
0001
1000
,
0010
0000
0110
0000
0100
0001
0000
0000
,
1100
0000
0001
1000
0010
0100
0001
0000
,
0001
1000
0000
0000
0110
0000
1000
0010
,
0100
0000
0201
0000
0000
0301
0000
0000
,
1001
0000
2000
0000
0000
3001
0002
0000
,
0000
1000
0000
0003
1001
0000
0000
0010
,
0100
1000
0010
0000
0000
0001
0000
0000
,
1100
0000
0000
0100
0010
0001
0100
0000
,
0000
1000
0000
0000
0012
0000
0000
1003
,
0001
0100
0020
0000
0000
0000
0000
0030
,
1010
0000
0000
1000
0100
0010
0002
0000
,
0000
0000
2003
0000
,
0000
0000
3000
0000
,
0001
0100
0001
1000
0001
0010
0000
0001
,
0100
0010
0100
0001
0000
0001
1000
0010
,
1000
0100
0000
1000
0010
0100
0010
1000
,
0000
1000
0100
0010
0001
1000
0000
0001
,
0010
0100
1000
0001
0000
1000
0100
0010
,
0001
0000
1000
0000
0000
0000
0001
0000
0010
0000
0100
0000
1000
0000
0000
0001
,
0000
0000
0000
0000
0000
0000
0000
0010
0000
0000
0000
0000
0000
0000
0000
0000
;

//--------------- dance-single - SKooT ----------------
#NOTES:
     dance-single:
     SKooT:
     Hard:
     10:
     0,0,0,0,0:
0000
0000
0000
0000
,
0000
0000
0000
0000
,
0000
0000
0000
0000
,
0000
0000
0001
1000
0010
0100
0001
1000
,
0000
1000
0010
0100
0001
0010
0000
0010
,
0001
1000
0100
0010
0000
0010
0001
0100
,
0010
1000
0000
1000
0010
0100
0001
1000
,
0001
0010
0001
0100
0010
1000
0000
1000
,
0010
0100
0001
0010
0000
0010
0100
1000
,
0010
0100
0001
0010
0100
1000
0001
1000
,
0000
1000
0010
0100
0001
0010
0000
0010
,
0001
1000
0100
1000
0000
1000
0001
0010
,
0001
1000
0000
1000
0100
0010
0001
1000
,
0000
1000
0001
0100
0010
1000
0000
1000
,
0100
0010
0001
1000
0000
0001
0002
1003
,
2000
3001
1000
0001
0100
0010
1000
0001
,
0000
0001
0100
0010
1000
0100
0000
0100
,
1000
0001
0010
0100
0000
0100
1000
0010
,
0100
0001
0000
0001
0100
0010
1000
0001
,
1000
0100
1000
0010
0100
0001
0000
0001
,
0100
0010
1000
0100
0000
0100
0010
0001
,
0100
0010
1000
0100
0010
0001
1000
0001
,
0000
0001
0100
0010
1000
0100
0000
0100
,
1000
0001
0010
0001
0000
0001
1000
0100
,
1000
0001
0000
0001
0010
0100
1000
0010
,
0100
0001
0010
0100
0010
0001
0000
0001
,
0010
0100
1000
0001
2000
0000
3000
0000
,
0000
0000
1001
0010
0100
0001
0000
1000
,
1100
0000
0001
1000
0010
0100
0001
1000
,
0001
0100
0000
0001
0101
0000
1000
0100
,
1000
0010
0001
0010
0100
0001
0000
1000
,
1010
0000
1000
0001
0010
0100
2000
0000
,
0000
0001
0000
3001
0110
0000
1000
0001
,
0100
0001
1001
0000
0010
1000
0000
0001
,
0101
0000
1000
0001
0100
0010
1000
0001
,
1000
0010
0000
1000
1100
0000
0001
0010
,
0001
0100
1000
0100
0010
1000
0001
0010
,
0001
1000
0001
1000
0100
0010
0002
0000
,
0000
1000
0000
1003
1001
0000
0001
1000
,
0010
1000
1001
0000
0100
0001
0000
1000
,
1010
0000
0001
1000
0010
0100
0001
1000
,
0001
0100
0000
0001
0011
0000
1000
0010
,
0100
0010
0210
0000
0000
0301
0000
1000
,
0021
0030
0020
0000
0000
0031
2000
0000
,
0000
0100
0000
3100
1010
0000
1000
0010
,
0100
0001
0010
0000
0000
0001
0000
1000
,
1100
0000
0000
0010
0001
1000
0100
0000
,
0000
1000
0000
0001
0012
0000
0000
1003
,
0001
0100
0010
0100
0001
1000
0010
0100
,
1010
0000
0000
0001
1000
0010
0100
0010
,
1000
0001
0010
0100
0012
0000
0000
0000
,
0000
0000
0003
0000
,
0100
0010
1000
0001
0100
0010
0000
0010
,
1000
0001
0010
0100
0000
0010
0001
1000
,
0010
0100
0000
0100
0001
0010
0100
1000
,
0010
0100
0001
0100
0010
1000
0001
0010
,
0100
0010
0001
1000
0100
0010
1000
0010
,
0100
0000
1000
0000
0010
0000
0001
0000
0010
0000
0100
0000
0001
0000
0000
1000
,
0000
0000
0000
0000
0000
0000
0000
0010
0000
0000
0000
0000
0000
0000
0000
0000
;
