#TITLE:Atashi;
#SUBTITLE:;
#ARTIST:Syudou;
#TITLETRANSLIT:;
#SUBTITLETRANSLIT:;
#ARTISTTRANSLIT:;
#GENRE:;
#CREDIT:;
#MUSIC:Atashi.ogg;
#BANNER:Atashi BN.png;
#BACKGROUND:Atashi BG.png;
#CDTITLE:;
#SAMPLESTART:47.674;
#SAMPLELENGTH:10.579;
#SELECTABLE:YES;
#OFFSET:-0.028;
#BPMS:0.000=182.912;
#STOPS:;
#BGCHANGES:;
#FGCHANGES:;

//--------------- dance-single - SKooT ----------------
#NOTES:
     dance-single:
     SKooT:
     Beginner:
     3:
     0,0,0,0,0:
0000
0000
0000
0000
,
0000
0000
0000
0000
,
0000
0000
0000
1000
,
0000
0100
0000
0010
,
0000
0001
0000
0001
,
0000
0100
0000
0010
,
0000
1000
0000
0001
,
0000
0010
0000
0100
,
0000
1000
0000
1000
,
0000
0010
0000
0000
,
0000
0010
0000
0000
0000
0000
0000
0000
,
0100
0000
0100
0000
,
0001
0000
0010
0000
,
0001
0000
0001
0000
,
0100
0000
0010
0000
,
1000
0000
1000
0000
,
0001
0000
1000
0000
,
0010
0000
0100
0000
,
0001
0000
0100
0000
,
0010
0000
0010
0000
,
1000
0000
0100
0000
,
1000
0000
1000
0000
,
0010
0000
0100
0000
,
0001
0000
0001
0000
,
1000
0000
0001
0000
,
0100
0000
0010
0000
,
1000
0000
0000
1000
,
0000
0000
1000
0000
0000
1000
0000
0000
,
0000
0000
0000
0001
,
0000
0000
0001
0000
0000
0001
0000
0000
,
0000
0000
0000
1000
,
0000
0000
1000
0000
0000
1000
0000
0000
,
0001
0001
0001
0002
,
0000
0003
0000
0020
,
0000
0030
0000
0001
,
0000
0000
0001
0000
0000
1000
0000
0000
,
1000
1000
0000
0200
,
0300
0020
0030
0200
,
0300
0020
0030
0000
,
0001
0000
1000
0000
,
0010
0000
1000
2000
,
3000
0002
0003
2000
,
3000
0002
0003
0000
,
0100
0000
0000
0000
0001
0000
0000
0001
,
0000
0000
0000
0020
,
0030
0200
0300
0020
,
0030
0200
0300
0000
,
1000
0000
0010
0000
,
1000
0000
0001
0002
,
0003
2000
3000
0100
,
0100
0100
0000
0000
,
0010
0000
0001
0000
,
0000
0200
0000
0300
0000
0000
0000
0000
,
0000
0000
0000
0000
,
0000
0000
0000
0000
,
0001
0000
0010
0000
,
0001
0000
0100
0000
,
0010
0000
0100
0000
,
0010
0000
0000
1000
,
1000
0000
0100
0000
,
1000
0000
0010
0000
,
0100
0000
0010
0000
,
0000
0010
0000
0000
0000
0000
0100
0000
,
0000
0000
0001
0000
0000
1000
0000
0000
,
0000
0002
0000
0000
0003
0000
0000
0000
;

//--------------- dance-single - SKooT ----------------
#NOTES:
     dance-single:
     SKooT:
     Easy:
     5:
     0,0,0,0,0:
0000
0000
0000
0000
,
0000
0000
0000
0000
,
0000
0000
0000
1000
,
0001
1000
0001
0100
,
0100
0010
0000
1000
,
0001
0000
0100
0000
0000
0010
0000
0000
,
0000
1000
0000
0000
0000
0000
0010
0000
,
0100
0010
0100
0001
,
0001
0010
0000
0001
,
1000
0000
0010
0000
0000
0100
0000
0000
,
0000
0001
0000
0000
0000
0000
0000
0000
,
0001
0000
0010
0000
0000
0001
0000
0000
,
1000
0000
0010
0010
,
1000
0000
0100
0000
0000
1000
0000
0000
,
0001
0000
0100
0100
,
0001
0000
0010
0000
0000
0001
0000
0000
,
0001
0000
0100
0100
,
0010
1000
0000
0001
,
0010
0100
1000
0100
,
0010
0000
0100
0000
0000
0010
0000
0000
,
0010
0001
0100
0001
,
0010
0000
0100
0000
0000
1000
0000
0000
,
1000
0010
0100
0001
,
1000
0000
0010
0000
0000
0100
0000
0000
,
0100
0001
0010
0100
,
0000
1000
0000
0100
,
0010
0001
0100
0010
,
1000
0000
0100
0000
0000
0110
0000
0000
,
0000
0000
1000
0001
,
0100
0000
0001
0000
0000
1001
0000
0000
,
0000
0000
1000
0001
,
0100
0000
0010
0000
0000
0110
0000
0000
,
2000
3200
0320
0032
,
0000
0000
0103
0002
,
0000
0000
1003
1001
,
0000
0000
1000
0000
0000
0010
0000
0000
,
1000
1000
0001
0200
,
0300
0020
0030
2000
,
3000
0002
0003
0010
,
0010
0000
0001
0000
1000
0000
0000
0001
,
0000
0001
0000
0000
1000
0000
0020
0000
,
0030
0200
0300
0002
,
0003
2000
3000
0100
,
0100
0000
1000
0000
0001
0000
0000
1000
,
0000
1000
0000
0000
0001
0000
0100
0000
,
0100
0010
0010
1000
,
1000
0001
0000
0100
,
0010
0100
0100
0000
,
0001
0000
0001
0010
,
0010
0100
0100
1000
,
1000
1001
0000
0001
,
0001
0000
0100
0000
0000
0010
0000
0000
,
0000
1000
0000
0000
0000
0000
1000
0000
,
1000
0000
0010
0000
0000
0100
0000
0000
,
0000
0002
0000
0000
0000
0000
1003
0000
,
0001
1000
0001
0100
,
0100
0010
0000
1000
,
0001
0000
0010
0000
0000
0001
0000
0000
,
0000
1000
0000
0000
0000
0000
0010
0000
,
0100
0010
0100
0001
,
0001
0010
0000
0001
,
1000
0000
0010
0000
0000
0100
0000
0000
,
0000
0001
0000
0000
0000
0000
0010
0000
,
0100
0000
0100
0000
0000
1000
0000
0000
,
0000
2002
0000
0000
3003
0000
0000
0000
;

//--------------- dance-single - SKooT ----------------
#NOTES:
     dance-single:
     SKooT:
     Medium:
     9:
     0,0,0,0,0:
0000
0000
0000
0000
,
0000
0000
0000
0000
,
0000
0000
0000
1000
,
0001
0100
0010
0100
,
0100
0000
0010
0000
1000
0000
0001
0010
,
0001
0010
0001
0000
1000
0010
0000
0100
,
0000
0001
0000
0010
0010
0000
0001
0000
,
1000
0010
0100
0010
,
0010
0000
0100
0000
0001
0000
1000
0100
,
1000
0100
1000
0000
0001
0100
0000
0010
,
0000
1000
0000
0100
0100
0000
0000
0000
,
0010
0000
0001
0000
0010
0001
0000
0000
,
0100
0000
0010
0000
0100
0001
1000
0000
,
0100
0000
1000
0000
0100
1000
0000
0000
,
0010
0000
0100
0000
0001
0010
0001
0000
,
0001
0000
1000
0000
0001
1000
0000
0000
,
0001
0000
1000
0000
0100
0010
0100
0000
,
0010
0000
0001
0000
0001
1000
0001
0000
,
0010
0100
1000
0100
,
0100
1000
0001
0000
0001
1000
0000
0000
,
0010
0000
0100
0000
0010
1000
0001
0000
,
0010
0001
1000
0000
1000
0001
0000
0000
,
0100
0010
1000
0000
,
1000
0001
0100
0000
0100
0001
0000
0000
,
0010
0001
0001
0100
,
0000
1000
0000
0100
,
0010
0001
0100
0010
,
0100
0000
0001
0001
0000
1001
0000
0000
,
0000
0000
2000
0001
,
3001
0000
1000
1000
0000
1001
0000
0000
,
0000
0000
0020
0001
,
0031
0000
1000
1000
0000
1001
0000
0000
,
2000
3200
0320
0032
,
0000
1003
0001
0000
0100
0000
0002
0000
,
0000
0013
0001
0000
0100
0000
0110
0000
,
0000
1000
1000
0000
0000
0001
0000
0010
,
0100
0010
0100
0000
1000
0000
0020
0000
,
0130
0002
1003
0020
,
0130
0000
0002
0000
0003
0000
0010
0100
,
0010
0000
0001
0000
1000
0010
0000
0100
,
0000
0001
0000
1000
0001
0000
0200
0000
,
0310
2000
3001
0200
,
0310
0000
2000
0000
3000
0000
0100
0010
,
0100
0000
1000
0000
0001
0100
0000
0010
,
0000
1000
0000
1000
0001
0000
0010
0000
,
0000
0010
0100
0000
0000
0100
1000
0000
,
0000
1000
0001
0000
0000
0000
0010
0000
,
0100
0010
0100
0000
0100
1000
0000
1000
,
0000
0001
0000
0001
1000
0000
0010
0000
,
0000
0010
0100
0000
0000
0100
0001
0000
,
1000
1001
0000
0001
,
0001
0100
0010
0000
0010
1000
0000
0001
,
0000
2000
0000
3000
0000
0000
1000
0000
,
1000
0010
0100
0000
0100
0001
0000
1000
,
0000
0002
0000
0000
0000
0003
1000
0000
,
0100
0001
0100
1000
,
0100
0000
0010
0000
0001
0000
0001
1000
,
0001
1000
0001
0000
0010
0100
0000
1000
,
0000
0001
0000
1000
1000
0000
0001
0000
,
0100
1000
0100
0001
,
0010
0000
0100
0000
1000
0000
1000
0001
,
1000
0001
1000
0000
0100
0010
0000
0001
,
0000
1000
0000
0001
0001
0000
0000
0000
,
0000
0000
0000
0000
1000
1000
0000
0001
,
0000
0020
0000
0000
0130
0000
0000
0000
;

//--------------- dance-single - SKooT ----------------
#NOTES:
     dance-single:
     SKooT:
     Hard:
     12:
     0,0,0,0,0:
0000
0000
0000
0000
,
0000
0000
0000
0000
,
0000
0000
0000
1001
,
0001
0000
0100
0000
0010
0000
0100
0001
,
1000
0000
0010
0000
1000
0000
0001
0010
,
0100
0010
1000
0000
0010
0001
0000
0100
,
0000
0010
0000
0100
0100
0000
1001
0000
,
1000
0000
0010
0000
0100
0000
0010
1000
,
0001
0000
0010
0000
0001
0000
1000
0010
,
0100
0010
0001
0000
0010
1010
0000
1001
,
0000
0011
0000
0100
0100
0000
0000
0000
,
0001
0010
0010
0000
0001
0010
0000
0001
,
0100
0010
1000
0000
0001
0100
0001
0000
,
1000
0010
0010
0000
0100
0001
0000
0010
,
0001
0100
0010
0000
1000
0001
1000
0000
,
0001
0100
0100
0000
0001
0010
0000
0001
,
0010
0100
1000
0000
1000
0010
1000
0000
,
1000
0001
0010
0000
0010
0100
1000
0000
,
0100
0000
0010
0001
0010
0000
0010
0000
,
0010
0001
1000
0001
0010
0100
1000
0010
,
1000
0100
0010
0001
0010
0100
1000
0000
,
0001
1000
0010
0000
0010
1000
0000
0001
,
1000
0010
0100
0001
1000
0100
1000
0000
,
0100
1000
0001
1000
0010
0100
0001
0010
,
0001
0100
0010
1000
0010
0100
0001
0000
,
1000
0001
0100
0000
0001
1000
0100
0000
,
0001
0100
1000
0001
,
0001
0000
0011
0011
0000
1010
0000
0000
,
0000
0000
0020
1000
,
1030
0000
1100
1100
0000
0101
0000
0000
,
0000
0000
0200
0001
,
0001
0300
0011
0011
0000
1010
0000
0000
,
2000
3200
0320
0032
,
0000
1003
0010
0000
0100
0000
0002
0000
,
0000
0013
0001
0000
0100
0000
0110
0000
,
0000
1001
1001
0000
1000
0001
0000
0010
,
0100
0010
0100
1000
1000
0001
0010
0000
,
0010
0001
1000
0000
1000
0010
0100
0000
,
0100
0001
0010
0000
0010
0001
0100
0001
,
0010
0100
1000
0000
1000
0010
0000
0100
,
0010
1000
0000
0001
0001
1000
0100
0000
,
0100
1000
0001
0000
0001
0100
0010
0000
,
0010
1000
0100
0000
0100
1000
0010
1000
,
0100
0010
0001
0000
0001
0100
0000
0010
,
0100
0001
0000
1000
0001
1000
0010
0000
,
0010
0001
0010
0000
0010
1000
0010
0000
,
0010
0001
0010
0000
1000
0001
0100
0010
,
0100
0001
0010
0000
0010
0100
0000
1000
,
0100
1000
0000
0001
1000
0001
0010
0000
,
0010
1000
0010
0000
0010
0001
0101
0000
,
0110
0000
1010
0000
0000
1000
0010
0100
,
0010
1000
0100
0000
0100
0010
0000
0001
,
1000
0002
0000
0003
0000
1000
0100
1000
,
0010
1000
0001
0000
0001
1000
0000
0010
,
0000
0200
0000
0000
0000
0301
0010
0001
,
1000
0010
0100
0001
0010
0001
1000
0000
,
0010
0000
0100
0000
0001
0100
0010
1000
,
0010
0100
0001
0000
0010
0100
0000
1000
,
0000
0100
0000
0001
0001
1000
0010
1000
,
0001
0100
0010
1000
0100
1000
0001
0000
,
0100
0000
0010
0000
1000
0010
0100
0001
,
0100
0010
1000
0000
0100
0010
0000
0001
,
0100
0010
0000
1000
1000
0001
0010
0100
,
1000
0001
1000
0000
0100
0001
0000
0001
,
0100
2000
0000
0000
3001
0000
0000
0000
;
