#TITLE:Astral Travel;
#SUBTITLE:;
#ARTIST:Kikuo;
#TITLETRANSLIT:;
#SUBTITLETRANSLIT:;
#ARTISTTRANSLIT:;
#GENRE:;
#CREDIT:;
#MUSIC:Astral Travel.ogg;
#BANNER:Astral Banner.png;
#BACKGROUND:Astral BG.png;
#CDTITLE:;
#SAMPLESTART:92.335;
#SAMPLELENGTH:15.002;
#SELECTABLE:YES;
#OFFSET:-0.446;
#BPMS:0.000=127.981;
#STOPS:188.000=1.875;
#BGCHANGES:;
#FGCHANGES:;

//--------------- dance-single - SKooT ----------------
#NOTES:
     dance-single:
     SKooT:
     Beginner:
     2:
     0,0,0,0,0:
0000
0000
0000
0000
,
0000
0000
0000
0000
,
0001
0001
0001
0001
,
1000
0000
0002
0003
,
1000
1000
1000
1000
,
0001
0000
2000
3000
,
0010
0010
0010
0010
,
0100
0000
0020
0030
,
0100
0100
0100
0100
,
0010
0000
0000
0000
0200
0000
0000
0300
,
0000
0000
0000
0000
,
0000
0000
0000
0000
,
0000
0000
0000
0001
,
0000
1000
0000
0010
,
0000
1000
0000
0001
,
0000
0010
0000
0001
,
0000
1000
0000
1000
,
0000
0010
0000
0100
,
0000
0010
0000
0100
,
0000
0001
0000
0001
,
0000
1000
0000
0000
,
0010
0010
0010
0010
,
0000
1000
0000
0001
,
0000
0100
0000
0010
,
0000
0100
0000
0001
,
1000
1000
1000
1000
,
0000
0010
0000
1000
,
0000
0010
0000
0100
,
0000
0010
0000
1000
,
0000
0001
0000
0100
,
0000
0010
0000
1000
,
0000
0001
0000
0010
,
0000
0100
0000
1000
,
0000
0010
0000
0100
,
0000
0001
0000
0010
,
0000
0001
0000
1000
,
0000
0010
0010
0000
,
0100
0100
0100
0001
,
0000
0001
0000
1000
,
0001
0001
0001
0010
,
0000
0100
0000
1000
,
0010
0010
0010
0100
,
0000
0010
0000
1000
,
0000
0001
0000
1000
,
0000
0001
0000
0100
,
0000
0001
0000
0010
,
0000
0100
0000
0010
,
0010
0000
0000
0000
,
0000
0001
0000
0001
,
0000
0010
0000
0100
,
0000
1000
0000
1000
,
0000
0010
0000
0100
,
0000
0001
0000
0001
,
0000
0010
0000
0100
,
0000
0010
0000
0010
,
0000
0001
0000
1000
,
0000
0010
0000
0010
,
0000
1000
0000
0001
,
0000
0100
0000
0100
,
0000
0010
0000
0100
,
0000
0001
0000
0001
,
0000
1000
0000
0010
,
0100
0100
0100
0000
,
0001
0000
0001
0000
,
0000
1000
0000
1000
,
0000
0100
0000
0010
,
0000
0001
0000
0001
,
0000
0100
0000
0010
,
0000
1000
0000
1000
,
0000
0100
0000
0010
,
0000
0100
0000
0100
,
0000
1000
0000
0001
,
0000
0100
0000
0100
,
0000
0001
0000
1000
,
0000
0010
0000
0010
,
0000
0100
0000
0010
,
0000
1000
0000
1000
,
0000
0001
0000
1000
,
0010
0010
0010
0000
,
0100
0100
0100
0000
,
0001
0001
0001
0000
,
1000
1000
1000
0000
,
0010
0010
0010
0000
,
0100
0100
0100
0000
,
0001
0001
0001
0000
,
1000
0000
2000
0000
,
0000
0000
0000
0000
,
0000
3000
0000
0000
,
0000
0001
0000
1000
,
0000
0010
0000
0100
,
0000
0001
0000
0010
,
0000
0001
0000
1000
,
0000
0010
0000
1000
,
0000
0001
0000
1000
,
0000
0100
0000
1000
,
0000
0001
0000
0100
,
0000
0001
0000
0100
,
0000
0010
0000
0100
,
0000
0001
0000
0100
,
0000
0010
0000
1000
,
0000
0001
0000
0010
,
0000
0001
0000
0100
,
0000
0001
0000
0010
,
0000
0100
0000
1000
,
2000
0000
0000
0000
,
0000
0000
0000
0000
,
3000
0000
0000
0000
;

//--------------- dance-single - SKooT ----------------
#NOTES:
     dance-single:
     SKooT:
     Easy:
     5:
     0,0,0,0,0:
0000
0000
0000
0000
,
0000
0000
0000
0000
,
0001
0001
0001
2000
,
3010
0100
0002
0103
,
1000
0000
1000
0000
1000
0000
0002
0003
,
0100
0010
2000
3100
,
0001
0001
0001
2000
,
3010
0100
0002
0103
,
1000
0000
1000
0000
1000
0000
0002
0003
,
0100
0000
0010
0000
2000
0000
0000
3000
,
0000
0000
0000
0000
,
0000
0000
0000
0000
,
0000
0000
0000
0120
,
1030
0001
0100
1000
,
0010
0100
0001
0010
,
0001
0100
0010
1000
,
0001
0010
0001
0100
,
1000
1100
0100
1100
,
0001
0101
0001
0101
,
0010
0110
1000
1001
,
0020
0000
0000
1000
,
1030
1010
0010
0110
,
0001
0100
0001
0011
,
1000
0001
0010
0001
,
1000
0010
1000
1010
,
0001
0000
0001
0000
2000
3000
2000
3000
,
1000
0010
1000
0200
,
0310
0001
0100
0010
,
0100
0001
0010
0001
,
0200
0310
1000
1100
,
1000
0010
1000
2000
,
3200
0310
0020
0130
,
0100
0020
0031
1001
,
0002
1000
0203
0310
,
2000
3010
0110
1010
,
1001
0001
0100
0100
,
0001
0010
0001
0000
,
0100
0100
0100
0010
,
1000
0100
0010
0001
,
0010
0010
0010
0100
,
1000
0100
0010
0001
,
1000
1000
0100
0100
,
0010
0001
0100
0010
,
1000
0001
0010
0101
,
0002
1003
0001
1000
,
1001
0001
0011
1000
,
0101
1000
1100
1000
,
0110
0010
0100
0010
,
1000
1000
0001
0001
,
0100
0010
1000
0100
,
0010
0010
0100
0100
,
1000
0010
0100
0001
,
0010
0010
0001
0001
,
1000
0010
0100
0010
,
1000
1000
0001
0001
,
0100
0010
1000
0001
,
0100
0100
0001
0001
,
0010
0001
0100
0010
,
1000
1000
0100
0100
,
1000
0001
0100
0010
,
1000
1000
0001
0001
,
0100
0010
1000
0001
,
1001
1001
1001
0100
,
0010
0100
1000
0001
,
1000
1010
1000
1010
,
0100
1000
0010
0100
,
0001
0011
0001
0011
,
0100
0010
0100
0001
,
1000
1100
1000
1100
,
0010
0100
0001
0010
,
0001
0101
0001
0101
,
0100
0010
1000
0010
,
1000
1001
0001
1001
,
1000
0010
0100
0001
,
1001
1000
1001
0001
,
0010
0001
0100
0010
,
0100
0110
0010
0110
,
0001
0010
0100
1000
,
1100
1100
1100
0001
,
0101
0101
0101
1000
,
1010
1010
1010
0001
,
0011
0011
0011
1000
,
1001
0101
1001
1100
,
1001
0101
1001
1100
,
0110
0110
0110
0010
,
0002
0000
2000
0000
,
0000
0000
0000
0000
,
0000
3003
0000
0000
,
0001
0001
1000
1000
,
0010
0100
0001
0010
,
0100
0100
0010
0010
,
0001
0100
0010
1000
,
0100
0100
1000
1000
,
0001
0100
0010
0100
,
0001
0001
1000
1000
,
0010
0100
0001
1000
,
0010
0010
1000
1000
,
0100
1000
0010
0100
,
0001
0001
0010
0010
,
0001
1000
0010
0100
,
0001
0001
1000
1000
,
0010
0100
0001
1000
,
0010
0100
0001
0001
,
1000
0001
0000
0001
,
2000
0000
0000
0000
,
0000
0000
0000
0000
,
3000
0000
0000
0000
;

//--------------- dance-single - SKooT ----------------
#NOTES:
     dance-single:
     SKooT:
     Medium:
     9:
     0,0,0,0,0:
0000
0000
0000
0000
,
0000
0000
0000
0000
,
0001
0001
0001
2000
,
3010
0100
0002
0103
,
1000
0000
1000
0000
1000
0000
0002
0003
,
0100
0010
2000
3100
,
0001
0001
0001
2000
,
3010
0100
0002
0103
,
1000
0000
1000
0000
1000
0000
0002
0003
,
0100
0000
0010
0000
2000
0000
0000
3000
,
0000
0000
0000
0000
,
0000
0000
0000
0000
,
0000
0000
0000
0120
,
1030
0001
0100
1000
,
0010
0100
0001
0010
,
0001
0100
0010
1000
,
0001
0010
0001
0100
,
1000
1100
0001
0101
,
1000
1010
0001
0011
,
1000
1100
0001
0101
,
0002
0000
0000
0000
2000
0000
0000
0000
0000
0000
0000
0000
0000
3003
0000
0000
,
1000
1010
0010
0110
,
0001
0000
1000
0100
0010
0000
0011
0000
,
1000
0000
0001
0100
0010
0000
1000
0001
,
0100
0000
0001
0010
0100
0000
1010
0000
,
0001
0000
0001
0000
2000
3000
0002
0003
,
1000
0000
0100
0010
0001
0000
0200
0000
,
0310
0000
1000
0100
0010
0000
0001
0100
,
0010
0000
1000
0100
0010
0000
0001
0000
,
0201
0301
0001
1100
,
1000
1000
0010
2000
,
3200
0000
0310
0001
0020
0000
0130
1000
,
0010
2000
3010
0100
,
0002
1000
0203
0310
,
0002
1003
0110
1010
,
1001
0000
0001
0010
0100
0000
0100
0010
,
0001
0000
0000
0000
0001
0000
0010
0000
0100
0000
0000
1000
0000
0000
1000
0000
,
0100
0010
0100
0010
0100
0010
0100
0000
,
1000
0100
0010
0000
0010
0100
1000
0000
,
0010
0100
0010
0100
0010
0100
0010
0000
,
1000
0100
0010
0000
0100
0010
0001
0000
,
1000
0001
1000
0001
1000
0001
1000
0001
,
1000
0000
1000
0000
0100
0010
0001
0000
,
0001
0101
1000
1100
,
0002
0000
1003
0010
1000
0000
1000
0000
,
0110
0000
0001
0100
0010
0000
1000
0001
,
0100
0000
0001
1000
0100
0000
1000
0100
,
0010
0000
0010
0000
0100
0010
0001
0000
,
0001
0101
0100
0101
,
0010
0100
0010
0100
0010
0000
1001
0000
,
1000
1100
0100
1100
,
0010
0100
0010
0100
0010
0000
1001
0000
,
1000
1010
0001
0011
,
0010
0001
0010
0001
0010
0000
1001
0000
,
0100
0110
0010
0110
,
1000
0100
1000
0100
1000
0000
0010
0000
,
1000
0011
0010
0011
,
1000
0001
1000
0001
1000
0000
1001
0000
,
1000
1010
0010
1010
,
1000
0001
1000
0001
1000
0000
1001
0000
,
0100
0110
0010
0110
,
0001
0010
0001
0010
0001
1000
0100
1000
,
0100
0000
0100
0000
1000
0000
0001
0010
,
0002
0100
1000
0000
,
1003
0001
1000
0001
1000
0001
1000
0000
,
1000
0100
0010
0001
,
0100
0001
0100
0001
0100
0001
0100
0000
,
0001
0100
0010
1000
,
1000
0010
1000
0010
1000
0010
1000
0000
,
1000
0100
0010
0001
,
1000
0100
1000
0100
1000
0100
1000
0000
,
0001
0100
0010
1000
,
0001
1000
0001
1000
0001
1000
0001
0000
,
0001
0010
0100
1000
,
0110
0110
0110
0010
,
1000
0010
0100
0001
,
0001
0100
0001
0100
0001
0100
0001
0000
,
0001
0010
0100
1000
,
0101
1001
1100
0001
,
1100
1001
0101
1000
,
0011
0110
1010
0001
,
1010
0110
0011
0001
,
1001
1000
0100
0001
,
1001
0001
0100
1000
,
1001
1000
0100
0001
,
0012
0100
2000
0000
,
0000
0000
0000
0000
,
0000
0000
0000
0000
3003
0000
0000
0000
0001
0000
0000
0001
0000
0000
0001
0000
,
1000
0010
1000
0010
,
0100
0010
0100
0010
0100
0000
0001
0000
,
0010
0001
0010
0100
,
1000
0010
1000
0010
1000
0000
0001
0000
,
0100
0001
0100
0001
,
0010
0100
0010
0100
0010
0000
0001
0000
,
1000
0010
1000
0010
,
0100
0001
0100
0001
0100
0000
0010
0000
,
1000
0001
1000
0010
,
0010
0100
0010
0100
0010
0000
1000
0000
,
0100
1000
0100
0010
,
0001
0100
0001
0100
0001
0000
1000
0000
,
0010
1000
0010
1000
,
0100
0010
0100
0010
0100
0000
1000
0000
,
0001
0100
0001
0100
,
0010
0000
1000
0000
0010
0000
0000
0010
0000
0010
0000
0010
0000
0000
0000
0000
,
2000
0000
0000
0000
,
0000
0000
0000
0000
,
3000
0000
0000
0000
;

//--------------- dance-single - SKooT ----------------
#NOTES:
     dance-single:
     SKooT:
     Hard:
     11:
     0,0,0,0,0:
0000
0000
0000
0000
,
0000
0000
0000
0000
,
0001
0001
0001
2000
,
3001
0010
0100
0010
0002
0000
0103
0000
,
1000
0000
1000
0000
1000
0000
0002
0003
,
1000
0100
0010
0100
2000
0000
3100
0000
,
0001
0001
0001
2000
,
3001
0010
0100
0010
0002
0000
0103
0000
,
1000
0000
1000
0000
1000
0000
0002
0003
,
1000
0100
0010
0100
2000
0000
0000
3000
,
0000
0000
0000
0000
,
0000
0000
0000
0000
,
0000
0000
0000
0000
0000
0000
0000
0100
0000
0100
0000
0000
0020
0000
0000
0000
,
1030
0000
0000
0000
0001
0000
0000
0100
0000
0100
0000
0000
1000
0000
0000
0000
,
0010
0100
0001
0010
,
0001
0000
0000
0000
1000
0000
0000
0100
0000
0100
0000
0000
0001
0000
0000
0000
,
1000
0010
0100
0001
,
1000
1100
0001
0101
,
1000
1010
0001
0011
,
1000
1100
0001
0101
,
0002
0000
0000
0000
0100
0000
0000
1000
0000
1000
0000
1003
0000
0010
0100
0010
,
1000
0000
1010
0000
0010
0000
0110
0100
,
0001
0000
0010
0000
0100
0000
0010
0000
0001
1000
0000
1000
0000
0100
0010
0000
,
0001
0000
0000
0000
0101
0000
0001
0000
1000
0010
0000
0010
1000
0000
0001
0000
,
0100
0000
0010
0000
0001
0000
0010
0000
0100
0010
0000
0010
0000
1000
0100
0010
,
0001
0000
0000
0000
1000
0000
0001
0000
2000
0010
3000
0010
2000
0000
3001
0000
,
1000
0010
0100
0010
0001
0000
0020
0000
,
1030
0000
0001
0010
0001
0100
1000
0100
,
0010
0000
0001
0000
0010
0000
0100
0000
0001
1000
0000
1000
0010
0000
0100
0000
,
0002
0000
0013
0001
0010
0000
1100
0000
,
1000
0010
0100
0001
0010
0000
2000
0000
,
3200
0000
0310
0001
0020
0000
0130
1000
,
0010
0000
0100
0000
0020
0000
0000
0000
1030
0001
0000
0001
0000
1000
0000
0000
,
0002
0100
2003
3100
,
0002
0103
0110
1010
,
1001
0000
0001
0010
0100
1000
0100
0010
,
0001
0000
0010
0000
0100
0000
0010
0000
0001
1000
0000
1000
0000
0001
1000
0001
,
0100
0010
0100
0010
0100
0010
0100
0001
,
1000
0010
0100
0001
0010
0100
1000
0001
,
0010
0100
0010
0100
0010
0100
0010
0001
,
1000
0100
0010
0100
1000
0010
0100
0010
,
1000
0001
1000
0001
0100
0010
1000
0001
,
0010
0100
1000
0010
0100
0000
0010
0000
,
1000
0101
1000
1100
,
0002
0000
0000
0000
1003
0000
0010
0000
1000
0001
0000
0001
1000
0000
0000
0000
,
0110
0000
0001
0100
0010
0000
1000
0001
,
0101
0000
0001
1000
1100
0000
1000
0100
,
0020
0030
0000
0000
0010
0000
0000
0000
0100
0000
0010
0000
0001
0000
1000
0000
,
0001
0100
0001
0100
0010
1000
0010
1000
,
0010
0100
0010
0001
0010
0000
1010
0000
,
1000
0100
1000
0100
1000
0010
1000
0010
,
0001
0010
0100
0001
0010
0000
0011
0000
,
1000
1100
0001
0101
,
1000
0100
1000
0001
0100
0010
1000
0100
,
0010
0001
0010
0001
0010
1000
0010
1000
,
0010
0000
0100
0000
0010
0000
0100
0000
1000
0001
0000
1000
0000
0001
0010
0100
,
1000
0001
1000
0001
0010
0001
0010
0001
,
1000
0010
0100
0001
0010
0001
1000
0000
,
0011
0101
1100
1010
,
0100
0010
0001
0010
0100
0000
1001
0000
,
0100
0001
0100
0001
1000
0010
1000
0010
,
0100
0010
0001
0010
1000
0001
0100
0001
,
0011
0000
0110
0000
1100
1000
1000
1000
,
0001
0000
0010
0000
0100
0000
0010
0000
0001
0000
0000
1000
0000
0010
0100
0010
,
1000
0001
1000
0001
0010
0100
0010
0100
,
1000
0010
0100
0001
0010
0001
0010
0001
,
0010
0100
0010
0100
0010
1000
0010
1000
,
0010
0001
1000
0100
0010
0001
1000
0001
,
0010
0100
0010
0100
1000
0100
1000
0100
,
0010
0100
1000
0001
0010
0001
1000
0001
,
0100
0010
0100
0001
0100
0010
1000
0001
,
0010
0001
0100
1000
0100
0010
0001
0010
,
0100
0001
0010
1000
0010
0001
0010
1000
,
0010
0100
0010
0001
0100
0010
1000
0000
,
1100
0000
0110
0000
0011
0000
1000
0010
,
0100
0001
0100
0010
1000
0000
0100
0000
,
0010
0001
0010
1000
0010
0001
0010
1000
,
0010
0001
1000
0001
0100
0010
0001
0010
,
1010
0000
0110
0000
0101
0100
0001
0010
,
0011
0000
0110
0000
1100
1000
0010
0100
,
0101
0000
0110
0000
1010
1000
0001
0010
,
0011
0000
0110
0000
1100
1000
0100
0010
,
1001
0000
0101
0000
1001
0000
1010
1000
,
1001
0000
1100
0000
1001
0001
0011
0000
,
0001
0010
1000
0010
0001
0010
1000
0010
,
0002
0000
2000
0000
,
0000
0000
0000
0000
,
0000
0000
0000
0000
3003
0000
0000
0000
0001
0000
0000
0001
0000
0000
0001
0000
,
1000
0010
1000
0010
0100
0001
0100
0001
,
0100
0010
0100
0001
1000
0000
1001
0000
,
0001
0010
0001
0010
0001
0100
0001
0010
,
0100
1000
0010
0100
0010
0001
0010
1000
,
0100
0010
0100
0010
0001
0100
0001
0010
,
0001
0100
0010
1000
0010
0100
0001
0010
,
0100
1000
0100
1000
0010
0100
0010
0100
,
0001
0000
0010
0000
0100
0000
0010
0000
0001
1000
0000
0001
0000
1000
0100
0010
,
0001
1000
0001
1000
0100
1000
0100
1000
,
0001
0100
0010
1000
0100
1000
0001
1000
,
0100
0010
0100
0001
0100
1000
0001
0100
,
0010
0100
1000
0100
0010
1000
0001
0010
,
0001
0011
0010
0110
,
0100
1100
0010
1010
,
0100
0101
0001
0011
,
1000
0000
0000
0000
0001
0000
0000
0100
0000
0100
0000
0010
0000
1000
0001
0000
,
2002
0000
0000
0000
,
0000
0000
0000
0000
,
3003
0000
0000
0000
;
