#TITLE:waxing and wanding;
#SUBTITLE:;
#ARTIST:青龍;
#TITLETRANSLIT:;
#SUBTITLETRANSLIT:;
#ARTISTTRANSLIT:Seiryu;
#GENRE:;
#CREDIT:;
#MENUCOLOR:;
#METERTYPE:DDR;
#BANNER:waxing and wanding.png;
#BACKGROUND:waxing and wanding-bg.png;
#LYRICSPATH:;
#CDTITLE:;
#MUSIC:waxing and wanding.mp3;
#OFFSET:-0.040;
#SAMPLESTART:72.594;
#SAMPLELENGTH:12.000;
#SELECTABLE:YES;
#LISTSORT:;
#BPMS:0.000=191.000,168.000=95.500,200.000=191.000;
#STOPS:;
#BGCHANGES:;
#ATTACKS:;

//---------------dance-single - ----------------
#NOTES:
     dance-single:
     :
     Hard:
     13:
     0.677,0.641,0.367,0.070,0.022: // measure 1
0000
0000
0000
0000
,  // measure 2
0000
0000
0000
0000
,  // measure 3
0000
0000
0000
0000
,  // measure 4
0000
0000
0000
0000
,  // measure 5
1001
0010
0000
0010
,  // measure 6
0000
0100
0000
0100
,  // measure 7
1001
0000
0110
0000
,  // measure 8
1100
0011
1010
0101
,  // measure 9
1001
0000
0000
0000
1001
0000
0000
0000
0001
0000
1000
0000
0001
1000
0001
1000
,  // measure 10
0001
0000
0000
0000
,  // measure 11
1000
0100
0010
0100
1000
0100
0010
0000
,  // measure 12
0001
0100
0010
0100
0001
0100
0010
0000
,  // measure 13
1000
0001
0100
0001
1000
0001
0100
0000
,  // measure 14
0001
1000
0100
1000
0001
1000
0100
0000
,  // measure 15
1000
0010
0100
0001
1000
0010
0100
0000
,  // measure 16
0001
0010
0100
1000
0001
0010
0100
0000
,  // measure 17
1000
0100
0010
0001
1000
0100
0010
0000
,  // measure 18
0001
0100
0010
1000
0001
0100
0010
0010
,  // measure 19
0010
0100
0001
0010
0100
1000
0001
0100
,  // measure 20
0010
0100
0001
0010
0000
0110
0000
0000
,  // measure 21
1000
0100
0001
0000
1000
0100
0001
0000
,  // measure 22
1000
0100
1100
0000
0101
0000
1100
1000
,  // measure 23
0100
0001
1000
0010
0001
1000
0010
0100
,  // measure 24
0001
0010
0100
1000
0000
1001
0000
0000
,  // measure 25
0001
0100
1000
0000
0001
0100
1000
0000
,  // measure 26
0010
1000
1010
0000
0011
0000
1010
0000
,  // measure 27
0001
0100
0010
1000
0001
0010
0100
1000
,  // measure 28
0001
0100
1000
0001
1000
0100
0001
0000
,  // measure 29
0001
0100
1000
0100
0001
0010
1000
0010
,  // measure 30
0001
0100
0010
0100
0010
1000
0100
0000
,  // measure 31
1000
0100
0010
0001
1000
0010
0100
0001
,  // measure 32
1000
0100
0001
1000
0001
0100
1000
0000
,  // measure 33
1000
0100
0001
0100
1000
0010
0001
0010
,  // measure 34
1000
0100
0010
0100
0010
0001
0100
0000
,  // measure 35
0001
0100
0010
0100
0001
0010
0100
0010
,  // measure 36
0001
1000
0100
0010
0000
0100
0000
1000
,  // measure 37
0010
0100
0001
0100
0010
1000
0100
1000
,  // measure 38
0010
1000
0100
0001
0100
0000
1000
0010
,  // measure 39
0100
0001
0010
1000
0010
0100
1000
0010
,  // measure 40
0100
0001
0010
0100
0000
0010
0000
0100
,  // measure 41
1000
0010
0100
1000
0100
0001
0010
1000
,  // measure 42
0010
0100
1000
0001
0100
0000
0000
0000
,  // measure 43
2001
0000
3020
0000
,  // measure 44
0230
0000
0302
0000
,  // measure 45
0023
0000
0230
0000
,  // measure 46
2300
0000
3002
0000
,  // measure 47
1003
0100
0100
0000
0001
0100
0100
0000
,  // measure 48
1000
0010
0010
0000
0001
0010
0010
0000
,  // measure 49
1000
0100
0010
0000
0001
0100
0010
0000
,  // measure 50
1000
0000
0001
0000
0010
0000
0100
0000
1000
0100
0010
0001
1000
0000
0001
0100
,  // measure 51
0001
0010
0100
1000
0001
0100
0010
1000
,  // measure 52
0001
0100
0001
0010
0000
0110
0000
1000
,  // measure 53
0001
0100
1000
0100
0001
0010
1000
0010
,  // measure 54
0001
1000
0100
0010
0001
0000
0100
0010
,  // measure 55
1000
0100
0001
0100
0010
0001
0100
1000
,  // measure 56
0100
0001
1000
0010
0000
0110
0000
0001
,  // measure 57
0010
1000
0001
0100
1000
0010
0001
1000
,  // measure 58
0100
0001
0010
0100
1000
0000
0001
0001
,  // measure 59
0001
0010
0100
1000
0010
0001
1000
0100
,  // measure 60
0001
1000
0100
0001
0000
0100
0100
1000
,  // measure 61
0010
0001
1000
0100
0001
0100
1000
0001
,  // measure 62
0010
1000
0001
0010
1000
0000
0010
0001
,  // measure 63
0100
0010
1000
0100
0001
0100
1000
0001
,  // measure 64
0010
1000
0010
0001
0000
0001
0001
1000
,  // measure 65
0010
0001
1000
0001
0010
0100
1000
0100
,  // measure 66
0001
1000
0100
0001
0100
0000
0000
0000
,  // measure 67
1000
0100
1000
0000
0001
0100
0001
0000
,  // measure 68
1100
0101
0011
1010
,  // measure 69
0001
0010
0001
0000
1000
0010
1000
0000
,  // measure 70
0010
0010
0010
0000
0110
0000
0110
0000
,  // measure 71
0001
0100
1000
0000
0001
0010
1000
0000
,  // measure 72
1010
0011
0101
1100
,  // measure 73
1000
0100
0001
0000
1000
0010
0001
0000
,  // measure 74
0100
0100
0100
0000
0110
0000
0110
0000
,  // measure 75
0001
0010
0001
0100
1000
0100
0001
0010
,  // measure 76
1000
0001
0100
1000
0000
1100
0100
0010
,  // measure 77
0001
0100
0010
0001
0010
1000
0001
0100
,  // measure 78
1000
0100
0101
0000
1010
0000
0101
0001
,  // measure 79
0010
1000
0001
1000
0010
0001
0100
1000
,  // measure 80
0100
0001
1000
0100
0000
1100
1000
0100
,  // measure 81
1100
0000
0001
0010
0011
0000
0001
1000
,  // measure 82
1010
0001
0101
1000
1100
0000
0000
0000
;

//---------------dance-single - ----------------
#NOTES:
     dance-single:
     :
     Medium:
     11:
     0.493,0.570,0.096,0.000,0.000:
0000
0000
0000
0000
,
0000
0000
0000
0000
,
0000
0000
0000
0000
,
0000
0000
0000
0000
,
1000
0100
0000
0100
,
0000
0100
0000
0100
,
0010
0000
0010
0000
,
0010
0010
0010
0010
,
0100
0000
0010
0000
0100
0010
0100
0010
,
0100
0000
0000
0000
,
1000
0100
1000
0100
,
1000
0100
0010
0100
1000
0100
0010
0100
,
1000
0001
1000
0001
,
1000
0001
0100
0000
0010
0000
0010
0000
,
0100
0001
0010
0001
,
0100
0001
0010
0001
0100
0001
0010
0001
,
0100
0010
1000
0100
,
0010
0100
1000
0000
0001
0000
0001
0000
,
1000
0100
0010
0100
1000
0000
1000
0000
,
0001
0100
0010
0100
0001
0000
0001
0000
,
1000
0001
1000
0001
,
1000
0001
0100
0000
0010
0000
0010
0000
,
1000
0001
0100
0001
1000
0000
1000
0000
,
0001
1000
0100
1000
0001
0000
0001
0000
,
1000
0010
1000
0100
,
0010
0001
0100
0000
0010
0000
0010
0000
,
1000
0100
0010
0100
0000
1000
0001
1000
,
0000
0010
0100
0010
0000
1000
0100
1000
,
0000
0001
0010
0001
0000
1000
0010
1000
,
0000
0001
0100
0001
0010
0001
0100
0001
,
0000
1000
0100
0010
0000
0001
0100
0010
,
0000
1000
0010
0100
0000
0001
0010
0100
,
0000
1000
0001
0100
0000
0001
1000
0100
,
0000
1000
0001
0100
0001
1000
0001
0100
,
0001
0001
1000
1000
,
0001
0010
0100
1000
0000
0001
0000
0000
,
1000
1000
0001
0001
,
1000
0100
0010
0001
1000
0000
0000
0000
,
0001
0001
1000
1000
,
0001
0010
0100
1000
0000
0001
0000
0000
,
0010
0010
0100
0100
,
0101
1100
0101
0000
,
1000
0100
0010
0001
,
1000
0010
0100
0000
,
0001
0010
0100
1000
,
0001
0100
0010
0000
,
1000
0001
1000
0000
,
0001
1000
0001
0000
,
1000
0100
0010
0001
,
1000
0000
0100
0000
0010
0001
1000
0100
,
0010
0010
0001
0001
,
1000
0001
0100
0001
0000
1000
0000
0000
,
0010
0010
0100
0100
,
0001
1000
0100
0010
1000
0000
0000
0000
,
0010
0010
0001
0001
,
1000
0010
0100
0001
0000
0100
0000
0000
,
0010
0010
1000
1000
,
0001
0100
1000
0100
0001
0000
0000
0000
,
1000
0100
0010
0100
1000
0100
0010
0000
,
0001
0100
0010
0100
0000
0001
0000
0000
,
1000
0010
0100
0010
1000
0010
0100
0000
,
0001
0010
0100
1000
0001
0000
0000
0000
,
1000
0001
0100
0001
1000
0001
0100
0000
,
0010
1000
0100
0010
0000
0100
0000
0000
,
1000
0100
0010
0001
0010
0100
1000
0001
,
0010
0100
0010
0001
1000
0000
0000
0000
,
0001
0001
1000
1000
,
0001
0101
1100
0000
,
0010
0010
1000
1000
,
0010
0110
0101
0000
,
1000
1000
0100
0100
,
0010
0011
1010
0000
,
0100
0100
0001
0001
,
1000
1100
0101
0000
,
1000
0100
1000
0100
0010
0100
0010
0100
,
0010
0001
0100
0001
0000
0010
0000
0000
,
0001
0010
0001
0010
0100
0010
0100
0010
,
0100
1000
0100
0010
0100
0000
0010
0100
,
1000
0001
1000
0001
0010
0001
0010
0001
,
0100
0010
0100
0001
0000
1000
0000
0000
,
0010
0100
0010
0100
0001
1000
0001
1000
,
0010
0001
0010
1000
0100
0000
0000
0000
;

//---------------dance-single - ----------------
#NOTES:
     dance-single:
     :
     Easy:
     8:
     0.307,0.321,0.026,0.035,0.000:
0000
0000
0000
0000
,
0000
0000
0000
0000
,
0000
0000
0000
0000
,
0000
0000
0000
0000
,
1000
0000
0000
0000
,
0001
0000
0000
0000
,
0100
0000
0010
0000
,
1000
0100
0010
0001
,
1000
0001
1000
0001
,
1001
0000
0000
0000
,
0010
0010
0010
0000
,
0100
0100
0100
0000
,
0001
0001
0001
0000
,
1000
1000
1000
0000
,
0001
1000
0001
0000
,
1000
0001
1000
0000
,
0010
0100
0010
0000
,
0100
0010
0100
0000
,
0010
1000
0100
1000
,
0010
1000
0100
0000
,
0010
0001
0100
0000
,
0001
0010
0100
0000
,
1000
0100
0010
0100
,
1000
0100
0010
0000
,
0001
0100
0010
0000
,
0100
0001
0010
0000
,
0100
0100
1000
0000
,
0100
0100
0010
0000
,
0100
1000
0001
0000
,
0100
0001
1000
0000
,
0001
0001
1000
0000
,
1000
1000
0001
0000
,
0001
1000
0001
0000
,
1000
0001
1000
0000
,
0010
1000
0001
1000
,
0010
1000
0001
0000
,
1000
0001
0010
0001
,
1000
0001
0010
0000
,
0100
1000
0001
1000
,
0100
1000
0001
0000
,
0010
0001
1000
0001
,
0010
0001
1000
0000
,
0110
0000
0000
0000
,
0000
0000
0000
0000
,
1001
0000
0000
0000
,
0000
0000
0000
0000
,
1000
0100
0010
0000
,
0001
0010
0100
0000
,
1000
0010
0100
0000
,
0001
0100
0010
0000
,
1000
0001
0100
0001
,
0010
0100
1000
0000
,
0001
1000
0100
1000
,
0001
0010
0100
0000
,
1000
0100
1000
0010
,
1000
0100
1000
0000
,
0001
0100
0001
0010
,
0001
0100
0001
0000
,
1000
0100
1000
0001
,
1000
0100
1000
0000
,
0001
0100
0001
1000
,
0001
0100
0001
0000
,
1000
0100
0010
0001
,
1000
0100
0010
0000
,
0001
0100
0010
1000
,
0001
0100
0010
0000
,
2000
0100
0100
3100
,
1000
0000
1000
0000
,
0002
0100
0100
0103
,
0001
0000
0001
1000
,
0002
0010
0010
0013
,
0001
0000
0001
0000
,
2000
0010
0010
3010
,
1000
0000
1000
0001
,
0100
0001
1000
0001
,
0100
0001
0010
0000
,
0001
1000
0100
1000
,
0010
0100
0001
0000
,
1000
0010
0100
0001
,
0010
0100
1000
0000
,
0001
0010
0100
1000
,
0001
0100
0010
0000
;

//---------------dance-single - ----------------
#NOTES:
     dance-single:
     :
     Beginner:
     4:
     0.144,0.214,0.000,0.000,0.000:
0000
0000
0000
0000
,
0000
0000
0000
0000
,
0000
0000
0000
0000
,
0000
0000
0000
0000
,
1000
0000
0000
0000
,
0000
0000
0000
0000
,
0001
0000
0001
0000
,
1000
1000
1000
0000
,
0001
0001
0001
0000
,
1000
0000
0000
0000
,
0010
0000
0010
0000
,
0010
0000
0000
0000
,
0100
0000
0100
0000
,
0100
0000
0000
0000
,
0001
0000
0001
0000
,
0001
0000
0000
0000
,
1000
0000
1000
0000
,
1000
0000
0000
0000
,
0010
0000
0010
0000
,
0010
0000
0000
0000
,
0100
0000
0100
0000
,
0100
0000
0000
0000
,
0001
0000
0001
0000
,
0001
0000
0000
0000
,
1000
0000
1000
0000
,
1000
0000
0000
0000
,
0001
0000
0001
0000
,
1000
0000
1000
0000
,
0001
0000
0001
0000
,
1000
0000
1000
0000
,
0001
0000
0001
0000
,
1000
0000
1000
0000
,
0001
0000
0001
0000
,
1000
0000
1000
0000
,
0001
0000
0001
0000
,
0001
0000
0000
0000
,
1000
0000
1000
0000
,
1000
0000
0000
0000
,
0001
0000
0001
0000
,
0001
0000
0000
0000
,
1000
0000
1000
0000
,
1000
0000
0000
0000
,
0001
0000
0000
0000
,
0000
0000
0000
0000
,
0000
0000
0000
0000
,
0000
0000
0000
0000
,
1000
0000
0000
0000
,
0001
0000
0000
0000
,
1000
0000
0000
0000
,
0001
0000
0000
0000
,
1000
0000
0000
0000
,
0001
0000
0000
0000
,
1000
0000
0000
0000
,
0001
0001
0001
0000
,
0001
0000
0000
0000
,
1000
0000
0000
0000
,
0001
0000
0000
0000
,
1000
1000
1000
0000
,
0010
0000
0000
0000
,
0100
0000
0000
0000
,
0010
0000
0000
0000
,
0100
0100
0100
0000
,
0100
0000
0000
0000
,
0010
0000
0000
0000
,
0100
0000
0000
0000
,
0010
0010
0010
0000
,
0010
0000
0000
0000
,
1000
0000
0000
0000
,
0001
0000
0000
0000
,
0010
0000
0000
0000
,
0100
0000
0000
0000
,
1000
0000
0000
0000
,
0001
0000
0000
0000
,
1000
1000
1000
0000
,
1000
0000
1000
0000
,
1000
0000
0000
0000
,
0001
0000
0001
0000
,
0001
0000
0000
0000
,
1000
0000
1000
0000
,
1000
0000
0000
0000
,
0001
0000
0001
0000
,
0001
0001
0001
0000
;
