#TITLE:waxing and wanding (JAKAZiD's 新月 Remix);
#SUBTITLE:;
#ARTIST:Remixed by JAKAZiD;
#TITLETRANSLIT:waxing and wanding (JAKAZiD's Shingetsu Remix);
#SUBTITLETRANSLIT:;
#ARTISTTRANSLIT:;
#GENRE:;
#CREDIT:;
#MENUCOLOR:;
#METERTYPE:DDR;
#BANNER:waxing and wanding (JAKAZiD's Shingetsu Remix).png;
#BACKGROUND:waxing and wanding (JAKAZiD's Shingetsu Remix)-bg.png;
#LYRICSPATH:;
#CDTITLE:cdtitle.png;
#MUSIC:waxing and wanding (JAKAZiD's Shingetsu Remix).mp3;
#OFFSET:-0.041;
#SAMPLESTART:72.672;
#SAMPLELENGTH:12.000;
#SELECTABLE:YES;
#LISTSORT:;
#BPMS:0.000=185.000,94.000=92.500,124.000=185.000;
#STOPS:28.000=0.649
,188.000=0.973
;
#BGCHANGES:;
#ATTACKS:;

//---------------dance-single - ----------------
#NOTES:
     dance-single:
     :
     Hard:
     14:
     0.720,0.686,0.294,0.043,0.372:
0000
0000
0000
0000
,
0000
0000
0000
0000
,
0000
0000
0000
0000
,
0000
0000
0000
0000
,
0000
0010
0000
0010
0000
0010
0000
0010
,
0000
0100
0000
0100
0000
0100
0000
0100
,
0000
0000
1000
0001
0000
0000
1000
0001
0000
0000
0100
0010
0000
0000
0100
0010
,
2000
3000
0000
0000
0000
0000
0000
0000
0010
0000
0000
0000
0000
0000
0000
0000
1000
0000
0000
0000
0100
0000
0000
0000
0001
0000
0000
0000
0000
0000
0000
0000
,
1000
0100
0001
0000
0100
1000
0100
1000
,
0020
0100
0130
0000
0001
0100
1000
0000
,
0001
0100
1000
0000
0100
0001
0010
0100
,
1000
0000
1001
0000
0001
0010
0100
0000
,
0001
0010
0100
0000
0001
0100
1000
0100
,
0002
1000
1003
0000
0010
1000
0100
0000
,
0010
0001
0100
0000
0001
1000
0001
1000
,
0010
0000
0000
0000
0110
0000
0000
0000
0001
0000
0100
0000
0010
0000
1000
0001
,
0000
1000
0001
0000
0010
0000
0000
0000
0100
0000
1000
0000
0010
0000
0001
0000
,
0010
0000
1000
0100
0000
0000
0000
0000
0010
0000
0100
0000
1000
0000
0001
0100
,
0000
0001
0100
0000
0010
0000
0000
0000
1000
0000
0001
0000
0100
0000
0001
0000
,
0010
0100
0010
0000
0100
0000
0000
0000
1000
0000
0001
0000
0100
0000
0001
1000
,
0000
0010
0100
0000
1000
0000
0000
0000
0100
0000
0001
0000
0010
0000
1000
0000
,
0010
0000
0001
0100
0000
0000
0000
0000
0010
0000
1000
0000
0001
0000
0010
0000
,
0100
1000
0100
1000
0001
0010
0001
0010
0200
0000
0000
0000
0000
0000
0000
0000
,
0000
0000
0000
0000
0000
0000
0000
0000
1300
0000
0001
0000
0100
0010
0000
0010
,
0001
0000
1000
0000
0100
0000
0100
0000
0001
0000
1000
0000
0001
0010
0000
0010
,
0100
0000
1000
0000
0010
0000
0100
0000
0001
0000
0010
0000
1000
0001
0000
0001
,
0100
0000
1000
0000
0100
0000
0010
0000
0001
0000
0100
0000
0010
0100
0000
0100
,
0001
0000
1000
0000
0001
0010
0000
0010
0100
0000
1000
0000
0001
0010
0000
0100
,
1000
0000
0001
0000
0100
0000
1000
0000
0100
0001
0100
0000
0010
1000
0010
0000
,
0100
0000
0010
0000
0001
0000
1000
0000
0100
0000
0001
0000
1000
0100
0000
0010
,
0001
0000
0010
0000
0001
0000
0100
0000
0010
0000
0001
0000
1000
0100
0000
0001
,
0101
0000
0000
1100
0000
0000
1010
0000
0000
0011
0000
0000
1001
0000
0000
0000
,
0010
1000
0100
0000
1000
0010
0100
0001
,
1000
0000
1001
0000
1000
0100
0010
0001
,
1000
0000
1010
0000
0010
0100
0001
0010
,
0000
0100
1000
1000
0001
0001
0100
0000
,
0010
0000
1001
0000
0010
1000
0100
0001
,
0100
0000
1100
0000
0001
0100
1000
0100
,
0001
0000
0011
0000
0100
1000
0010
0100
,
0001
0000
1001
0000
1000
0001
0110
0000
,
1001
0000
0000
0000
0110
0000
0000
1000
0010
0000
1000
0000
0001
0000
0100
0000
,
0010
0000
0000
0000
0110
0000
0000
0010
0100
0000
0001
0000
0010
0000
0100
0000
,
1000
0000
0000
0000
0101
0000
0000
0100
0010
0000
1000
0000
0001
0000
0100
0000
,
0000
0100
0001
0001
1000
1000
0110
0000
,
0001
0000
0000
0000
1100
0000
0000
1000
0001
0000
0100
0000
0010
0000
1000
0000
,
0100
0000
0000
0000
0101
0000
0000
0010
0001
0000
0010
0000
0100
0000
1000
0000
,
0001
0000
0000
0000
0110
0000
0000
0010
1000
0000
0010
0000
0001
0000
0010
0000
,
2000
3000
0000
0000
0000
0000
0000
0000
0001
0000
0000
0000
0000
0000
0001
0000
0000
0000
0000
0000
0001
0000
0000
0000
0010
0000
0000
0000
0100
0000
0000
0000
,
1000
0000
0001
0000
0100
0000
0000
0100
0000
0000
0100
0000
0001
0000
1000
0000
,
0100
0000
1000
0000
0001
0000
0000
0001
0000
0000
0001
0000
0100
0000
0010
0000
,
1000
1001
0000
0110
0000
1001
0000
0110
,
0000
0000
1000
0000
0100
0000
0000
0100
0000
0000
0100
0000
1000
0000
0001
0000
,
0100
0000
0010
0000
1000
0000
0000
1000
0000
0000
1000
0000
0001
0000
0010
0000
,
0100
0000
1000
0000
0001
0000
0000
0001
0000
0000
0001
0000
0100
0000
1000
0000
,
0100
0000
0001
0000
1000
0000
0000
0001
0000
0000
1000
0000
1001
0000
0000
0000
,
0110
0000
0000
0000
0001
0000
0000
0010
0000
0000
0100
0000
1000
0000
0010
0000
,
0100
0000
0001
0000
0010
0000
0000
1000
0000
0000
0010
0000
0001
0000
0100
0000
,
0010
0000
1000
0000
0100
0000
0000
0001
0000
0000
0100
0000
1000
0000
0100
0000
,
0010
0001
0000
0110
0000
1001
0000
0110
,
0000
0000
1000
0000
0100
0000
0000
1000
0000
0000
0010
0000
0100
0000
1000
0000
,
0001
0000
0010
0000
1000
0000
0000
0001
0000
0000
0100
0000
0010
0000
0001
0000
,
0010
0000
1000
0000
0100
0000
0000
0001
0000
0000
0100
0000
0010
0000
0001
0000
,
1000
0000
0010
0000
0100
0000
0010
1000
0000
0010
0100
0000
0001
0000
1000
0010
,
0000
1000
0100
0000
0010
0000
0001
0000
0100
0000
0010
0000
0001
0000
0010
0000
,
1000
0000
0000
0000
1000
0100
0000
0100
0010
0000
0001
0000
0100
0010
0000
0010
,
1000
0001
0100
0010
1000
0100
0010
1000
,
0010
0000
0000
0000
0001
0100
0000
0100
0010
0000
1000
0000
0001
0010
0000
0010
,
0100
1000
0001
0100
1000
0001
0010
1000
,
0100
0000
0000
0000
0010
0001
0000
0001
1000
0000
0010
0000
0100
0010
0000
0010
,
1000
0001
0100
0001
1000
0100
0001
1000
,
0010
0000
0000
0000
0001
1000
0000
1000
0100
0000
0010
0000
0100
1000
0000
1000
,
0001
0001
1000
0100
0010
0001
1000
0100
,
0010
0000
0001
0000
1000
0100
1000
0000
0001
0000
1000
0000
0001
0100
0001
0000
,
1000
0001
1000
0100
0001
0100
1000
0010
,
0001
0000
0010
0000
1000
0100
0000
0001
0100
0000
1000
0000
0001
0010
0000
1000
,
0010
0001
1000
0010
0100
0001
1000
0010
,
0100
0000
0001
0000
0100
0010
0100
0000
0001
0000
1000
0000
0100
0010
0100
0000
,
1000
0001
1000
0010
0001
0010
1000
0001
,
0100
0000
0000
1000
0000
0000
0100
0000
0001
0000
0010
0000
1000
0000
0000
0000
0000
0000
0110
0000
0000
0000
0000
0000
,
1001
0110
0000
0000
;

//---------------dance-single - ----------------
#NOTES:
     dance-single:
     :
     Medium:
     11:
     0.446,0.583,0.052,0.078,0.035:
0000
0000
0000
0000
,
0000
0000
0000
0000
,
0000
0000
0000
0000
,
0000
0000
0000
0000
,
1000
0001
1000
0001
,
1000
0001
1000
0001
,
0010
0100
0000
1000
0000
0001
0000
0100
,
0010
0000
0100
0000
0100
0000
0001
0100
,
0001
1000
0100
1000
,
0001
0000
0000
0000
1000
0000
0010
0100
,
0010
1000
0001
0001
,
0001
0000
0000
0000
1000
0000
0100
1000
,
0100
0010
0001
0100
,
0100
0000
0000
0000
0010
0000
1000
0001
,
1000
0010
0100
0100
,
0100
0000
0001
0010
,
0100
1000
0001
0010
,
0010
0000
1000
0100
,
0010
0001
1000
0100
,
0100
0000
0001
0100
,
0001
0100
0010
1000
,
0010
1000
0100
0010
,
0001
0010
0200
0000
,
0000
0000
1300
0100
,
0010
0000
0001
0100
,
0010
0000
1000
0001
,
0100
0000
0001
1000
,
0010
0000
1000
0100
,
0010
0000
0000
0000
0001
0001
1000
1000
,
0000
0000
1000
0001
,
0100
0000
0010
1000
,
0100
0000
0000
1000
0000
0000
0001
0000
0000
0010
0000
0000
0100
0000
0000
0000
,
1000
0000
0001
0000
1000
0000
0100
0010
,
0100
0000
1000
0000
0001
0000
0100
0010
,
0100
0001
0010
0100
,
1000
0001
0001
0000
,
1000
0000
0100
0000
0010
0100
1000
0000
,
0001
0000
0100
0000
0010
0100
0001
0000
,
1000
0000
0010
0000
0100
0001
0010
0100
,
1000
0000
0001
1000
,
0010
0000
0100
0000
0001
0010
0100
0000
,
1000
0000
0001
0000
0100
0010
1000
0000
,
0001
0000
1000
0000
0010
0100
0001
0000
,
1000
1000
1000
0000
,
0001
0000
0100
0000
0010
0100
0001
0000
,
0010
0000
0100
0000
1000
0100
1000
0000
,
0001
0000
0100
0000
0010
0100
0010
0100
,
0010
0000
0000
0000
1000
0000
0000
1000
0000
0000
1000
0000
0000
0000
0001
0000
,
0100
0000
0000
0000
0001
0000
0000
0001
0000
0000
0001
0000
0000
0000
1000
0000
,
0100
0000
0000
0000
1000
0000
0000
1000
0000
0000
1000
0000
0000
0000
0010
0000
,
0000
0100
0000
0001
0000
1000
0000
0100
,
0000
0000
0000
0000
0010
0000
0000
0010
0000
0000
0010
0000
0000
0000
0001
0000
,
0100
0000
0000
0000
0010
0000
0000
0010
0000
0000
0010
0000
0000
0000
1000
0000
,
0100
0000
0000
0000
0010
0000
0000
0010
0000
0000
0010
0000
0000
0000
0001
0000
,
0100
0001
0010
0000
0000
0000
0100
0000
,
1000
0000
0010
0010
0010
0000
1000
0000
,
0100
0000
0010
0010
0010
0000
0001
0000
,
0100
0000
0001
0001
0001
0000
1000
0000
,
0001
0000
0100
0100
0100
0000
0010
0000
,
1000
0000
0100
0001
0100
0000
1000
0000
,
0010
0000
0100
0001
0100
0000
0010
0000
,
1000
0000
0001
0100
0001
0000
1000
0100
,
1000
0002
2003
3200
,
0320
0031
0001
1000
,
1000
0000
0001
0010
0100
1000
0001
0010
,
0100
0001
0001
1000
,
1000
0002
2003
3002
,
2003
3001
0001
1000
,
1000
0000
0001
0100
0010
1000
0001
0100
,
0010
0001
0001
1000
,
1000
0110
1001
0110
,
1001
0000
0001
0010
0100
1000
0001
0010
,
0100
0000
1000
0100
0010
0001
1000
0100
,
0010
0000
0001
0100
0010
1000
0001
0100
,
0010
0000
1000
0010
0100
0001
1000
0010
,
0100
0000
0001
0010
0001
0010
0100
1000
,
0100
1000
0010
0100
0010
0100
0001
0100
,
0001
0100
0010
1000
0010
1000
0100
0001
,
0100
1000
0010
0000
0100
0000
0010
0000
,
0110
1001
0000
0000
;

//---------------dance-single - ----------------
#NOTES:
     dance-single:
     :
     Easy:
     6:
     0.262,0.309,0.026,0.199,0.000:
0000
0000
0000
0000
,
0000
0000
0000
0000
,
0000
0000
0000
0000
,
0000
0000
0000
0000
,
1000
0000
1000
0000
,
0100
0000
0100
0000
,
0010
0000
0010
0000
,
0001
0000
1000
1000
,
1000
0000
0100
0000
,
0010
0000
0001
0001
,
0001
0000
0010
0000
,
0100
0000
1000
1000
,
1000
0000
0100
0000
,
0010
0000
0001
0001
,
0001
0000
0020
0000
,
0000
0030
1000
0000
,
0100
0000
1000
0000
,
0100
0000
0010
0000
,
0001
0000
0010
0000
,
0001
0000
1000
1000
,
0010
0000
0001
0001
,
0010
0000
1000
1000
,
0100
0000
0020
0000
,
0000
0030
0001
0000
,
0000
0000
1000
0100
,
0001
0000
1000
0000
,
0000
0000
0001
0100
,
1000
0000
0002
0000
,
2000
3003
2000
0000
,
0002
3003
0020
0000
,
0200
0330
0100
0000
,
2002
0000
0000
3003
,
0010
0010
0010
0000
,
0100
0100
0100
0000
,
0001
0000
0010
0000
,
0100
0000
1000
0000
,
0001
0001
0001
0000
,
1000
1000
1000
0000
,
0010
0000
0100
0000
,
0001
0000
1000
0000
,
0001
0001
0001
0000
,
0010
0010
0010
0000
,
2000
0000
3002
0000
,
2003
0000
3002
0000
,
0103
0100
0100
0000
,
0010
0010
0010
0000
,
2000
0000
3200
0000
,
0310
0000
1000
0000
,
0100
0000
0010
0000
,
0001
0000
1000
1000
,
1000
0000
0100
0100
,
0100
0000
0010
0000
,
0001
0000
0100
0000
,
0010
0000
0100
0000
,
0001
0001
0000
1001
,
0000
1000
0001
0100
,
0000
0010
1000
0100
,
0000
1000
1000
1000
,
0000
0001
0001
0001
,
0000
0010
0001
0100
,
0000
1000
0100
0010
,
0000
0001
1000
0100
,
0100
0200
0000
0000
,
0300
0100
0100
0001
,
0000
0100
0100
1000
,
0000
0010
0010
1000
,
0000
0010
0010
0001
,
0000
1000
1000
0100
,
0000
0001
0001
0100
,
0000
1000
1000
0010
,
0000
0001
0001
0010
,
0000
2000
0100
3100
,
0000
0002
0100
0103
,
0000
2000
0010
3010
,
0000
0002
0010
0013
,
0000
1000
0000
0100
,
0000
0010
0000
0001
,
0000
1000
0100
0010
,
0002
2000
0000
0000
,
3003
1001
0000
0000
;

//---------------dance-single - ----------------
#NOTES:
     dance-single:
     :
     Beginner:
     3:
     0.182,0.240,0.000,0.035,0.000:
0000
0000
0000
0000
,
0000
0000
0000
0000
,
0000
0000
0000
0000
,
0000
0000
0000
0000
,
1000
0000
0000
0000
,
0001
0000
0000
0000
,
1000
0000
0000
0000
,
0001
0000
0000
0000
,
1000
0000
0100
0000
,
0010
0000
0000
0000
,
0000
0000
0001
0000
,
0100
0000
0010
0000
,
0000
0000
1000
1000
,
1000
0000
0000
0000
,
0000
0000
0002
0000
,
0000
0003
0001
0000
,
1000
0000
0001
0000
,
0000
0000
1000
0000
,
0001
0000
1000
0000
,
0000
0000
0001
0000
,
1000
0000
0001
0000
,
0000
0000
1000
0000
,
0001
0000
2000
0000
,
0000
3000
0001
0000
,
0000
0000
1000
0000
,
0000
0000
0100
0000
,
0000
0000
0010
0000
,
0000
0000
0001
0000
,
0000
0000
1000
0000
,
0000
0000
0010
0000
,
0000
0000
0100
0000
,
0000
0000
0000
0000
,
0010
0000
0100
0000
,
0010
0000
1000
0000
,
0001
0000
0010
0000
,
0100
0000
0000
0000
,
1000
0000
0100
0000
,
0010
0000
0001
0000
,
1000
0000
0010
0000
,
0100
0000
0000
0000
,
0001
0000
0010
0000
,
0100
0000
1000
0000
,
0001
0000
0100
0000
,
0010
0000
0000
0000
,
0100
0000
0010
0000
,
1000
0000
0001
0000
,
0010
0000
0100
0000
,
1000
0000
0000
0001
,
0000
1000
1000
1000
,
0000
0001
0001
0001
,
0000
1000
0000
1000
,
0000
0001
0001
0001
,
0000
1000
1000
1000
,
0000
0001
0001
0001
,
0000
1000
0000
0001
,
0000
1000
1000
1000
,
0000
0001
0001
0001
,
0000
1000
1000
1000
,
0000
0001
0000
0001
,
0000
1000
1000
1000
,
0000
0001
0001
0001
,
0000
1000
1000
1000
,
0000
0002
0000
0000
,
0003
1000
0000
0100
,
0000
0010
0000
0001
,
0000
1000
0000
0100
,
0000
0010
0000
0001
,
0000
1000
0000
0010
,
0000
0100
0000
0001
,
0000
1000
0000
0010
,
0000
0100
0000
0001
,
0000
1000
1000
1000
,
0000
0001
0001
0001
,
0000
1000
1000
1000
,
0000
0001
0001
0001
,
0000
0100
0100
0100
,
0000
0010
0010
0010
,
0000
0100
0100
0100
,
0100
0200
0000
0000
,
0300
0100
0000
0000
;
