#TITLE:You're Already Gone;
#SUBTITLE:;
#ARTIST:Audition;
#TITLETRANSLIT:;
#SUBTITLETRANSLIT:;
#ARTISTTRANSLIT:;
#GENRE:;
#CREDIT:;
#MENUCOLOR:;
#METERTYPE:DDR;
#BANNER:You're Already Gone.png;
#BACKGROUND:You're Already Gone-bg.png;
#LYRICSPATH:;
#CDTITLE:;
#MUSIC:You're Already Gone.mp3;
#OFFSET:-0.032;
#SAMPLESTART:40.040;
#SAMPLELENGTH:12.000;
#SELECTABLE:YES;
#LISTSORT:;
#BPMS:0.000=150.000;
#STOPS:;
#BGCHANGES:;
#ATTACKS:;

//---------------dance-single - ----------------
#NOTES:
     dance-single:
     :
     Hard:
     11:
     0.454,0.512,0.000,0.185,0.000:
0000
0000
0000
0000
,
0000
0000
0000
0000
,
0000
0000
0000
0000
,
0000
0000
0000
0000
,
0000
0000
0000
0000
,
0000
0000
0000
0000
,
0002
0000
0000
0000
,
2000
0000
0003
0000
,
0020
0000
3000
0000
,
0200
0000
0030
0000
,
0301
1000
0000
1000
,
0000
0001
0000
0001
,
0010
0100
0000
0100
,
0000
0000
0010
0000
0000
0000
0010
0100
,
0100
1000
0000
1000
,
0000
0000
0001
0000
0000
0000
0001
0100
,
0100
0000
0010
0000
0000
0000
1000
0001
,
0001
0000
0001
0000
0010
0100
1000
0100
,
0010
0001
0010
0001
,
1000
0000
0010
0000
0100
0001
0010
0001
,
0100
0010
1000
0100
,
0010
0000
0100
0000
1000
0100
0001
0100
,
1000
0010
0100
0001
,
0010
0000
0001
0000
0100
0010
1000
0010
,
0100
0100
0001
0001
,
1000
0000
1000
0000
0001
0010
0100
1000
,
0001
0100
0010
1000
0001
0100
0010
0000
,
1000
0100
0010
0001
1000
0100
0010
0000
,
0001
0010
0100
0010
0001
1000
0100
0000
,
0010
0100
1000
0100
0001
0100
1000
0000
,
0001
0100
0010
0100
1000
0100
0001
0000
,
0010
0100
0001
0100
1000
0010
0100
0000
,
0001
0001
1000
0000
0010
0010
1000
0000
,
0010
1000
0100
1000
0010
0100
0100
0100
,
0001
0010
0100
1000
0001
0100
0010
1000
,
0100
0010
0100
1000
0001
0100
0010
0000
,
1000
0100
0010
0001
0100
0010
0100
0001
,
1000
0100
0010
0100
1000
0010
0100
0000
,
0010
0100
0001
1000
0100
0010
0001
0010
,
0100
1000
0010
0100
0001
0100
0010
0000
,
1000
0100
0001
0000
1000
0100
0001
0000
,
0001
0100
1000
0000
0001
0100
1000
0000
,
0100
0100
0001
0001
0010
0010
0100
0100
,
1000
1000
0001
0001
0010
0100
1000
0000
,
0001
0001
0100
0100
0001
0001
0010
0010
,
0100
0100
1000
1000
0001
0100
0010
0000
,
1000
1000
0001
0001
0100
0100
0001
0001
,
0010
0010
0100
0100
1000
0100
0010
0000
,
0002
0100
2003
0010
,
3002
0023
0230
2300
,
3001
0100
0001
0100
0010
1000
0010
1000
,
0100
0010
0001
0010
0200
1000
1300
0000
,
0001
0100
0010
0100
0001
0010
0100
0010
,
0100
1000
0001
0100
0020
0100
0130
0000
,
1000
0100
0010
0001
1000
0010
0100
0001
,
1000
0100
0001
0100
2000
0010
3010
0000
,
0100
0001
0010
0000
0100
1000
0010
0000
,
0002
0023
2030
3200
,
0301
0100
1000
0010
1000
0100
0001
0100
,
2000
0000
3002
0000
,
0103
0001
0000
0010
,
0000
1000
0000
0100
;

//---------------dance-single - ----------------
#NOTES:
     dance-single:
     :
     Medium:
     7:
     0.321,0.381,0.039,0.390,0.000:
0000
0000
0000
0000
,
0000
0000
0000
0000
,
0000
0000
0000
0000
,
0000
0000
0000
0000
,
0000
0000
0000
0000
,
0000
0000
0000
0000
,
0002
0000
0000
0000
,
2003
0000
0000
0000
,
3200
0000
0000
0000
,
0320
0000
0000
0000
,
0031
0010
0000
0010
,
0000
0010
0000
0010
,
0100
1000
0000
1000
,
0000
1000
0000
1000
,
0001
0100
0000
0100
,
0000
0100
0000
0100
,
0110
0000
1001
0000
,
0001
0010
1000
0100
,
0001
0100
1000
0100
,
0010
0000
0001
0000
0100
0010
1000
0010
,
0100
0001
0010
0100
,
1000
0000
0100
0000
0010
0001
1000
0001
,
0010
0100
1000
0001
,
0100
0010
1000
0001
,
1000
1000
0001
0001
,
0200
0000
0020
0330
,
1000
0100
0010
0001
,
1000
0000
0010
0000
0100
0001
1000
0100
,
0010
0001
0100
0001
,
0010
0000
0100
0000
1000
0010
0100
0001
,
0010
0100
1000
0100
,
0001
0000
0100
0000
1000
0010
0100
0001
,
0010
0100
1000
0001
,
0100
0010
0100
0001
,
1001
1000
0100
0010
,
0001
0000
1000
0000
0010
0100
0001
0010
,
0100
1000
0010
0100
,
0001
0000
1000
0000
0100
1000
0010
0100
,
0001
1000
0100
0010
,
0001
0000
1000
0000
0010
0100
0001
1000
,
0100
0010
0001
1000
,
0100
0010
0100
0010
,
0002
0000
0023
0000
,
0230
0000
2300
0000
,
3002
0000
0203
0000
,
0320
0000
2030
0000
,
3002
0000
2003
0000
,
3200
0000
0320
0000
,
0032
0100
2003
0010
,
3002
0103
2000
3010
,
0002
1003
0200
0301
,
0020
0100
2000
3030
,
0002
0013
0200
1300
,
0002
1000
0200
0303
,
0020
1030
0200
0301
,
0020
1000
0200
0330
,
2002
0000
0000
3003
,
0010
0010
0010
0010
,
2000
0000
3200
0000
,
0320
0000
0032
0000
,
1003
0000
0000
0000
;

//---------------dance-single - ----------------
#NOTES:
     dance-single:
     :
     Easy:
     4:
     0.173,0.208,0.049,0.068,0.000:
0000
0000
0000
0000
,
0000
0000
0000
0000
,
0000
0000
0000
0000
,
0000
0000
0000
0000
,
0000
0000
0000
0000
,
0000
0000
0000
0000
,
0001
0000
0000
0000
,
0010
0000
0000
0000
,
1000
0000
0000
0000
,
0100
0000
0000
0000
,
1001
0000
0000
0000
,
0100
0000
0000
0000
,
0110
0000
0000
0000
,
0001
0000
0000
0000
,
0011
0000
0000
0000
,
1000
0000
0000
0000
,
1100
0000
0000
0000
,
0001
0001
1000
1000
,
0002
0000
0000
0000
,
1003
0000
1000
1000
,
2000
0000
0000
0000
,
3001
0000
0001
0001
,
0002
0000
0000
0000
,
1003
0000
0010
0010
,
0010
0000
0100
0000
,
0001
0010
0100
1000
,
0001
0000
0001
0000
,
0001
0010
0100
1000
,
0001
0000
0001
0000
,
0001
0010
0100
1000
,
0001
0000
0001
0000
,
1000
0100
0010
0001
,
1000
0000
1000
0000
,
1000
0100
0010
0001
,
1000
0000
1000
0000
,
0001
0010
0100
1000
,
0001
0000
0001
0000
,
1000
0100
0010
0001
,
1000
0000
1000
0000
,
0010
1000
0100
0010
,
0001
0000
0001
0000
,
0100
0001
0010
0100
,
1000
0000
0100
0000
,
0010
0000
0001
0000
,
1000
0000
0010
0000
,
0100
0000
0001
0000
,
0010
0000
1000
0000
,
0100
0000
0001
0000
,
0020
0000
0000
0000
,
0030
0000
0000
0000
,
0001
0000
0100
0000
,
1000
0000
0010
0000
,
1000
0000
0100
0000
,
0001
0000
0010
0000
,
0001
0000
0100
0000
,
1000
0000
0100
0000
,
0020
0000
0000
0000
,
0030
0000
0000
0000
,
1000
0000
0100
0000
,
0010
0000
0001
0000
,
2002
0000
0000
0000
,
3003
0000
0000
0000
;

//---------------dance-single - ----------------
#NOTES:
     dance-single:
     :
     Beginner:
     1:
     0.092,0.176,0.049,0.078,0.000: // measure 1
0000
0000
0000
0000
,  // measure 2
0000
0000
0000
0000
,  // measure 3
0000
0000
0000
0000
,  // measure 4
0000
0000
0000
0000
,  // measure 5
0000
0000
0000
0000
,  // measure 6
0000
0000
0000
0000
,  // measure 7
0000
0000
0000
0000
,  // measure 8
0000
0000
0000
0000
,  // measure 9
0000
0000
0000
0000
,  // measure 10
0000
0000
0000
0000
,  // measure 11
1001
0000
0000
0000
,  // measure 12
0000
0000
0000
0000
,  // measure 13
1001
0000
0000
0000
,  // measure 14
0000
0000
0000
0000
,  // measure 15
1001
0000
0000
0000
,  // measure 16
0000
0000
0000
0000
,  // measure 17
1001
0000
0000
0000
,  // measure 18
1000
1000
1000
0000
,  // measure 19
0002
0000
0003
0000
,  // measure 20
0000
0000
1000
1000
,  // measure 21
2000
0000
3000
0000
,  // measure 22
0000
0000
0001
0001
,  // measure 23
0002
0000
0003
0000
,  // measure 24
0000
0000
0100
0100
,  // measure 25
0100
0000
0100
0000
,  // measure 26
0200
0000
0300
0000
,  // measure 27
0001
0000
0000
0000
,  // measure 28
1000
0000
0000
0000
,  // measure 29
0001
0000
0000
0000
,  // measure 30
1000
0000
0000
0000
,  // measure 31
0010
0000
0000
0000
,  // measure 32
0100
0000
0000
0000
,  // measure 33
0010
0000
0000
0000
,  // measure 34
2000
0000
3000
0000
,  // measure 35
1000
0000
0000
0000
,  // measure 36
0001
0000
0000
0000
,  // measure 37
1000
0000
0000
0000
,  // measure 38
0001
0000
0000
0000
,  // measure 39
0010
0000
0000
0000
,  // measure 40
0100
0000
0000
0000
,  // measure 41
0020
0000
0000
0000
,  // measure 42
0030
0000
0000
0000
,  // measure 43
0100
0000
0000
0000
,  // measure 44
0100
0000
0000
0000
,  // measure 45
0100
0000
0000
0000
,  // measure 46
0100
0000
0100
0000
,  // measure 47
0100
0000
0000
0000
,  // measure 48
0100
0000
0000
0000
,  // measure 49
0200
0000
0000
0000
,  // measure 50
0300
0000
0000
0000
,  // measure 51
0010
0000
0000
0000
,  // measure 52
0010
0000
0000
0000
,  // measure 53
0010
0000
0000
0000
,  // measure 54
0010
0000
0010
0000
,  // measure 55
0010
0000
0000
0000
,  // measure 56
0010
0000
0000
0000
,  // measure 57
0020
0000
0000
0000
,  // measure 58
0030
0000
0000
0000
,  // measure 59
1000
0000
0000
0000
,  // measure 60
0001
0000
0000
0000
,  // measure 61
1001
0000
0000
0000
;
