#TITLE:Will Be Good To You;
#SUBTITLE:;
#ARTIST:Audition;
#TITLETRANSLIT:;
#SUBTITLETRANSLIT:;
#ARTISTTRANSLIT:;
#CREDIT:;
#BANNER:Will Be Good To You.png;
#BACKGROUND:Will Be Good To You-bg.png;
#LYRICSPATH:;
#CDTITLE:cdtitle.png;
#MUSIC:Will Be Good To You.mp3;
#OFFSET:-0.044;
#SAMPLESTART:67.757;
#SAMPLELENGTH:13.800;
#SELECTABLE:YES;
#DISPLAYBPM:140.000;
#BPMS:0.000=140.000,128.000=70.000,136.000=140.000;
#STOPS:;
#BGCHANGES:;

//---------------dance-single - ----------------
#NOTES:
     dance-single:
     :
     Hard:
     11:
     0.462,0.442,0.171,0.050,0.020:
0000
0000
0000
0000
,
0000
0000
0000
0000
,
0000
0000
0000
0000
,
0000
0000
0000
0000
,
0000
0001
0000
1010
0000
0100
0000
0011
,
0000
1000
0100
0020
0000
0001
0031
0000
,
0000
0010
0000
1100
0000
0100
0000
0011
,
0000
0010
0100
2000
0000
0001
3001
0000
,
0010
0100
1000
0001
0000
1000
0000
0010
,
1000
0010
0001
0010
0000
0100
0000
0000
,
0001
0010
0001
1000
0000
0001
0000
1000
,
0100
0001
0100
1000
0000
0001
0001
0000
,
1000
0010
0100
0001
0000
1000
0000
0010
,
0100
1000
0100
0010
0000
0100
0000
0000
,
0010
0100
0001
0100
0000
0010
0000
1000
,
0100
0010
0001
0010
0000
0100
0100
0100
,
0110
0010
0001
0010
0000
1000
0010
0001
,
0100
0010
1000
0001
0000
1000
0010
0100
,
0010
1000
0100
0001
0000
0100
1000
0010
,
0100
0001
0100
0010
0000
0100
0010
1000
,
0001
0100
0010
0001
0000
0010
1000
0100
,
0010
0100
1000
0001
0000
1000
0010
1000
,
0010
0100
0001
0010
0000
0100
1000
0001
,
1000
0100
0010
0001
0000
1000
1000
0000
,
0001
0010
0001
0010
0100
1000
0100
1000
,
0001
0100
0001
0000
1000
0100
1000
0000
,
0010
1000
0100
0010
0100
1000
0010
0000
,
0100
0001
0100
0000
0010
0000
0110
0000
,
0001
0100
0010
0000
1000
0100
0010
0000
,
0001
0110
1000
0110
,
0001
0010
1000
0000
0001
0100
1000
0000
,
0010
1000
0010
1000
0001
0100
0001
0000
,
1000
0001
0000
1000
0001
1000
0000
0001
,
2000
0010
0000
3010
0002
0010
0000
0013
,
0100
0000
0100
1000
0000
1000
0001
0000
,
0100
0001
0100
0001
0000
0001
0010
0100
,
0000
0100
1000
0100
0010
0001
0100
0010
,
0000
0010
0010
0000
1001
0000
0110
0000
,
0001
0010
0100
1000
0000
0001
1000
0001
,
0010
0000
0000
0010
0000
0000
0010
0000
0000
0000
0110
0000
0000
0000
0000
0000
,
1000
0001
1000
0001
0000
0010
0100
1000
,
0001
0000
0000
1000
0000
0000
0010
0000
0000
0000
0000
0000
0001
0000
0010
0000
,
0100
0010
0001
0100
0000
0000
0010
1000
,
0001
0100
0001
0010
0000
0100
0000
0000
,
1000
0100
1000
0001
0000
0100
0001
0100
,
0000
0010
0010
0000
1001
0000
0110
0000
,
0001
0010
0100
1000
0000
0001
0100
0001
,
1000
0000
0000
0010
0000
0000
0100
0000
0000
0000
0110
0000
0000
0000
0000
0000
,
0001
1000
0001
0010
0000
0100
1000
0100
,
0001
0000
0000
0100
0000
0000
1000
0000
0000
0000
0000
0000
1000
0000
0010
0000
,
0001
0010
1000
0100
0000
0000
0010
0001
,
0010
0100
1000
0001
0000
0101
0000
0000
,
1000
0001
0010
0001
0000
1000
0010
0100
,
1002
0000
0000
1003
,
0001
0010
0100
1000
0000
0001
0100
0010
,
1001
0000
0000
0000
;

//---------------dance-single - ----------------
#NOTES:
     dance-single:
     :
     Medium:
     7:
     0.300,0.359,0.000,0.090,0.000: // measure 1
0000
0000
0000
0000
,  // measure 2
0000
0000
0000
0000
,  // measure 3
0000
0000
0000
0000
,  // measure 4
0000
0000
0000
0000
,  // measure 5
0000
0001
0000
0001
0000
0001
0000
0001
,  // measure 6
0000
0001
0000
0000
0000
0000
0000
0000
,  // measure 7
0000
1000
0000
1000
0000
1000
0000
1000
,  // measure 8
0000
1000
0000
0000
0000
0000
0000
0000
,  // measure 9
0010
0000
0000
0010
0000
0010
0000
0010
,  // measure 10
1000
0000
0000
1000
0000
1000
0000
1000
,  // measure 11
0001
0000
0000
0001
0000
0001
0000
0001
,  // measure 12
0100
0000
0000
0100
0000
0000
0100
0000
,  // measure 13
0010
0000
0000
0010
0000
0010
0000
0010
,  // measure 14
1000
0000
0000
1000
0000
1000
0000
1000
,  // measure 15
0001
0000
0000
0001
0000
0001
0000
0001
,  // measure 16
0010
0000
0000
0010
0000
0000
0010
0000
,  // measure 17
0001
0000
0000
0001
0000
0000
0001
0000
,  // measure 18
1000
0000
0000
1000
0000
0000
1000
0000
,  // measure 19
0010
0000
0000
0010
0000
0000
0010
0000
,  // measure 20
0200
0000
0000
0310
,  // measure 21
1000
0000
0000
1000
0000
0000
1000
0000
,  // measure 22
0001
0000
0000
0001
0000
0000
0001
0000
,  // measure 23
0010
0000
0000
0010
0000
0000
0010
0000
,  // measure 24
0100
0000
0000
0100
0000
0000
0100
0000
,  // measure 25
1000
0001
1000
0001
,  // measure 26
0100
0010
0100
0010
,  // measure 27
0100
0000
0001
0000
0100
0001
0100
0000
,  // measure 28
0010
1000
0010
0000
0200
0000
0310
0000
,  // measure 29
0001
1000
0001
1000
,  // measure 30
0010
1000
0010
0000
0100
0001
0100
0000
,  // measure 31
0010
1000
0001
0100
,  // measure 32
0001
0000
0010
0001
0100
0010
1000
0000
,  // measure 33
0002
0000
1000
0003
2000
0000
0010
3000
,  // measure 34
0020
0000
0100
0030
0200
0000
0010
0300
,  // measure 35
0010
1000
0010
0010
,  // measure 36
0100
0010
0100
0000
0001
0000
0001
0000
,  // measure 37
1000
0100
0010
0001
0010
0001
0010
0100
,  // measure 38
0000
0000
2000
3000
,  // measure 39
0001
0010
0001
0000
1000
0000
1000
0000
,  // measure 40
0001
0010
0010
0100
,  // measure 41
1000
0010
1000
0000
0001
0000
0001
0000
,  // measure 42
1000
0010
0010
1000
,  // measure 43
0001
0010
0100
1000
0000
0000
0000
0000
,  // measure 44
1000
0100
0010
0001
0000
0000
0000
0000
,  // measure 45
1000
0010
0100
0001
0000
0000
0000
0000
,  // measure 46
0001
1000
0002
0003
,  // measure 47
1000
0010
0100
0100
,  // measure 48
0001
0010
0001
0000
1000
0000
1000
0000
,  // measure 49
0001
0010
0100
0100
,  // measure 50
1000
0100
1000
0000
0001
0000
0001
0000
,  // measure 51
1000
0100
0010
0001
0000
0000
0000
0000
,  // measure 52
0001
0010
0100
1000
0000
0000
0000
0000
,  // measure 53
1000
0010
0100
0001
0000
0000
1000
0000
,  // measure 54
0002
0000
0000
1003
,  // measure 55
0001
0010
0001
0010
0000
0100
1000
0100
;

//---------------dance-single - ----------------
#NOTES:
     dance-single:
     :
     Beginner:
     1:
     0.088,0.166,0.000,0.030,0.000: // measure 1
0000
0000
0000
0000
,  // measure 2
0000
0000
0000
0000
,  // measure 3
0000
0000
0000
0000
,  // measure 4
0000
0000
0000
0000
,  // measure 5
0001
0000
0000
0000
,  // measure 6
0000
0000
0000
0000
,  // measure 7
1000
0000
0000
0000
,  // measure 8
0000
0000
0000
0010
,  // measure 9
0010
0000
0000
0000
,  // measure 10
0010
0000
0000
0000
,  // measure 11
0100
0000
0000
0000
,  // measure 12
0100
0000
0000
0000
,  // measure 13
1000
0000
0000
0000
,  // measure 14
1000
0000
0000
0000
,  // measure 15
1000
0000
0000
0000
,  // measure 16
0001
0000
0000
0010
,  // measure 17
0010
0000
0000
0000
,  // measure 18
0000
0000
0000
0100
,  // measure 19
0100
0000
0000
0000
,  // measure 20
0000
0000
0000
1000
,  // measure 21
1000
0000
0000
0000
,  // measure 22
0000
0000
0000
0001
,  // measure 23
0001
0000
0000
0000
,  // measure 24
0000
0000
0000
0000
,  // measure 25
0010
0000
0000
0000
,  // measure 26
0010
0000
0000
0000
,  // measure 27
0010
0000
0000
0000
,  // measure 28
0100
0000
0000
0000
,  // measure 29
0100
0000
0000
0000
,  // measure 30
0100
0000
0000
0000
,  // measure 31
1000
0000
0000
0000
,  // measure 32
0001
0000
0000
0000
,  // measure 33
2000
0000
3000
0000
,  // measure 34
0002
0000
0003
0000
,  // measure 35
1000
0000
0000
0000
,  // measure 36
0001
0000
0000
0000
,  // measure 37
1000
1000
1000
1000
,  // measure 38
1000
0000
0000
0000
,  // measure 39
0010
0000
0000
0000
,  // measure 40
0010
0000
0000
0000
,  // measure 41
0100
0000
0000
0000
,  // measure 42
0100
0000
0000
0000
,  // measure 43
0001
0000
0000
0000
,  // measure 44
0001
0000
0000
0000
,  // measure 45
1000
0000
0000
0000
,  // measure 46
1000
0000
1000
0000
,  // measure 47
1000
0000
0000
0000
,  // measure 48
0001
0000
0000
0000
,  // measure 49
0010
0000
0000
0000
,  // measure 50
0010
0000
0000
0000
,  // measure 51
0100
0000
0000
0000
,  // measure 52
1000
0000
1000
0000
,  // measure 53
2000
0000
0000
0000
,  // measure 54
3001
0000
0000
1000
,  // measure 55
1000
0000
0000
0001
,  // measure 56
0001
0000
0000
0000
;

//---------------dance-single - ----------------
#NOTES:
     dance-single:
     :
     Easy:
     4:
     0.185,0.248,0.010,0.090,0.000: // measure 1
0000
0000
0000
0000
,  // measure 2
0000
0000
0000
0000
,  // measure 3
0000
0000
0000
0000
,  // measure 4
0000
0000
0000
0000
,  // measure 5
0001
0001
0000
1000
,  // measure 6
0001
1000
0000
0000
,  // measure 7
1000
1000
0000
0001
,  // measure 8
1000
0001
0000
1000
,  // measure 9
1000
0000
0001
0000
,  // measure 10
1000
0000
0010
0000
,  // measure 11
0100
0000
0001
0000
,  // measure 12
0010
0000
0100
0000
,  // measure 13
1000
0000
0001
0000
,  // measure 14
1000
0000
0010
0000
,  // measure 15
0100
0000
0001
0000
,  // measure 16
0010
0000
1000
0000
,  // measure 17
0010
0000
0001
0000
,  // measure 18
0100
0100
0100
0000
,  // measure 19
0010
0000
1000
0000
,  // measure 20
0100
0100
0100
0000
,  // measure 21
0010
0000
0001
0000
,  // measure 22
1000
1000
1000
0000
,  // measure 23
0001
0000
1000
0000
,  // measure 24
0010
0000
0100
0000
,  // measure 25
0001
0000
0001
0000
,  // measure 26
0001
0000
0001
0000
,  // measure 27
0001
0000
0001
0000
,  // measure 28
0001
0001
0001
0000
,  // measure 29
1000
0000
1000
0000
,  // measure 30
1000
0000
1000
0000
,  // measure 31
1000
0000
1000
0000
,  // measure 32
1000
0000
1000
1000
,  // measure 33
2000
0000
3010
0000
,  // measure 34
0002
0000
0103
0000
,  // measure 35
1000
0000
1000
0000
,  // measure 36
0001
0000
0001
0000
,  // measure 37
0010
0000
0010
0000
,  // measure 38
0100
1000
0001
0010
,  // measure 39
0200
0000
0300
0000
,  // measure 40
0020
0000
0030
0000
,  // measure 41
0002
0000
0003
0000
,  // measure 42
2000
0000
3000
0000
,  // measure 43
0001
1000
0001
0000
,  // measure 44
1000
0001
1000
0000
,  // measure 45
0001
0010
0100
1000
,  // measure 46
0002
0000
0003
0000
,  // measure 47
1000
0001
1000
0000
,  // measure 48
0001
1000
0001
0000
,  // measure 49
1000
0010
1000
0000
,  // measure 50
0001
0100
0001
0000
,  // measure 51
1000
0000
1000
0000
,  // measure 52
0100
0000
0010
0000
,  // measure 53
0001
0000
1000
0001
,  // measure 54
2002
0000
3003
0001
,  // measure 55
1000
0000
0001
0000
1000
0000
0001
1000
;
