#TITLE:WE ARE;
#SUBTITLE:;
#ARTIST:TЁЯRA;
#TITLETRANSLIT:;
#SUBTITLETRANSLIT:;
#ARTISTTRANSLIT:;
#CREDIT:;
#BANNER:WE ARE.png;
#BACKGROUND:WE ARE-bg.png;
#LYRICSPATH:;
#CDTITLE:cdtitle.png;
#MUSIC:WE ARE.mp3;
#OFFSET:-0.059;
#SAMPLESTART:58.092;
#SAMPLELENGTH:13.680;
#SELECTABLE:YES;
#BPMS:0.000=140.000;
#STOPS:;
#BGCHANGES:;

//---------------dance-single - ----------------
#NOTES:
     dance-single:
     :
     Hard:
     9:
     0.438,0.440,0.168,0.159,0.065: // measure 1
0000
0000
0000
0000
,  // measure 2
0000
0000
0000
0000
,  // measure 3
0000
0000
0000
0000
,  // measure 4
0000
0000
0000
0000
,  // measure 5
0000
0000
0000
0002
,  // measure 6
1003
0000
0000
0010
0000
0000
0100
0000
0001
0000
0000
0000
1001
0000
0000
0000
,  // measure 7
0001
0000
0000
0010
0000
0000
0100
0000
1000
0000
0000
0000
1001
0000
0000
0000
,  // measure 8
0010
0000
0100
0001
1000
0000
0010
0000
,  // measure 9
0200
0000
0301
0000
1000
0100
0010
0001
,  // measure 10
1000
0010
0100
0010
0000
1000
0100
1000
,  // measure 11
0000
0001
0010
0001
0000
0100
0001
0010
,  // measure 12
0000
0100
1000
0010
0000
0100
0001
0100
,  // measure 13
0000
0010
1000
0010
0000
0100
0001
0010
,  // measure 14
0100
1000
0100
0010
0000
1000
0100
0010
,  // measure 15
0000
1000
0100
0001
0000
1000
0100
0001
,  // measure 16
0000
1000
0010
0100
0000
0001
0010
0100
,  // measure 17
1000
0000
0101
0000
0001
1000
0110
0000
,  // measure 18
0001
0000
0001
0000
1000
0100
0010
0000
,  // measure 19
0001
0100
1000
0100
0001
0000
1000
0000
,  // measure 20
0010
0000
0010
0000
1000
0001
0100
0000
,  // measure 21
0010
1000
0001
1000
0100
0000
0110
0000
,  // measure 22
0001
0000
1000
0000
0010
1000
0100
0000
,  // measure 23
0010
0001
0100
0000
0010
1000
1000
0000
,  // measure 24
0001
0000
0010
0000
0100
1000
0001
0000
,  // measure 25
0100
0010
1000
0001
0100
0010
0010
0000
,  // measure 26
0200
0001
0010
0301
,  // measure 27
2000
0001
0100
3001
,  // measure 28
0020
0100
0001
0130
,  // measure 29
0002
0000
1000
0000
0100
0100
0103
0000
,  // measure 30
0010
0010
1000
0100
0010
0010
0001
0000
,  // measure 31
1000
1000
0100
0010
0001
0001
0100
0000
,  // measure 32
0110
0000
1001
0000
0001
0100
0010
0000
,  // measure 33
1000
0000
0101
0000
0100
0001
1000
0000
,  // measure 34
0010
1000
0000
0010
1000
0000
0001
0100
0000
0001
0100
0000
0000
0000
0001
0000
,  // measure 35
0001
0000
0010
0100
1000
0100
0010
0000
,  // measure 36
0001
0100
0001
0100
0010
0100
1000
0000
,  // measure 37
0100
0001
0010
0000
0100
1000
0010
0000
,  // measure 38
1000
0100
0001
0100
0010
0010
0002
0000
,  // measure 39
1003
0010
0100
0010
1000
0100
0010
0000
,  // measure 40
0001
0000
0100
0000
0010
0001
0100
0000
,  // measure 41
0010
0000
0000
0010
0000
0000
0010
0000
1000
0000
0000
1000
0000
0000
1000
0000
,  // measure 42
0010
0010
0100
0001
0010
0000
0000
0000
,  // measure 43
0100
0000
1001
0000
1000
0100
0010
0000
,  // measure 44
0001
0000
0110
0000
0001
0010
0100
0000
,  // measure 45
2000
3001
0002
1003
,  // measure 46
0010
1000
0100
1000
0010
0100
0001
0100
,  // measure 47
0020
0000
1000
0000
0130
0001
0010
0000
,  // measure 48
0200
0000
1000
0000
0310
0001
1000
0000
,  // measure 49
0020
1000
0001
1030
,  // measure 50
0200
0000
0001
0000
1300
0100
0002
0000
,  // measure 51
0103
0000
0000
1000
0000
0000
0010
0000
0100
0000
0000
0000
1001
0000
0000
0000
,  // measure 52
0001
0000
0000
0100
0000
0000
0010
0000
1000
0000
0000
0000
0101
0000
0000
0000
,  // measure 53
0010
0000
0000
1000
0000
0000
0001
0000
0100
0000
0000
0000
0001
0000
0000
0000
,  // measure 54
1001
0001
0100
0010
0100
0001
2000
0000
,  // measure 55
3100
0000
0000
0100
0000
0000
0100
0000
0110
0000
0000
0000
1001
0000
0000
0000
,  // measure 56
0010
0000
0000
0010
0000
0000
0010
0000
0110
0000
0000
0000
1001
0000
0000
0000
,  // measure 57
1000
0000
0000
0100
0000
0000
0010
0000
0001
0000
0000
0000
1000
0000
0000
0000
,  // measure 58
2002
0000
0000
0000
,  // measure 59
0000
0000
0000
0000
,  // measure 60
3003
0000
0000
0000
;

//---------------dance-single - ----------------
#NOTES:
     dance-single:
     :
     Medium:
     7:
     0.288,0.358,0.075,0.298,0.014:
0000
0000
0000
0000
,
0000
0000
0000
0000
,
0000
0000
0000
0000
,
0000
0000
0000
0000
,
0000
0000
0000
0000
,
1000
0001
0010
0010
,
0001
1000
0200
0300
,
0001
0010
0100
0100
,
2002
0000
0000
3003
,
0010
0010
1000
0100
,
0010
0010
0001
0100
,
0010
1000
0001
1000
,
0010
0000
0100
0000
0001
1000
0001
0000
,
1000
0100
0010
0100
,
1000
0001
0010
0100
,
0010
0010
0100
1000
,
0001
0000
0100
0001
1000
0000
1001
0000
,
0020
0000
2030
0000
,
3200
0000
0320
0000
,
0032
0000
2003
0000
,
3001
0000
0010
0100
1000
0000
1001
0000
,
0020
0000
0230
0000
,
0302
0000
2003
0000
,
3200
0000
0320
0000
,
0031
0000
0000
0001
0000
0000
0001
0000
0000
0000
0000
0000
1001
0000
0000
0000
,
0020
0000
1030
1000
,
0200
0000
0310
0010
,
0002
0000
2003
0000
,
3001
1000
1001
0110
,
1001
0010
1000
0001
,
0100
0100
0010
1000
,
0100
0000
1000
0000
,
0001
0000
0001
0000
,
1000
0000
0000
1000
0000
0000
1000
0000
0000
1000
0000
0000
1000
0000
0000
0000
,
0010
0010
0100
0100
,
0001
0000
1000
0000
,
0100
0100
0010
0010
,
0001
0000
1000
0100
,
0020
0000
0031
0010
,
0200
0000
1300
0010
,
0200
0000
0301
0100
,
0020
0000
1030
0000
,
0001
0001
1000
0010
,
0100
0100
0001
1000
,
0100
0010
0001
0010
,
0200
2300
3002
0023
,
0031
0100
0010
1000
,
0001
0010
0100
1000
,
0100
0001
0100
1000
,
0010
0100
0001
2000
,
3001
0000
0000
0001
0000
0000
0001
0000
,
1000
0000
0000
1000
0000
0000
1000
0000
,
0010
0000
0000
0010
0000
0000
0010
0000
,
0200
0000
0000
0320
,
1030
0100
0010
0001
,
1000
0010
0100
0001
,
1000
0001
0010
0100
,
2002
0000
0000
0000
,
0000
0000
0000
0000
,
3003
0000
0000
0000
;

//---------------dance-single - ----------------
#NOTES:
     dance-single:
     :
     Easy:
     4:
     0.187,0.213,0.009,0.037,0.000:
0000
0000
0000
0000
,
0000
0000
0000
0000
,
0000
0000
0000
0000
,
0000
0000
0000
0000
,
0000
0000
0000
0000
,
0001
0000
0001
0000
,
0100
0000
0010
0000
,
1000
0000
0100
0000
,
0010
0001
0001
0000
,
0010
0100
1000
0000
,
0001
0010
0100
0000
,
1000
0100
0010
0000
,
0100
0010
0001
0000
,
1000
0000
0010
0000
,
0100
0000
0001
0000
,
1000
0000
0100
0000
,
0010
0010
0010
0000
,
0001
0000
0010
0000
,
0100
0000
1000
0000
,
0010
0000
0100
0000
,
0001
0000
1000
0000
,
0001
1000
0001
0000
,
1000
0001
1000
0000
,
0010
0100
0010
0000
,
0100
0010
0100
0000
,
0001
0010
0100
0000
,
1000
0100
0010
0000
,
0001
1000
0100
0000
,
1000
0001
0100
0000
,
0020
0000
0030
0000
,
2000
0000
3000
0000
,
0002
0000
0003
0000
,
0001
0010
0100
1000
,
1001
0000
0000
0000
,
0010
0000
0100
0000
,
0001
0000
1000
0000
,
0100
0010
0100
0010
,
0100
0010
0100
0000
,
0001
0000
1000
0000
,
0010
0000
0100
0000
,
0001
0010
0001
0010
,
0100
1000
0100
0000
,
0010
0010
0010
0000
,
0001
0000
1000
0000
,
0100
0100
0100
0000
,
1000
0000
0001
0000
,
0010
1000
0010
0000
,
0100
0000
0001
0000
,
0100
0001
0100
0000
,
0010
0000
1000
1000
,
0001
0010
0100
0000
,
0001
0010
0100
0000
,
1000
0100
0010
0000
,
2000
0000
3001
0000
,
1000
0010
0100
0000
,
1000
0010
0100
0000
,
0001
0010
0100
1000
,
0001
0000
0000
0000
;

//---------------dance-single - ----------------
#NOTES:
     dance-single:
     :
     Beginner:
     1:
     0.091,0.135,0.000,0.019,0.000:
0000
0000
0000
0000
,
0000
0000
0000
0000
,
0000
0000
0000
0000
,
0000
0000
0000
0000
,
0000
0000
0000
0000
,
1000
0000
0000
0000
,
0010
0000
0000
0000
,
0100
0000
0000
0000
,
0001
0000
0000
0000
,
0001
0000
0001
0000
,
0001
0000
0000
0000
,
1000
0000
1000
0000
,
1000
0000
0000
0000
,
0010
0000
0010
0000
,
0010
0000
0000
0000
,
0100
0000
0100
0000
,
0100
0000
0000
0000
,
0001
0000
0000
0000
,
0001
0000
0000
0000
,
1000
0000
0000
0000
,
1000
0000
0000
0000
,
0001
0000
0000
0000
,
0001
0000
0000
0000
,
1000
0000
0000
0000
,
1000
0000
0000
0000
,
1000
0000
0100
0000
,
0001
0000
0010
0000
,
0100
0000
1000
0000
,
0100
0000
0000
0000
,
0010
0000
1000
0000
,
0010
0000
0100
0000
,
0001
0000
0000
0000
,
1000
0000
0000
0000
,
0000
0000
0000
0000
,
1000
0000
0000
0000
,
1000
0000
0000
0000
,
0010
0000
0010
0000
,
0010
0000
0000
0000
,
0100
0000
0000
0000
,
0001
0000
0000
0000
,
0010
0000
0010
0000
,
0100
0000
0100
0000
,
1000
0000
0000
0000
,
0001
0000
0000
0000
,
0010
0000
0000
0000
,
0100
0000
0000
0000
,
1000
0000
0000
0000
,
0001
0000
0000
0000
,
0100
0000
0100
0000
,
0100
0000
0000
0000
,
0010
0000
0000
0000
,
0100
0000
0000
0000
,
0002
0000
0000
0000
,
0003
0000
0000
0000
,
1000
0000
1000
0000
,
0010
0000
0000
0000
,
0100
0000
0001
0000
,
2000
0000
0000
0000
,
3000
0000
0000
0000
;
