#TITLE:Unicorn tail;
#SUBTITLE:;
#ARTIST:DJ YOSHITAKA;
#TITLETRANSLIT:;
#SUBTITLETRANSLIT:;
#ARTISTTRANSLIT:;
#CREDIT:;
#BANNER:Unicorn tail.png;
#BACKGROUND:Unicorn tail-bg.png;
#LYRICSPATH:;
#CDTITLE:cdtitle.png;
#MUSIC:Unicorn tail.mp3;
#OFFSET:-0.050;
#SAMPLESTART:59.314;
#SAMPLELENGTH:11.500;
#SELECTABLE:ROULETTE;
#BPMS:0.000=170.000,64.000=85.000,80.000=170.000,144.000=339.999,271.000=170.000,333.000=21.250,333.250=85.000,349.250=170.000,380.250=21.250;
#STOPS:64.000=2.471
,80.000=0.176
,143.500=0.176
,270.000=0.176
;
#BGCHANGES:;

//---------------dance-single - ----------------
#NOTES:
     dance-single:
     :
     Challenge:
     17:
     0.901,1.000,0.665,0.460,0.824: // measure 1
0000
0000
0000
0000
,  // measure 2
0000
0000
0000
0000
,  // measure 3
0000
0000
0000
0000
,  // measure 4
0000
0000
0000
0000
,  // measure 5
1000
1100
0000
0101
0000
0110
0000
0011
,  // measure 6
0000
1001
0000
1100
0000
0110
0000
1001
,  // measure 7
0100
1010
0000
0110
0000
0101
0000
0011
,  // measure 8
1001
0000
0110
0000
0010
1000
0100
0010
,  // measure 9
0001
0000
0100
0000
0010
0000
0100
0010
0100
0000
0001
0000
1000
0000
0100
0000
,  // measure 10
0010
0000
0001
0000
0100
0000
0010
1000
0010
0000
0100
0000
0001
0000
0010
0000
,  // measure 11
0100
0000
0010
0000
1000
0000
0010
0001
0010
0000
0001
0000
0100
0000
0010
0000
,  // measure 12
0100
0000
0001
0000
0010
0000
0001
0010
0100
0000
1000
0000
0010
0000
0100
0000
,  // measure 13
0101
0000
0001
0000
0010
0000
0100
1000
0010
0000
0100
0000
0001
0000
0010
0000
,  // measure 14
0110
0000
0100
0000
1000
0000
0010
0100
0010
0000
1000
0000
0100
0000
0010
0000
,  // measure 15
0011
0000
0001
0000
1000
0001
1000
0000
1010
0000
0010
0000
0100
0010
0100
0000
,  // measure 16
0010
0210
0000
0301
0010
0100
1000
0100
,  // measure 17
0220
0330
1000
0001
1000
0000
0010
1000
0010
1000
0000
0001
0100
0010
0100
1000
,  // measure 18
0100
0001
0010
0100
1000
0000
0001
0100
0001
0020
0000
0230
0000
2300
0000
3001
,  // measure 19
1000
0010
0110
0000
1001
0000
0110
0000
1000
0020
0000
0230
0000
0302
0000
1003
,  // measure 20
0100
0000
1000
0000
0001
0000
0000
0000
0100
0000
0100
0000
0010
0000
0010
0000
1000
0000
0001
0000
0000
0000
0010
0000
0100
0000
1000
0000
0001
0010
0100
1000
,  // measure 21
0002
0003
1000
0000
0010
0000
0100
0000
0001
0010
1000
0010
0001
0000
1000
0000
,  // measure 22
0010
0000
0100
0000
0001
0000
0100
0000
0010
0100
0001
0100
0010
0000
0010
0000
,  // measure 23
1000
0000
0001
0000
0100
0000
0010
0000
1000
0100
0010
0100
1000
0000
0001
0000
,  // measure 24
1000
0000
1000
0010
0100
0000
0001
0000
0100
0001
1000
0000
0010
0000
1000
0100
,  // measure 25
0010
0100
0010
0000
0001
0000
0100
0000
0010
0100
1000
0100
0010
0000
1000
0000
,  // measure 26
0001
0000
0010
0001
0100
0000
1000
0000
0100
0001
0010
0000
0001
0000
2000
0000
,  // measure 27
0000
0000
3001
0100
0010
0000
1000
0000
0010
0100
0010
0000
1000
0000
0001
0100
,  // measure 28
0010
0000
1000
0000
0100
0000
1000
0100
0010
0100
0010
0000
0001
0010
1000
0010
,  // measure 29
0100
0000
1000
0000
0010
0000
0100
0000
0010
1000
0100
0010
0001
0000
1000
0000
,  // measure 30
0010
0100
0010
0000
1000
0000
0100
0010
0001
0010
0100
0000
1100
0000
0011
0000
,  // measure 31
1100
0000
0001
0000
1000
0000
0010
0000
0100
0001
0010
0000
0100
0000
0010
0000
,  // measure 32
0001
0000
0000
1001
0000
0000
0100
0000
0000
1001
0000
0000
0010
0000
0000
1000
0001
0000
1000
0001
0000
1000
0001
0000
,  // measure 33
1000
0000
0001
0000
0000
0000
1000
0000
0000
0000
0000
0000
0010
0000
0000
0000
0000
0000
1000
0000
0000
0000
0000
0000
0100
0000
0000
0010
0000
0000
0100
0000
0000
0000
0000
0000
0001
0000
0000
0000
0000
0000
0100
0000
0000
1000
0000
0000
,  // measure 34
0010
0000
1000
0100
0001
0000
0100
0000
1000
0010
0100
0000
0001
0000
2200
0000
,  // measure 35
0300
3001
0001
1000
1000
0010
0010
0100
,  // measure 36
0100
0000
1010
0000
1010
0000
0101
0000
0101
0000
1000
0010
0100
0001
0020
0030
,  // measure 37
1100
0000
0101
0000
,  // measure 38
1100
0000
0000
0000
0010
0100
0002
0000
,  // measure 39
0000
2003
0000
3020
,  // measure 40
0000
0000
0130
0001
1000
0000
0100
0000
,  // measure 41
0010
0020
0001
0032
,  // measure 42
0100
0203
0010
0310
,  // measure 43
0000
1100
0000
0101
,  // measure 44
0000
0000
0001
1000
0001
0000
0100
0000
,  // measure 45
0012
0000
1000
0000
,  // measure 46
0103
0000
0000
0000
0100
1000
0200
0000
,  // measure 47
0000
0001
0000
0310
,  // measure 48
0000
1000
0001
1000
,  // measure 49
0010
0100
0001
0010
,  // measure 50
1000
0010
0001
1000
,  // measure 51
0100
0001
0100
1000
,  // measure 52
0010
0000
0100
0000
0001
0100
0001
0100
,  // measure 53
0010
0000
2100
0000
,  // measure 54
3200
0000
0000
0000
0310
0100
0020
0000
,  // measure 55
0000
0032
0000
2003
,  // measure 56
0000
0000
3010
0100
0001
0000
0100
0000
,  // measure 57
0001
2000
0010
3200
,  // measure 58
0001
0320
1000
0032
,  // measure 59
0000
2003
0000
3020
,  // measure 60
0000
0000
0130
0001
0100
0000
0010
0000
,  // measure 61
1100
0000
0101
0000
,  // measure 62
0011
0000
0000
0000
1000
0001
0100
0000
,  // measure 63
0000
1010
0000
0011
,  // measure 64
0000
0001
0010
1000
,  // measure 65
0001
0000
0100
0000
1000
0001
0100
0000
,  // measure 66
0001
0000
1000
0000
0010
1000
0001
0000
,  // measure 67
0010
0001
1000
0010
,  // measure 68
1000
0100
1000
0100
2000
3000
1001
1000
,  // measure 69
0001
0100
0001
0000
1000
0000
0001
0100
0001
0000
1000
0000
0010
0000
0100
0000
,  // measure 70
0001
0000
0010
0100
0010
1000
0001
0000
0100
0000
0010
0000
0001
0100
0010
0000
,  // measure 71
1000
0000
0001
1000
0010
0000
0001
0000
1000
0100
0001
0000
0001
0100
1000
0000
,  // measure 72
1000
0100
0001
0100
0010
1000
0100
0000
0001
0100
0010
0001
0100
0000
0010
1000
,  // measure 73
0100
0000
0001
1000
0010
1000
0001
0000
0100
1000
0010
0000
0100
0001
0010
0001
,  // measure 74
0100
0000
0010
1000
0001
0000
0011
0000
2200
0000
0300
0000
3001
0100
0001
0000
,  // measure 75
0010
0000
0100
1000
0100
0000
1000
0000
0010
0100
0010
0000
0100
0001
0100
0000
,  // measure 76
0010
1000
0100
0010
1000
0000
0001
0100
1000
0001
0100
0000
1100
0000
0101
0000
,  // measure 77
0001
0010
0001
1000
0100
0000
0010
0001
0100
0010
0001
0000
1000
0100
0001
1000
,  // measure 78
0100
0000
0010
0001
0100
0010
0001
0000
1100
0000
0101
0000
0001
0000
1000
0000
,  // measure 79
0010
1000
0100
1000
0001
0000
0010
0001
0100
1000
0100
0000
1001
0000
0110
0000
,  // measure 80
2002
0000
3003
0000
1000
0010
0100
0001
0010
0000
0001
0010
0100
0000
1000
0000
,  // measure 81
0010
0000
0001
1000
0100
0001
1000
0000
0010
0000
1000
0100
0001
0000
0100
1000
,  // measure 82
0001
0000
0100
0000
0001
1000
0100
0000
0220
0000
0330
0000
0001
1000
0100
0010
,  // measure 83
0100
0010
0001
0100
1000
0000
1100
0000
0101
0000
0011
0000
2010
0000
3100
0000
,  // measure 84
0021
0000
0000
0000
0000
0000
0000
0000
0130
0000
0000
0000
0000
0000
0000
0000
2001
3010
0102
1003
0110
0000
0000
0000
0000
0000
0000
0000
1001
0000
0000
0000
0000
0000
0000
0000
0101
0000
0000
0000
0000
0000
0000
0000
0010
0000
0000
0000
1010
0000
0000
0000
0000
0000
0000
0000
0101
0000
0000
0000
0000
0000
0000
0000
,  // measure 85
0110
0000
0010
1000
0100
0001
0000
0101
0000
1100
0000
1000
0020
0000
0230
0000
,  // measure 86
0302
0000
0013
0100
1000
0101
0000
1100
0000
0110
0000
0001
1100
0000
0101
0000
,  // measure 87
0011
0000
1000
0001
0100
0110
0001
0010
0100
1010
0100
0001
0010
1100
0001
0110
,  // measure 88
1000
0101
0010
1100
0001
0110
0000
0000
0000
1100
0000
0000
0000
0101
0000
0000
,  // measure 89
0000
1000
0000
0120
0000
0000
0000
2030
0000
0000
0000
3002
0000
0000
0000
0013
,  // measure 90
0000
1000
0000
0001
0000
0110
0000
0000
0000
1100
0000
0000
0000
0101
0000
0000
,  // measure 91
0000
0010
0000
1200
0000
0000
0000
0302
0000
0000
0000
0203
0000
0000
0000
1300
,  // measure 92
0000
1010
0000
0100
0000
0102
0000
0000
0000
0203
0000
0000
0000
2300
0000
0000
,  // measure 93
0000
3010
0000
0102
0000
0000
0000
0023
0000
0000
0000
0230
0000
0000
0000
1300
,  // measure 94
0000
0010
0000
0100
0000
0001
0000
0010
0000
0001
0100
1000
0100
0001
0000
0010
,  // measure 95
0000
0100
1000
0010
1000
0001
0000
1000
0000
0010
0100
0001
0000
0010
0001
1000
,  // measure 96
0010
0000
0000
0000
0200
0000
0301
0000
1000
0000
0001
0000
1000
0010
0000
0100
0000
0001
0000
0100
0010
1000
0010
0000
0100
0000
0001
0000
0010
0001
0000
0100
0000
0010
0000
1000
0100
0010
0001
0000
0100
0000
0010
0000
1000
0100
0000
0001
0000
0100
0000
1000
0010
0100
0001
0010
0100
1000
0010
0100
0001
0020
0000
0230
,  // measure 97
0000
2300
0000
3002
0000
0203
0000
0300
0000
0000
0000
0000
0000
0000
0000
0000
0000
0000
0000
0000
0000
0000
0000
0000
0000
0000
0000
0000
0000
0000
0000
0000
0000
0000
0000
0000
0000
0000
0000
0000
0000
0000
0000
0000
0000
0000
0000
0000
0000
0000
0000
0000
0000
0000
0000
0000
0000
0000
0000
0000
0000
0000
0000
0000
;

//---------------dance-single - ----------------
#NOTES:
     dance-single:
     :
     Hard:
     16:
     0.851,1.000,0.347,0.658,0.781: // measure 1
0000
0000
0000
0000
,  // measure 2
0000
0000
0000
0000
,  // measure 3
0000
0000
0000
0000
,  // measure 4
0000
0000
0000
0000
,  // measure 5
1000
0001
0000
1001
0000
1010
0000
0110
,  // measure 6
0000
0101
0000
0011
0000
0110
0000
0001
,  // measure 7
1000
0001
0000
0110
0000
1100
0000
0001
,  // measure 8
2001
0000
0100
0000
0010
0000
3001
0100
,  // measure 9
0001
0000
0100
0000
0010
0000
1000
0000
0100
0000
0010
0000
0100
0000
0000
1000
,  // measure 10
0010
0000
0100
0000
1000
0000
0100
0000
0001
0000
0010
0000
0001
0000
0000
0100
,  // measure 11
0010
0000
0100
0000
0001
0000
0010
0000
1000
0000
0001
0000
0100
0000
0000
1000
,  // measure 12
0010
0000
0100
0000
0001
0000
0010
0000
0100
0000
1000
0000
0100
0000
0000
0001
,  // measure 13
0100
0000
1000
0000
0010
0000
0100
0000
0001
0000
0010
0000
1000
0000
0000
0010
,  // measure 14
0001
0000
0010
0000
0001
0000
0010
0000
1000
0000
0010
0000
0100
0000
0000
1000
,  // measure 15
0010
0000
0100
0000
0001
0100
0001
0000
1000
0000
1000
0000
0010
0100
0010
0000
,  // measure 16
1000
0000
1001
0000
0000
0000
1001
0000
0100
0010
0100
0000
0010
0100
0010
0000
,  // measure 17
2002
3003
0110
0000
1001
0000
0100
0001
0100
0000
0010
1000
0010
0100
0001
0000
,  // measure 18
0110
0000
0001
0100
0010
0000
0001
0100
0010
0100
0000
0010
1000
0100
0001
0100
,  // measure 19
1000
0010
0110
0000
1100
0000
0101
0000
0001
0200
0000
0320
0000
2030
0000
3001
,  // measure 20
0100
0000
0001
0000
0010
0000
0000
0000
0100
0000
0001
0000
0100
0000
0001
0000
1000
0000
0010
0000
1000
0000
0010
0000
0100
0000
0001
0000
1000
0001
1000
0001
,  // measure 21
2000
3000
0001
0000
1000
0000
0010
0000
0100
0001
0100
0001
0100
0000
0010
0000
,  // measure 22
1000
0000
0001
0100
0001
0000
0010
0000
0001
1000
0001
1000
0001
0000
1000
0000
,  // measure 23
0010
0000
0100
0000
0001
0000
0010
0000
0100
1000
0100
0000
0010
0000
0001
1000
,  // measure 24
0001
0000
1000
0100
1000
0000
0100
0000
0010
0001
0010
0000
0100
0000
1000
0001
,  // measure 25
0010
0100
1000
0000
0001
0000
0010
0000
0001
0100
0001
0000
0010
0000
0100
1000
,  // measure 26
0100
0000
0010
0001
0010
0000
0100
0000
1000
0010
0100
0000
0001
0000
0220
0000
,  // measure 27
0330
0000
1000
0010
0100
0000
0001
0000
0010
0100
1000
0000
0001
0000
1000
0010
,  // measure 28
0100
0000
0001
0100
0001
0000
1000
0000
0010
0100
0010
0000
1000
0000
0001
0100
,  // measure 29
0001
0010
0100
0000
1000
0000
0001
0000
0100
0010
0100
0000
0001
0000
1000
0100
,  // measure 30
1000
0000
0001
0010
0001
0000
1000
0000
0010
0100
0010
0100
0001
0000
0001
0000
,  // measure 31
0010
0000
0100
1000
0010
0000
0100
0000
0010
0100
1000
0000
0100
0000
0001
0010
,  // measure 32
0100
0000
1001
0000
0100
0000
1001
0000
0010
0000
1000
0100
2000
0000
3001
0100
,  // measure 33
0002
0000
1003
0000
0010
0000
0100
0000
0001
0100
0001
0000
0010
0000
0100
0000
,  // measure 34
1000
0000
0010
0100
0001
0000
0010
0000
0100
1000
0010
0000
1000
0000
2002
0000
,  // measure 35
3003
1000
1000
0100
0010
0001
0001
0100
,  // measure 36
0010
0000
0100
0000
0001
0000
0010
0000
0100
0000
1000
0100
1000
0100
2000
0000
,  // measure 37
3002
0000
2000
0003
,  // measure 38
0002
3000
0013
0200
,  // measure 39
0000
2000
0300
0020
,  // measure 40
3000
0130
0001
0010
,  // measure 41
0200
0000
2000
0300
,  // measure 42
0002
3000
1003
0020
,  // measure 43
0000
0200
0030
0002
,  // measure 44
0300
0013
0100
1000
,  // measure 45
0002
0000
2000
0003
,  // measure 46
0020
3000
0130
0002
,  // measure 47
0000
0020
0003
0200
,  // measure 48
0030
1300
0001
1000
,  // measure 49
0001
0010
0100
1000
,  // measure 50
0010
0100
0001
1000
,  // measure 51
0010
0100
0001
0010
,  // measure 52
0100
0000
1000
0000
0001
1000
0001
0000
,  // measure 53
1002
0000
0200
0003
,  // measure 54
0020
0300
1030
0020
,  // measure 55
0000
0200
0030
0002
,  // measure 56
0300
1003
0010
0100
,  // measure 57
0002
0000
0200
0003
,  // measure 58
0020
0300
1030
0002
,  // measure 59
0000
2003
0000
0002
,  // measure 60
3000
0013
0001
1000
,  // measure 61
1002
0000
0200
0003
,  // measure 62
2000
0300
0100
3002
,  // measure 63
0000
0020
0003
0200
,  // measure 64
0030
1300
0001
0100
,  // measure 65
0101
0001
1000
0100
,  // measure 66
0110
0010
0001
0100
,  // measure 67
0001
0001
0100
0100
,  // measure 68
0010
1000
0010
1000
0020
0000
1030
0100
,  // measure 69
0010
0000
0100
0010
0001
0000
0010
0000
0100
1000
0010
0000
0100
0000
0001
0000
,  // measure 70
0010
0000
0001
0100
0001
0100
0010
0000
1000
0000
0100
0000
0001
0000
0100
0000
,  // measure 71
1000
0000
0010
0100
0001
0000
0010
0000
0100
1000
0010
0000
0100
0001
0100
0000
,  // measure 72
0010
0000
1000
0100
1000
0000
0001
0000
1000
0100
1000
0100
0010
0000
0001
0000
,  // measure 73
0100
0000
0010
1000
0100
0000
0010
0000
0100
1000
0010
0000
0100
0001
0100
0000
,  // measure 74
0010
0000
1000
0100
1000
0000
0100
0000
0220
0000
0330
0000
0010
0001
0010
0000
,  // measure 75
0100
0000
0010
0001
0010
0000
0100
0000
1000
0010
0100
0000
0010
1000
0100
0000
,  // measure 76
0010
0000
0001
0100
0010
0001
1000
0000
0001
0010
0100
0001
0010
0000
0100
0000
,  // measure 77
0001
0000
0100
1000
0010
0000
0100
0000
0001
1000
0010
0000
0100
0000
0001
1000
,  // measure 78
0010
0000
0010
1000
0010
1000
0001
0000
0010
0000
0001
0000
1000
0100
1000
0000
,  // measure 79
0001
0000
0010
0000
0100
1000
0010
0000
1000
0100
1000
0000
1001
0000
0010
0000
,  // measure 80
2002
0000
3003
0000
1000
0100
0001
1000
0010
0000
0001
0010
1000
0000
0001
0000
,  // measure 81
0100
0000
1000
0010
0100
0010
0001
0000
0010
0100
1000
0000
0100
0001
0010
0000
,  // measure 82
0100
0000
1000
0010
0100
0000
0001
0000
0022
0000
0033
0000
1000
0100
1000
0100
,  // measure 83
0001
1000
0010
0001
1000
0000
1001
0000
0001
0000
1001
0000
0110
0000
1000
0000
,  // measure 84
0110
0000
0000
0000
0000
0000
0000
0000
0001
0000
0000
0000
0000
0000
0000
0000
2000
3200
0320
0032
2003
0000
0000
0000
0000
0000
0000
0000
3002
0000
0000
0000
0000
0000
0000
0000
0203
0000
0000
0000
0000
0000
0000
0000
0310
0000
0000
0000
2000
0000
0000
0000
0000
0000
0000
0000
3002
0000
0000
0000
0000
0000
0000
0000
,  // measure 85
0203
0000
0310
1000
0100
1100
0000
0101
0000
0011
0000
1100
0002
0000
0203
0000
,  // measure 86
0320
0000
1030
0100
0010
0011
0000
1100
0000
0101
0000
0100
1010
0000
0101
0000
,  // measure 87
0110
0000
1000
0001
0100
1100
1000
0100
0001
0011
0010
0100
1000
1100
0100
0010
,  // measure 88
0001
1001
1000
0010
1000
1020
0000
0000
0000
0200
0000
0030
0000
0002
0000
0300
,  // measure 89
0000
1003
0000
0020
0000
0000
0000
0200
0000
0030
0000
0002
0000
0300
0000
1003
,  // measure 90
0000
0010
0000
0100
0000
2000
0000
0000
0000
0200
0000
3000
0000
0002
0000
0300
,  // measure 91
0000
0013
0000
0200
0000
0000
0000
2000
0000
0300
0000
0020
0000
3000
0000
0031
,  // measure 92
0000
0010
0000
1000
0000
0200
0000
0000
0000
0002
0000
0300
0000
0200
0000
0003
,  // measure 93
0000
1300
0000
0020
0000
0000
0000
0200
0000
0030
0000
0002
0000
0300
0000
0013
,  // measure 94
0000
0100
0000
0010
0000
0001
0000
0010
0000
0100
1000
0001
1000
0100
0000
0010
,  // measure 95
0000
0100
1000
0010
1000
0010
0000
0100
0000
0001
0000
0010
0000
0100
0001
1000
,  // measure 96
0010
0000
0000
0000
0001
0000
1000
0000
0010
0000
0100
0000
0001
0010
0000
0100
0000
1000
0000
0010
0100
0001
0010
0000
0001
0000
0010
0000
0100
1000
0000
0010
0000
0100
0000
0001
0001
1000
1000
0000
0010
0000
0100
0000
0001
0010
0000
0100
0000
1000
0000
0010
0100
0010
1000
0100
0010
0001
0100
0010
0100
0002
0000
0023
,  // measure 97
0000
0230
0000
2300
0000
3020
0000
0030
0000
0000
0000
0000
0000
0000
0000
0000
0000
0000
0000
0000
0000
0000
0000
0000
0000
0000
0000
0000
0000
0000
0000
0000
0000
0000
0000
0000
0000
0000
0000
0000
0000
0000
0000
0000
0000
0000
0000
0000
0000
0000
0000
0000
0000
0000
0000
0000
0000
0000
0000
0000
0000
0000
0000
0000
;

//---------------dance-single - ----------------
#NOTES:
     dance-single:
     :
     Medium:
     14:
     0.656,0.985,0.177,0.276,0.467:
0000
0000
0000
0000
,
0000
0000
0000
0000
,
0000
0000
0000
0000
,
0000
0000
0000
0000
,
0000
0001
0100
0001
0000
0001
1000
0001
,
0000
1000
0010
1000
0000
1000
0100
1000
,
0100
0010
0001
0010
0000
0100
1000
0100
,
0010
0000
1001
0000
0010
1000
0100
1000
,
0010
0000
0000
0000
1001
0000
0000
0001
1000
0000
0001
0000
1000
0000
0010
0000
,
1000
0000
0000
0000
0101
0000
0000
0001
1000
0000
0100
0000
0010
0000
0100
0000
,
1000
0000
0000
0000
0110
0000
0000
1000
0010
0000
0100
0000
0001
0000
0010
0000
,
0100
0000
0000
0000
1100
0000
0000
1000
0100
0000
0010
0000
0001
0000
0010
0000
,
0100
0000
0000
0000
1010
0000
0000
0100
0010
0000
0001
0000
0010
0000
0100
0000
,
1100
0000
0000
0000
0101
0000
0000
0001
0100
0000
0010
0000
1000
0000
0010
0000
,
1010
0000
1001
0000
0010
1000
1001
0000
,
0010
2000
0000
3002
0000
0023
0000
0130
,
0220
0330
1000
0000
0001
0000
0010
0100
0010
0000
0001
0100
0001
0000
1000
0010
,
1000
0000
0110
0000
1001
0000
0001
0010
0100
1000
0010
1000
0010
1000
0000
0001
,
0100
0001
0100
0000
0010
0000
1000
0000
0100
0010
0000
0001
0000
0010
0000
0010
,
0100
1000
0100
0000
0010
0001
0010
0001
1000
0100
0000
0010
0001
0100
0010
1000
,
1001
0010
1000
0100
0001
0100
1000
0010
,
0000
0100
0001
0100
0010
1000
0100
0010
,
0000
0100
1000
0010
0100
0001
0010
0100
,
1000
0000
0001
0100
0001
0000
1000
0000
0001
0100
0001
0000
1000
0000
0001
0100
,
0001
0010
0001
0100
0001
0010
0100
1000
,
0000
1000
1000
0001
0001
0010
0100
2000
,
0000
3001
0010
0001
0010
0100
1000
0100
,
1000
0000
0010
0000
0100
0000
0010
0000
0100
0000
0001
0100
0001
0000
0002
0000
,
0000
1003
0010
0100
1000
0100
0001
0010
,
0000
0100
1000
0100
0010
0001
0100
0010
,
0000
1000
0001
1000
0010
0100
0001
0100
,
1000
0000
0100
0000
0010
0000
0001
0000
0010
0000
1000
0001
1000
0000
0001
1000
,
0001
1000
0010
1000
0010
0100
0001
0100
,
0001
0010
0100
1000
0100
0010
0001
0100
,
0000
1000
0010
0100
0000
0001
0010
0100
,
0000
0000
1000
0000
0010
0000
0100
0000
0001
0000
1000
0001
1000
0001
2000
0000
,
3020
0000
2030
0000
,
3200
0000
0310
0002
,
0000
0023
0000
0130
,
0000
1000
0001
1000
,
0002
0000
0023
0000
,
0230
0000
1300
0020
,
0000
2030
0000
3002
,
0000
0103
0010
1000
,
0200
0000
0320
0000
,
0032
0000
0103
0020
,
0000
0230
0000
0302
,
0000
0023
0000
0130
,
1000
0010
0100
0001
,
0010
0100
1000
0100
,
0010
0001
0100
0010
,
1000
0100
0001
0100
,
1000
0001
1000
0000
,
0001
1000
0001
0000
,
1000
0010
0100
0001
,
0010
0100
1000
0000
,
0001
0100
0001
0000
,
1000
0010
1000
0000
,
0001
0010
0100
1000
,
0100
0010
0001
0100
,
0010
1000
0010
0000
,
0100
0001
0100
0000
,
0010
1000
0100
1000
,
0010
0100
0001
0000
,
0010
0100
0010
0100
,
1000
0010
1000
0010
,
0100
0001
0010
0100
,
1000
0000
0001
0000
2002
3003
1000
0010
,
1000
0010
0100
0001
0100
0001
0010
0100
,
1000
0000
0010
1000
0010
1000
0001
0000
0010
0000
0100
0000
1000
0000
0100
0000
,
0010
0001
0100
0010
0100
0001
0010
0100
,
1000
0000
0010
1000
0010
1000
0100
0000
0010
0000
0001
0000
0010
0000
0100
0000
,
1000
0010
0100
0001
0010
0100
1000
0001
,
1000
0100
0001
0100
1001
0000
1000
0010
,
0100
0010
1000
0100
0010
0001
0010
0100
,
1000
0010
0100
0001
1001
0000
1000
0010
,
1000
0010
0100
0001
0100
0001
0010
0100
,
1000
0100
0010
0001
0200
0000
0310
1000
,
0010
1000
0010
0100
0010
0100
1000
0100
,
0010
0000
1000
0001
1001
0000
0010
1000
,
0010
1000
0001
0100
0010
1000
0100
0010
,
0100
0010
0001
0100
0010
0000
1000
1000
,
0001
0001
1001
0000
0110
0000
1002
0000
,
2003
0000
0000
0000
3002
0103
0000
0010
1000
0100
0000
0010
0001
0010
0001
0100
,
0010
1000
0000
0100
0010
0100
0000
1000
0010
0100
0000
0001
0010
0100
0010
0001
,
0100
0010
0000
1000
0100
2000
3100
1000
0000
0002
0103
0001
0000
2000
3010
1000
,
0000
0002
0013
0001
0000
0010
1000
0010
1000
0010
0100
0001
0000
0001
0010
0100
,
0010
0100
1000
0010
0100
1001
0000
0000
0000
0010
0000
1000
0000
0010
0000
0000
,
0000
0100
0000
0001
0000
0010
0000
0100
0000
1000
0000
0010
0000
0100
0000
0000
,
0000
0001
0000
0100
0000
0001
0000
0000
0000
0010
0000
0100
0000
1000
0000
0000
,
0000
0010
0000
0100
0000
0010
0000
0100
0000
0001
0000
0010
0000
0100
0000
1000
,
0000
0010
0000
0100
0000
0001
0000
0000
0000
1000
0000
0010
0000
0100
0000
0000
,
0000
0001
0000
0010
0000
0100
0000
1000
0000
0100
0000
0010
0000
0001
0000
0000
,
0000
1000
0000
0010
0000
0100
0000
0010
0000
1000
0000
0100
0000
0010
0000
0000
,
0000
0001
0000
0010
0000
0100
0000
1000
0000
0010
0000
0100
0000
0001
1000
0001
,
0000
0000
1002
1000
0000
0000
0000
1000
0000
0000
0000
1000
0000
0000
0000
1003
0000
0000
0000
2001
0000
0000
0000
0001
0000
0000
0000
0001
0000
0000
0000
3002
,
0000
0000
0000
0003
0000
0000
0000
0000
0000
0000
0000
0000
0000
0000
0000
0000
0000
0000
0000
0000
0000
0000
0000
0000
0000
0000
0000
0000
0000
0000
0000
0000
;

//---------------dance-single - ----------------
#NOTES:
     dance-single:
     :
     Easy:
     12:
     0.489,0.611,0.085,0.226,0.258:
0000
0000
0000
0000
,
0000
0000
0000
0000
,
0000
0000
0000
0000
,
0000
0000
0000
0000
,
0000
0001
0000
1000
0000
0010
0000
0100
,
0000
0001
0000
0010
0000
0100
0000
1000
,
0000
0010
0000
0100
0000
0001
0000
0010
,
0000
1000
0000
0001
0000
0100
0000
0010
,
0000
1001
0100
0001
,
0010
0000
1001
0000
0010
1000
0010
0000
,
0100
1001
1000
0010
,
0100
0000
1001
0000
0001
1000
0001
0000
,
1001
1000
0010
0100
,
0101
0000
0001
0000
1000
0010
1000
0000
,
1002
1003
2001
3001
,
0002
0000
2000
3003
,
1001
0001
0000
0001
0000
1000
0000
1000
,
0000
0010
1000
0010
1000
0001
0100
0001
,
0000
1000
0000
1000
0000
0010
0000
0010
,
0000
0100
0001
0100
0001
0010
0100
1000
,
1001
0001
0001
0010
0100
0100
1000
0010
,
0010
0100
0001
0010
0100
1000
0100
0010
,
0001
0100
0100
0010
1000
1000
0001
1000
,
1000
0010
0100
0001
0010
0100
1000
0010
,
0010
0100
0100
0001
0010
0010
0001
0100
,
0010
0100
0001
0010
0100
1000
0100
0020
,
0000
0031
0100
0001
0010
0100
1000
0100
,
0010
0100
1000
0010
0100
0010
1000
0100
,
0010
0001
0010
0100
0010
0001
0100
0010
,
1000
0100
0010
0001
0010
0100
1000
0010
,
0100
0001
0010
0100
1000
0001
1000
0010
,
0100
0002
0000
2003
0000
0002
0000
0000
,
3003
0001
0001
0001
0000
1000
1000
1000
,
0000
0010
1000
0010
1000
0010
0100
0001
,
0000
1000
0010
1000
0010
1000
0001
1000
,
0001
0100
0010
0100
0010
0100
0002
0100
,
2003
0000
0001
0000
,
0001
0000
3001
0000
,
0002
0000
1000
0000
,
1000
0000
1003
0000
,
0020
0000
0100
0000
,
0100
0000
0130
0000
,
0010
0000
1000
0000
,
0001
1000
0001
0000
,
2000
0000
0010
0000
,
0010
0000
3010
0000
,
0002
0000
0100
0000
,
0100
0000
0103
0000
,
0010
1000
0010
0000
,
0100
0001
0100
0000
,
0010
0000
0010
0000
,
0100
0001
0100
0000
,
0020
0000
1000
0000
,
1000
0000
0130
0000
,
0002
0000
1000
0000
,
1000
0000
0013
0000
,
2000
0000
0010
0000
,
0010
0000
3001
0000
,
1000
0001
1000
0000
,
0001
1000
0001
0000
,
2000
0000
0010
0000
,
0001
0000
3100
0000
,
0002
0000
1000
0000
,
0010
0000
0103
0000
,
0010
1000
0100
0000
,
0010
0001
0100
0000
,
0010
1000
0100
0010
,
0001
0000
0100
0000
0020
0000
1030
0010
,
1000
0000
0001
1000
0001
0000
0010
0100
,
0010
0000
0100
1000
0010
0100
0001
0010
,
0100
0000
1000
0010
1000
0000
0001
0100
,
0010
0100
0001
0010
0100
1000
0100
0010
,
0100
0000
0010
0001
0010
0000
0100
1000
,
0010
0100
0001
0100
0020
0000
1030
0001
,
1000
0000
0010
0100
0010
0000
1000
0100
,
1000
0100
0010
0001
0010
0001
1000
0010
,
0100
0000
0001
0010
0100
0000
1000
0001
,
1000
0001
0010
0100
1000
0000
0010
0100
,
0010
0000
1000
0100
1000
0000
0001
0100
,
0001
0010
0100
1000
0010
0000
2000
3100
,
1000
0000
0002
0103
0001
0000
2000
3010
,
1000
0000
0002
0013
0001
0000
0001
1000
,
0001
1000
0010
0100
0010
0000
0210
0000
,
0010
0000
0000
0000
0302
1003
0000
0010
0000
0100
0000
0001
0000
0010
0000
0100
,
0000
1000
0000
0100
0000
0010
0000
0001
0000
0100
0000
0010
0000
1000
0000
1000
,
0000
0001
0000
0001
0000
2000
0000
0100
0000
0100
0000
3100
0000
0002
0000
0010
,
0000
0010
0000
0013
0000
2000
0000
3001
0000
0002
0000
1003
0000
1000
0000
1000
,
0000
0001
0000
0001
0000
1001
0000
0000
0000
0010
0000
0000
0000
0001
0000
0000
,
0000
0100
0000
0000
0000
0010
0000
0000
0000
0100
0000
0000
0000
1000
0000
0000
,
0000
0100
0000
0001
0000
0100
0000
0000
0000
0010
0000
0000
0000
1000
0000
0000
,
0000
0100
0000
0000
0000
0010
0000
0000
0000
0001
0000
0000
0000
1000
0000
0001
,
0000
1000
0000
0001
0000
1000
0000
0000
0000
0010
0000
0000
0000
0100
0000
0000
,
0000
0001
0000
0000
0000
0010
0000
0000
0000
0100
0000
0000
0000
0010
0000
0000
,
0000
0001
0000
0100
0000
0010
0000
0000
0000
1000
0000
0100
0000
0010
0000
0000
,
0000
0001
0000
0010
0000
0100
0000
1000
0000
0010
0000
0100
0000
0001
0000
0100
,
0000
0000
0000
0000
0020
0000
0000
0000
0000
0000
0000
0000
0000
0000
0000
0000
0000
0000
0000
0000
0000
0000
0000
0000
0000
0000
0000
0000
0000
0000
0000
0000
0000
0000
0000
0000
0000
0000
0000
0000
0000
0000
0000
0000
0000
0000
0000
0000
0000
0000
0000
0000
0000
0000
0000
0000
0000
0000
0000
0000
0000
0030
0000
0000
;

//---------------dance-single - ----------------
#NOTES:
     dance-single:
     :
     Beginner:
     6:
     0.236,0.336,0.127,0.120,0.124:
0000
0000
0000
0000
,
0000
0000
0000
0000
,
0000
0000
0000
0000
,
0000
0000
0000
0000
,
0001
0000
0001
0000
,
1000
0000
1000
0000
,
0001
0000
0001
0000
,
2002
0000
3003
0000
,
1000
1000
1000
0000
,
0001
0001
0001
0000
,
0100
0100
0100
0000
,
0010
0010
0010
0000
,
1000
1000
0001
0000
,
0001
0001
1000
0000
,
1000
0001
1000
0000
,
0001
1000
0001
0000
,
1001
1000
0000
1000
0000
0001
0000
0001
,
0000
1000
0000
1000
0000
0001
0000
0001
,
0000
1000
1000
1000
0000
0001
0001
0001
,
0000
1000
0000
0001
0000
1000
0000
0001
,
0000
1000
0000
0001
0000
1000
0000
0000
,
0000
0001
0000
1000
0000
0001
0000
0000
,
0000
0010
0000
0010
0000
0100
0000
0100
,
0000
0002
0000
0000
0000
2000
0000
3003
,
0000
1000
0000
0000
0000
1000
0000
0000
,
0000
0001
0000
0000
0000
0001
0000
0000
,
0000
1000
0000
1000
0000
0010
0000
0010
,
0000
0100
0000
0100
0000
0001
0000
0001
,
0000
2000
0000
0000
0000
3001
0000
0000
,
0000
0002
0000
0000
0000
1003
0000
0000
,
0000
0020
0000
0000
0000
0130
0000
0000
,
0000
0200
0000
0000
0000
0020
0000
0330
,
0000
1000
0000
0001
0000
0001
0000
0000
,
0000
0001
0000
0100
0000
0100
0000
0000
,
0000
0010
0000
1000
0000
1000
0000
0000
,
0000
0001
0000
0000
0000
0220
0000
0330
,
1000
0000
0001
0000
,
1000
0000
0000
0000
,
0001
0000
1000
0000
,
0001
0000
0000
0000
,
1000
0000
0000
0000
,
0001
0000
0000
0000
,
1000
0000
1000
0000
,
1000
0000
0000
0000
,
0001
0000
0000
0000
,
0010
0000
0000
0000
,
0100
0000
0000
0000
,
1000
0000
0000
0000
,
0001
0000
0000
0000
,
0001
0000
0000
0000
,
1000
0000
0000
0000
,
0110
0000
0000
0000
,
1000
0000
0001
0000
,
0001
0000
0000
0000
,
0001
0000
1000
0000
,
1000
0000
0000
0000
,
0002
0000
0000
0000
,
1003
0000
0000
0000
,
2000
0000
0000
0000
,
3001
0000
0000
0000
,
0010
0000
0000
0000
,
0110
0000
0000
0000
,
0100
0000
0000
0000
,
0110
0000
0000
0000
,
1000
0000
0000
0000
,
1001
0000
0000
0000
,
0001
0000
0000
0000
,
2002
0000
3003
1000
,
0000
0001
0000
1000
,
1000
1000
0000
0001
,
0000
1000
0000
0001
,
0001
0001
0000
0010
,
0000
0010
0000
0100
,
0000
0100
0000
0001
,
0000
1000
0000
0001
,
0000
1001
0000
0010
,
0000
1000
0000
0010
,
0000
1000
0000
0001
,
0000
0100
0000
0001
,
0000
1001
0000
0001
,
0000
0001
0000
1000
,
0000
1000
0000
0010
,
0000
0010
0000
0100
,
0000
0000
0000
0000
0100
1000
0000
0000
0000
1000
0000
0000
0000
0001
0000
0000
,
0000
0001
0000
0000
0000
1000
0000
0000
0000
1001
0000
0000
0000
0001
0000
0000
,
0000
1001
0000
0000
0000
1000
0000
0000
0000
1000
0000
0000
0000
1000
0000
0000
,
0000
0000
0000
0000
0000
0001
0000
0000
0000
0001
0000
0000
0000
0001
0000
0000
,
0000
0001
0000
0000
0000
1000
0000
0000
0000
0001
0000
0000
0000
0001
0000
0000
,
0000
0000
0000
0000
0000
0001
0000
0000
0000
1000
0000
0000
0000
1000
0000
0000
,
0000
0000
0000
0000
0000
1001
0000
0000
0000
0000
0000
0000
0000
1001
0000
0000
,
0000
0000
0000
0000
0000
0010
0000
0000
0000
0010
0000
0000
0000
0100
0000
0000
,
0000
0100
0000
0000
0000
0001
0000
0000
0000
0000
0000
0000
0000
0001
0000
0000
,
0000
0000
0000
0000
0000
1000
0000
0000
0000
0000
0000
0000
0000
1000
0000
0000
,
0000
0000
0000
0000
0000
1001
0000
0000
0000
0000
0000
0000
0000
1001
0000
0000
,
0000
0000
0000
0000
0000
0110
0000
0000
0000
0000
0000
0000
0000
0220
0000
0000
,
0000
0330
0000
0000
0000
0000
0000
0000
0000
0000
0000
0000
0000
0000
0000
0000
;
