#TITLE:The Sampling Paradise;
#SUBTITLE:;
#ARTIST:Mamonis;
#TITLETRANSLIT:;
#SUBTITLETRANSLIT:;
#ARTISTTRANSLIT:;
#GENRE:;
#CREDIT:;
#MENUCOLOR:;
#METERTYPE:DDR;
#BANNER:The Sampling Paradise.png;
#BACKGROUND:The Sampling Paradise-bg.png;
#LYRICSPATH:;
#CDTITLE:cdtitle.png;
#MUSIC:The Sampling Paradise.mp3;
#OFFSET:-0.104;
#SAMPLESTART:64.100;
#SAMPLELENGTH:12.000;
#SELECTABLE:YES;
#LISTSORT:;
#DISPLAYBPM:150.000;
#BPMS:0.000=150.000,96.000=75.000,110.000=150.000,116.000=75.000,117.000=150.000,119.000=75.000,120.000=150.000,122.000=75.000,123.000=150.000,125.000=75.000,126.000=150.000,138.000=75.000,140.000=150.000,183.000=300.000,191.000=150.000,230.000=300.000,230.500=150.000;
#STOPS:175.000=0.200
,178.500=0.200
,230.000=0.300
;
#BGCHANGES:;
#ATTACKS:;

//---------------dance-single - ----------------
#NOTES:
     dance-single:
     :
     Hard:
     15:
     0.726,0.703,0.163,0.086,0.957: // measure 1
0000
0000
0000
0000
,  // measure 2
0000
0000
0000
0000
,  // measure 3
0000
0000
0000
0000
,  // measure 4
0000
0000
0000
0000
,  // measure 5
1000
0100
1000
0000
0001
0100
0001
0000
,  // measure 6
1000
0010
1000
0000
0001
0010
0001
0000
,  // measure 7
1000
0000
0010
0000
0100
0000
0001
0000
1000
0100
1000
0100
0010
0001
0010
0001
,  // measure 8
2000
3020
0230
0302
,  // measure 9
1003
0000
0010
1000
0010
0000
0100
0000
0001
0000
0010
0100
0010
0000
0001
0000
,  // measure 10
0100
0000
0010
1000
0010
0000
1000
0000
0001
0100
0001
0000
1000
0000
0000
0000
,  // measure 11
0001
0000
0010
0100
0010
0000
0001
0000
1000
0000
0010
0100
0010
0000
1000
0000
,  // measure 12
0001
0000
1000
0100
1000
0000
0001
0000
0010
0100
0010
0000
0100
0000
0000
0000
,  // measure 13
1000
0000
0010
0100
0010
0000
1000
0000
0001
0000
0100
0010
0100
0000
0001
0000
,  // measure 14
1000
0000
0100
0010
0100
0000
1000
0000
0001
0100
0001
0000
1000
0000
0000
0000
,  // measure 15
1000
0000
0001
0100
0001
0000
1000
0000
0001
0000
1000
0010
1000
0000
0001
0000
,  // measure 16
0010
0000
0100
1000
0000
0100
1000
0000
0010
0000
0100
0000
0001
0010
0001
0010
,  // measure 17
0001
0000
1000
0100
1000
0000
0001
0000
0010
0000
0100
1000
0100
0000
0010
0000
,  // measure 18
0001
0000
0100
0010
0100
0000
0001
0000
1000
0100
0010
0000
0001
0000
0000
0000
,  // measure 19
0100
0000
0001
1000
0001
0000
1000
0000
0010
0000
0100
0001
0100
0000
0010
0000
,  // measure 20
1000
0000
0001
0010
0001
0000
0100
0000
0010
1000
0010
0000
0100
0000
0000
0000
,  // measure 21
0001
0000
0010
0100
1000
0000
0001
0000
0100
0000
0001
0010
0100
0000
1000
0000
,  // measure 22
0001
0000
0010
0100
1000
0000
0010
0000
0100
0001
1000
0001
1000
0001
1000
0001
,  // measure 23
1000
0000
0010
0000
0100
0001
0100
0000
0010
1000
0000
0001
0000
1000
0001
0010
,  // measure 24
0200
0000
0000
0000
,  // measure 25
1300
0100
0000
0010
0000
0001
0000
0100
0001
0010
0000
0100
0000
1000
0000
0010
,  // measure 26
0100
0001
0000
0010
0000
0001
0000
0010
0100
1000
0000
0010
0000
0100
0001
0100
,  // measure 27
0001
0010
0000
0100
0000
1000
0000
0001
0100
0010
0000
1000
0000
0001
0100
0001
,  // measure 28
0100
0010
0000
1000
0000
0001
0010
0100
2000
0000
0000
0000
0000
0000
0000
0000
,  // measure 29
3000
0001
0000
1000
0000
0001
1000
0001
0010
0000
0100
0000
1000
0100
0000
0010
,  // measure 30
0000
0010
0100
1000
0001
0000
0100
0000
0001
0010
0000
0100
0000
0100
0010
0001
,  // measure 31
1000
0000
0001
0000
1000
0000
0001
0100
0000
0100
0001
1000
0010
0000
1000
0001
,  // measure 32
0000
1000
0010
0100
0000
0100
0010
1000
0001
0000
1000
0000
0001
0100
0000
0100
,  // measure 33
0010
0000
1000
0000
0001
0100
0000
0100
0010
0000
1000
0000
0001
0100
0000
0100
,  // measure 34
0010
0000
1000
0000
0001
0100
0000
0100
0010
0100
0000
0001
0100
0001
0000
1000
,  // measure 35
0100
1000
0000
0001
0100
0001
0000
1000
0100
0010
0001
1000
0110
0000
1001
0000
,  // measure 36
0010
0000
0100
0000
0001
1000
0000
0010
0000
1000
0000
0001
0000
1000
0010
1000
,  // measure 37
0001
0000
0010
0000
0100
1000
0000
0001
0000
1000
0000
0010
0000
0100
0001
0100
,  // measure 38
0010
0000
0100
0000
0001
0000
1000
0100
0000
1000
0100
1000
0000
0001
0100
0001
,  // measure 39
0010
0000
0100
1000
0000
0100
0010
0001
0000
0010
0100
0000
1000
0001
1000
0100
,  // measure 40
0010
0000
0001
0000
1000
0010
0000
1000
0000
0001
0000
0010
0000
0100
1000
0100
,  // measure 41
0010
0000
0001
0000
0100
0001
0000
1000
0000
0001
0000
0100
0000
0010
1000
0010
,  // measure 42
0100
0000
0001
0000
0100
0000
0010
1000
0000
0010
1000
0000
0001
0100
0001
0000
,  // measure 43
1000
0000
0001
1000
0000
0010
1000
0000
0010
0100
0000
0001
0000
1000
0010
0000
,  // measure 44
1000
0000
0001
0000
0100
0010
0000
0100
0000
0001
0010
0000
0110
0000
1000
0000
,  // measure 45
0001
0000
1000
0010
0000
0100
0000
0010
1000
0000
0110
0000
0002
0000
0000
0000
,  // measure 46
1000
1000
0000
2000
,  // measure 47
0000
0000
0000
0000
,  // measure 48
0000
0000
0000
0000
0000
0000
0000
0000
3003
0000
0000
0000
1001
0000
0000
0010
,  // measure 49
1000
0000
0001
0000
1001
0000
1000
0000
0100
0000
0010
0000
0110
0000
0000
0100
,  // measure 50
1000
0000
0010
0000
0110
0000
0100
0000
0001
0000
0010
0000
0011
0000
0000
0001
,  // measure 51
0100
0000
0001
0000
0011
0000
1000
0000
0101
0000
0010
0000
1000
0000
0001
1000
,  // measure 52
0000
0001
0010
0100
1000
0000
0010
0000
0110
0000
0000
0000
1001
0000
0000
0010
,  // measure 53
1000
0000
0001
0000
1001
0000
1000
0000
0010
0000
0100
0000
0210
0000
0000
0310
,  // measure 54
1000
0000
0001
0000
0101
0000
0100
0000
0001
1000
0001
0000
1000
0000
0010
0000
,  // measure 55
0100
0000
0001
0000
1000
0001
1000
0000
0010
0000
1000
0000
0200
0000
0000
0010
,  // measure 56
0000
0000
0000
0010
0000
0000
0000
0000
0000
0010
0000
0000
0300
0000
0000
0110
0000
0000
0000
0000
0000
0000
0000
0000
0001
0000
0000
0000
0100
0000
0000
0000
0010
0000
0000
0000
1000
0000
0000
0000
0000
0000
0000
0000
0000
0100
0000
0000
,  // measure 57
0010
0000
0000
0010
0001
0000
0000
0001
1000
0000
0000
1000
0010
0000
0000
0010
,  // measure 58
0100
0000
0000
0100
0001
0000
1000
0000
1001
0000
0110
0000
0010
0000
1000
0001
,  // measure 59
0000
1000
0000
0010
0000
0100
0000
0001
0010
0100
0010
0000
0001
0000
1000
0100
,  // measure 60
0000
0010
0000
0100
0000
1000
0000
0001
1000
0010
1000
0000
0001
0000
0010
0000
,  // measure 61
0100
1000
0000
0100
0010
0001
0000
0010
0001
1000
0010
0000
1000
0010
0000
0100
,  // measure 62
0001
0010
0000
0100
1000
0000
0010
0100
0001
1000
0100
0000
0010
0000
0100
1000
,  // measure 63
0000
0001
0000
0100
0000
0010
0000
1000
0100
1000
0001
0000
0100
0000
0001
1000
,  // measure 64
0000
0100
0000
0001
0000
0100
0000
1000
0010
0100
0001
0000
1000
0000
0100
0000
,  // measure 65
0010
0100
0000
0010
0001
0000
0100
0001
0010
0000
0100
0000
1000
0010
0000
0001
,  // measure 66
0010
0000
1000
0100
0000
0001
0000
0100
1000
0010
0000
0000
0000
0000
0000
0000
;

//---------------dance-single - ----------------
#NOTES:
     dance-single:
     :
     Medium:
     12:
     0.505,0.506,0.146,0.180,0.214: // measure 1
0000
0000
0000
0000
,  // measure 2
0000
0000
0000
0000
,  // measure 3
0000
0000
0000
0000
,  // measure 4
0000
0000
0000
0000
,  // measure 5
0001
0001
0100
0100
,  // measure 6
0010
0010
1000
1000
,  // measure 7
0001
0010
0100
1000
0001
0100
0010
1000
,  // measure 8
0002
0023
0230
2300
,  // measure 9
3001
0100
0010
0000
1000
0100
0010
0000
,  // measure 10
0001
0000
0100
0000
0001
0000
1000
0001
0000
0001
1000
0000
0001
0000
0000
0000
,  // measure 11
1000
0010
1000
0000
0001
0100
0001
0000
,  // measure 12
1000
0010
0100
0001
0010
0100
1000
0000
,  // measure 13
0001
0100
1000
0000
1000
0100
0001
0000
,  // measure 14
1000
0000
0100
0000
0001
0000
0100
1000
0000
1000
0010
0000
0100
0000
0000
0000
,  // measure 15
0001
0010
0100
0000
1000
0010
0100
0000
,  // measure 16
0001
0000
0000
0010
0000
0000
0100
0000
1000
0000
0001
0000
0100
0001
0100
0001
,  // measure 17
0010
0001
0100
0000
0010
0001
0100
0000
,  // measure 18
0010
1000
0100
0000
0010
0001
0100
0000
,  // measure 19
0010
1000
0001
0000
0010
0001
1000
0000
,  // measure 20
0100
1000
0001
0000
0100
0001
1000
0000
,  // measure 21
0010
0000
0000
0100
0000
0000
0001
0000
0100
0000
0000
0010
0000
0000
0100
0000
,  // measure 22
0010
0000
0000
1000
0000
0000
0001
0000
0100
0000
0010
0000
1000
0001
1000
0000
,  // measure 23
0001
0000
1000
0000
0001
0000
0000
1000
0000
0010
0000
1000
0000
0000
0001
0000
,  // measure 24
2000
0000
0000
0000
,  // measure 25
3001
0000
0101
0000
0010
1000
0100
0010
,  // measure 26
0001
0000
1100
0000
0010
0001
0100
0010
,  // measure 27
1000
0000
0110
0000
0010
1000
0001
0100
,  // measure 28
0010
1001
0220
0000
,  // measure 29
0000
0000
0000
0000
0330
0000
0000
0000
0010
0000
0100
0000
0001
0000
0000
1000
,  // measure 30
0000
0001
0010
0000
0100
0000
1000
0000
0010
0000
0000
0100
0000
0001
0010
0000
,  // measure 31
0100
0000
1000
0000
0001
0000
0000
0100
0000
0010
1000
0000
0001
0000
0100
0000
,  // measure 32
0010
0000
0000
1000
0000
0001
0100
0000
0010
0000
1000
0000
0100
0000
0000
0000
,  // measure 33
0010
0001
0100
0000
0010
0001
0100
0000
,  // measure 34
0010
1000
0100
0000
0001
0010
0001
0010
,  // measure 35
0100
1000
0100
1000
0001
1000
0001
1001
,  // measure 36
1000
0000
0010
0000
0100
0000
0000
0001
0000
0000
0010
0000
0100
0000
0000
0000
,  // measure 37
1000
0000
0100
0000
1000
0000
0000
1000
0000
0000
0100
0000
0010
0000
0000
0000
,  // measure 38
0001
0000
0100
0000
0010
0000
0000
1000
0000
0000
0010
0000
0100
0000
0000
0000
,  // measure 39
0001
0000
0010
0000
0001
0000
0000
0001
0000
0000
0010
0000
0100
0000
1000
0000
,  // measure 40
0001
0000
0100
0000
0010
0000
0000
1000
0000
0000
0001
0000
0100
0000
0000
0000
,  // measure 41
0010
0000
1000
0000
0001
0000
0000
0001
0000
0000
0010
0000
0100
0000
0000
0000
,  // measure 42
1000
0000
0001
0000
0100
0000
0000
0100
0000
0000
0100
0000
0010
0000
0000
0000
,  // measure 43
1000
0000
0000
1010
0000
0000
0010
0000
0000
0110
0000
0000
0100
0000
0001
0000
,  // measure 44
0010
0100
1000
0001
0100
0010
1000
0001
,  // measure 45
0100
0010
1000
0100
0010
0001
2002
0000
,  // measure 46
0000
0000
3003
0220
,  // measure 47
0000
0000
0000
0000
,  // measure 48
0000
0000
0000
0000
0330
0000
0001
1000
,  // measure 49
0100
1000
0001
0100
0010
0000
1000
0010
,  // measure 50
0100
0001
0010
0100
1000
0000
0001
0100
,  // measure 51
0001
0000
0010
0000
0100
0000
1000
0000
0001
0000
0000
0000
0100
0000
0000
0100
,  // measure 52
0000
0100
0001
0010
1000
0000
0001
0100
,  // measure 53
1000
0100
0010
0001
0100
0000
0010
1000
,  // measure 54
0010
0001
1000
0100
0001
0000
0010
0100
,  // measure 55
1000
0001
0100
0010
1000
0100
0110
0000
,  // measure 56
1001
0000
0010
0100
0110
0000
0002
0000
,  // measure 57
2003
3002
0023
0230
,  // measure 58
2300
0000
0000
0000
3001
0000
0100
0000
0110
0000
1000
0000
0001
0000
0100
0001
,  // measure 59
0000
0001
0000
0000
1000
0000
0100
0000
0000
0000
0010
0000
0001
0000
0100
0001
,  // measure 60
0000
0010
0000
0000
0100
0000
1000
0000
0001
0000
0100
0000
0010
0000
0001
0000
,  // measure 61
0000
0010
1000
0100
0000
1000
0001
0010
,  // measure 62
0000
1000
0000
0000
0010
0000
0001
0000
0000
0000
1000
0000
0010
0000
0100
0001
,  // measure 63
0000
0100
0000
0001
0000
0010
0000
0000
0000
0000
0100
0000
1000
0000
0010
0100
,  // measure 64
0000
0001
0000
0100
0000
0010
0000
0000
0000
0000
1100
0000
1000
0000
0001
0000
,  // measure 65
0000
0000
0101
0000
0100
0000
0001
0000
0010
0000
0002
0000
0000
0023
0000
0000
,  // measure 66
0230
0000
0000
2300
0000
3001
0000
0010
0000
0110
0000
0000
0000
0000
0000
0000
;

//---------------dance-single - ----------------
#NOTES:
     dance-single:
     :
     Easy:
     7:
     0.260,0.309,0.017,0.249,0.000: // measure 1
0000
0000
0000
0000
,  // measure 2
0000
0000
0000
0000
,  // measure 3
0000
0000
0000
0000
,  // measure 4
0000
0000
0000
0000
,  // measure 5
0001
0100
0001
0000
,  // measure 6
1000
0100
1000
0000
,  // measure 7
0002
1003
2000
3001
,  // measure 8
0010
0010
0010
0010
,  // measure 9
0100
1000
0100
0001
,  // measure 10
0100
1000
0010
0000
,  // measure 11
0100
0001
0100
1000
,  // measure 12
0100
0001
0010
0000
,  // measure 13
0100
0001
1000
0100
,  // measure 14
0001
1000
0010
0000
,  // measure 15
0001
0100
0001
1000
,  // measure 16
0100
0010
0001
0000
,  // measure 17
2000
3000
0200
0300
,  // measure 18
0020
0030
0002
0003
,  // measure 19
0200
0300
0020
0030
,  // measure 20
2000
3000
0002
0003
,  // measure 21
1000
0000
0001
0000
,  // measure 22
1000
0000
0001
0000
,  // measure 23
1000
0100
0010
0001
,  // measure 24
2000
0000
0000
3000
,  // measure 25
0001
0010
0100
1000
,  // measure 26
0001
0010
1000
0010
,  // measure 27
0001
1000
0100
0000
1000
0001
0100
0000
,  // measure 28
0001
1000
0020
0000
,  // measure 29
0000
0030
1000
0001
,  // measure 30
2000
3000
0001
0000
1000
0000
0002
0003
,  // measure 31
1000
0000
0001
0000
2000
3000
0001
0000
,  // measure 32
1000
0000
0002
0003
2000
0000
3000
0000
,  // measure 33
0200
0300
0020
0030
,  // measure 34
0002
0003
0200
0300
,  // measure 35
0020
0000
0030
0000
2000
0000
0000
3000
,  // measure 36
0001
0100
0001
1000
,  // measure 37
0100
1000
0001
0000
,  // measure 38
1000
0010
0100
0001
,  // measure 39
0010
0100
1000
0000
,  // measure 40
0001
0010
0200
0300
,  // measure 41
1000
0010
0200
0300
,  // measure 42
0002
0003
2000
3000
,  // measure 43
0010
0100
0010
0000
,  // measure 44
1000
0000
0001
0000
0100
0000
0000
0001
,  // measure 45
0000
1000
0000
0100
0000
0000
2000
0000
,  // measure 46
0000
0000
3000
0002
,  // measure 47
0000
0000
0000
0000
,  // measure 48
0000
0000
0003
1000
,  // measure 49
0001
1000
0000
0001
,  // measure 50
1000
0001
0000
0010
,  // measure 51
0100
1000
0000
0001
,  // measure 52
0000
1001
0000
1000
,  // measure 53
0001
1000
0000
0001
,  // measure 54
0010
0100
0100
1000
,  // measure 55
0010
0100
0001
1001
,  // measure 56
0000
0000
0000
0010
,  // measure 57
0100
0010
0100
0001
,  // measure 58
1000
0000
0001
0000
1000
0000
0000
1000
,  // measure 59
0000
0000
0000
0001
0000
0000
0000
1000
,  // measure 60
0000
0001
0000
0010
0000
0100
0000
0000
,  // measure 61
0000
1000
0000
0000
0000
0010
0000
0000
,  // measure 62
0000
0100
0000
0000
0000
0001
0000
0100
,  // measure 63
0000
0010
0000
0000
0000
1000
0000
0100
,  // measure 64
0000
0010
0000
0000
0000
0001
0000
0000
,  // measure 65
0000
1000
0000
0000
1000
0000
0001
0000
,  // measure 66
1000
0010
0100
0000
;

//---------------dance-single - ----------------
#NOTES:
     dance-single:
     :
     Beginner:
     5:
     0.159,0.196,0.009,0.060,0.000: // measure 1
0000
0000
0000
0000
,  // measure 2
0000
0000
0000
0000
,  // measure 3
0000
0000
0000
0000
,  // measure 4
0000
0000
0000
0000
,  // measure 5
0001
0000
0000
0000
,  // measure 6
0001
0000
0000
0000
,  // measure 7
1000
0000
0100
0000
,  // measure 8
0010
0000
0000
0000
,  // measure 9
1001
0000
0000
0000
,  // measure 10
1000
0000
0000
0000
,  // measure 11
0001
0000
0000
0000
,  // measure 12
0100
0000
0100
0000
,  // measure 13
0100
0000
0000
0000
,  // measure 14
0010
0000
0000
0000
,  // measure 15
1000
0000
0001
0000
,  // measure 16
0100
0100
0100
0000
,  // measure 17
0100
0000
0001
0000
,  // measure 18
0010
0000
0100
0000
,  // measure 19
1000
0000
0001
0000
,  // measure 20
0100
0000
0010
0000
,  // measure 21
1000
0000
1000
0000
,  // measure 22
1000
0000
2000
0000
,  // measure 23
3000
0001
0000
0100
,  // measure 24
0200
0000
0300
0000
,  // measure 25
0010
0000
0100
0000
,  // measure 26
0001
0000
1000
0000
,  // measure 27
0100
0000
0010
0000
,  // measure 28
0001
0001
0001
0000
,  // measure 29
0000
0000
1000
0000
,  // measure 30
0001
1000
0000
0010
,  // measure 31
0100
0000
0001
1000
,  // measure 32
0000
0100
0010
0000
,  // measure 33
0010
0000
0010
0000
,  // measure 34
0010
0000
0010
0010
,  // measure 35
0010
0010
0020
0030
,  // measure 36
0001
0000
0100
0000
,  // measure 37
0010
0000
1000
0000
,  // measure 38
0100
0000
0010
0000
,  // measure 39
0001
0000
0100
0100
,  // measure 40
0100
0000
0010
0000
,  // measure 41
1000
0000
0001
0000
,  // measure 42
1000
0000
0100
0000
,  // measure 43
0001
0001
1000
0000
,  // measure 44
0000
0100
0000
0001
,  // measure 45
0000
1000
0000
0000
0000
0001
0000
0000
,  // measure 46
0010
0010
0000
1000
,  // measure 47
0000
0000
0000
0000
,  // measure 48
0000
0000
0000
0000
,  // measure 49
0000
0001
0000
1000
,  // measure 50
0000
0010
0000
0100
,  // measure 51
0000
0001
0000
0020
,  // measure 52
0000
0030
0000
0100
,  // measure 53
0000
0100
0000
1000
,  // measure 54
0000
0010
0000
0100
,  // measure 55
0000
0001
0000
2000
,  // measure 56
0000
0000
3000
0000
,  // measure 57
0000
1000
1000
1000
,  // measure 58
0000
0001
0001
0000
,  // measure 59
0000
1000
0000
0000
0000
0001
0000
0010
,  // measure 60
0000
0100
0000
0000
0000
1000
0000
0010
,  // measure 61
0000
0100
0000
0000
0000
0001
0000
1000
,  // measure 62
0000
0001
0000
0000
0000
0020
0000
0030
,  // measure 63
0000
0100
0000
0000
0000
2000
0000
3000
,  // measure 64
0000
0001
0000
0000
0000
1000
0000
0001
,  // measure 65
0000
1000
0000
0000
0000
0001
0000
1000
,  // measure 66
0000
0001
0000
0010
0000
0000
0000
0000
;
