#TITLE:天国と地獄;
#SUBTITLE:;
#ARTIST:Mutsuhiko Izumi;
#TITLETRANSLIT:Tengoku to Jigoku;
#SUBTITLETRANSLIT:;
#ARTISTTRANSLIT:;
#CREDIT:;
#BANNER:Tengoku to Jigoku.png;
#BACKGROUND:Tengoku to Jigoku-bg.png;
#LYRICSPATH:;
#CDTITLE:;
#MUSIC:Tengoku to Jigoku.mp3;
#OFFSET:-0.508;
#SAMPLESTART:29.089;
#SAMPLELENGTH:14.000;
#SELECTABLE:YES;
#BPMS:0.000=195.000;
#STOPS:;
#BGCHANGES:;

//---------------dance-single - ----------------
#NOTES:
     dance-single:
     :
     Hard:
     13:
     0.796,0.838,0.598,0.215,0.098: // measure 1
0000
0000
0000
0000
,  // measure 2
0000
0000
0000
0000
,  // measure 3
0000
0000
0000
0000
,  // measure 4
0000
0000
0000
0000
,  // measure 5
1000
0100
0010
0001
1000
0010
0100
0001
,  // measure 6
0010
0100
0010
0100
1000
0001
1000
0000
,  // measure 7
0001
0010
0100
0010
0001
1000
0100
0001
,  // measure 8
0100
0100
1000
1000
0010
0010
0001
0001
,  // measure 9
0010
1000
0100
0010
0100
1000
0010
0100
,  // measure 10
0001
0100
0010
0100
0001
0010
0100
0000
,  // measure 11
1000
0001
1000
0001
0100
0010
0100
0010
,  // measure 12
1000
1000
0100
0100
0010
0001
0100
0000
,  // measure 13
1100
0011
0101
1010
,  // measure 14
1000
0100
0001
0100
1000
0010
0100
0000
,  // measure 15
0101
1010
1100
0011
,  // measure 16
1000
0100
0001
0100
1000
0010
0100
0000
,  // measure 17
1010
0101
0011
1100
,  // measure 18
0010
1000
0100
0001
0100
1000
0010
0000
,  // measure 19
0011
1100
1010
0101
,  // measure 20
0001
0100
0010
0100
0001
0010
0001
1000
,  // measure 21
0001
0010
0100
0010
1000
0010
0100
0001
,  // measure 22
0100
0000
1000
0000
0001
0000
0100
0000
0010
0000
0000
1000
0010
0000
0000
1000
,  // measure 23
0001
0000
0000
1000
0100
0000
0000
1000
0001
0000
0000
0100
0001
0000
0000
0010
,  // measure 24
0001
0000
0000
0100
0020
0000
0000
0000
0130
0000
0000
0000
0110
0000
0000
0000
,  // measure 25
0010
1000
0100
0001
0100
0000
0110
0000
,  // measure 26
0001
0100
1000
0100
0001
0000
1001
0000
,  // measure 27
1000
0010
0001
0010
1000
0100
0010
0001
,  // measure 28
1000
0010
0100
0001
1000
0000
1001
0000
,  // measure 29
0001
0010
1000
0010
0001
0000
1001
0000
,  // measure 30
1000
0100
0001
0100
1000
0000
1010
0000
,  // measure 31
0010
0100
0001
0010
1000
0010
0001
0100
,  // measure 32
0010
0200
0301
1001
,  // measure 33
0001
0010
1000
0010
0100
0000
0110
0000
,  // measure 34
0100
1000
0010
0100
0001
0000
0101
0000
,  // measure 35
0100
0010
0100
0001
0010
0100
1000
0010
,  // measure 36
0100
0010
1000
0100
0010
0000
0110
0000
,  // measure 37
0100
1000
0010
0100
0001
0000
0101
0000
,  // measure 38
0100
0001
0100
1000
0100
0000
0110
0000
,  // measure 39
0010
1000
0010
0001
0010
1000
0100
0010
,  // measure 40
0001
0000
1001
0000
0001
0010
0001
0010
,  // measure 41
0100
1000
0100
1000
0010
0100
0010
0100
,  // measure 42
0001
1000
0001
0000
1000
0010
0100
0001
,  // measure 43
0010
0100
1000
0001
1000
1000
0100
0100
,  // measure 44
0010
0010
0001
0001
1000
0100
1000
0100
,  // measure 45
0010
0001
0010
0001
1000
0010
0100
0001
,  // measure 46
0010
0100
1000
0000
0001
0100
0010
0000
,  // measure 47
0001
0100
0010
0000
1000
0010
0100
0000
,  // measure 48
1000
0010
0100
0000
0001
0010
0001
0010
,  // measure 49
0100
1000
0100
1000
0001
0100
0010
1000
,  // measure 50
0100
0010
0001
0100
1000
0010
0001
0100
,  // measure 51
1000
0000
0010
0000
0001
1000
0001
1000
0001
0000
0000
0000
1001
0000
0000
0000
,  // measure 52
1000
0100
0010
0001
1001
0000
1001
0000
,  // measure 53
0001
0010
0100
1000
0110
0000
0110
0000
,  // measure 54
0010
1000
0010
0100
0001
0010
0100
1000
,  // measure 55
0001
0100
0010
0100
0010
0000
0110
0000
,  // measure 56
0010
1000
0100
0010
0011
0000
1100
0000
,  // measure 57
0001
0010
0100
1000
1100
0000
0011
0000
,  // measure 58
1000
0010
0100
0010
1000
0100
0010
0001
,  // measure 59
1000
0011
1100
0101
,  // measure 60
0001
0010
0100
1000
0110
0000
1001
0000
,  // measure 61
0001
0100
0010
1000
1001
0000
0110
0000
,  // measure 62
0001
0010
0100
1000
0100
0010
0001
0100
,  // measure 63
0010
1000
0100
0001
0110
0000
1001
0000
,  // measure 64
1000
0010
0001
0010
1010
0000
0101
0000
,  // measure 65
0010
1000
0100
0010
0110
0000
1001
0000
,  // measure 66
0001
0100
0001
0100
0101
0000
2010
0000
,  // measure 67
3200
0000
0320
0000
0031
0010
0100
1000
,  // measure 68
0001
0100
0010
1000
1001
0000
0102
0000
,  // measure 69
0203
0000
0320
0000
1030
0100
0001
0100
,  // measure 70
1000
0000
0010
0000
0100
0000
0001
0000
1001
0000
0001
0010
0001
0000
1000
0000
,  // measure 71
0010
0000
0100
0000
0001
0000
1000
0000
0010
0000
0100
0001
0100
0000
0010
0000
,  // measure 72
1000
0000
0001
0000
0010
0000
0100
0000
1000
0000
0010
1000
0010
0000
0100
0000
,  // measure 73
0001
0000
0010
0000
0100
0000
0010
0000
0001
0000
1000
0100
1000
0000
0001
0000
,  // measure 74
0010
0001
0010
0001
0100
0010
0100
0010
0200
0000
0000
0000
0302
0000
0000
0000
,  // measure 75
0023
0230
2300
3020
,  // measure 76
0230
0301
1001
2000
,  // measure 77
3020
0230
0302
0023
,  // measure 78
0230
0000
0000
0000
1300
0000
0000
0000
1001
0000
1000
0100
1000
0000
0100
1000
,  // measure 79
0100
0000
1000
0100
1000
0000
0100
1000
0100
0000
0000
0000
0000
0000
0000
0000
,  // measure 80
0101
0000
1010
0000
,  // measure 81
0110
0000
2002
0000
,  // measure 82
0000
3003
0110
0000
;

//---------------dance-single - ----------------
#NOTES:
     dance-single:
     :
     Medium:
     11:
     0.667,0.571,0.561,0.346,0.000: // measure 1
0000
0000
0000
0000
,  // measure 2
0000
0000
0000
0000
,  // measure 3
0000
0000
0000
0000
,  // measure 4
0000
0000
0000
0000
,  // measure 5
1000
0100
0010
0000
1000
0100
0010
0000
,  // measure 6
1000
0100
0010
0100
1000
0001
0100
0000
,  // measure 7
0001
0100
0010
0000
0001
0100
0010
0000
,  // measure 8
0001
0020
0100
0000
1000
0000
0130
0000
,  // measure 9
0001
0100
0010
0000
0001
0100
0010
0000
,  // measure 10
0001
0100
0010
1000
0100
1000
0001
0000
,  // measure 11
0100
0001
0100
0000
0010
1000
0010
0000
,  // measure 12
1000
0200
0010
0000
1000
0000
0310
0000
,  // measure 13
0002
0023
0230
2300
,  // measure 14
3001
0100
0001
0000
1000
0100
1000
0000
,  // measure 15
0002
0203
0320
2030
,  // measure 16
3001
0100
0010
0000
0100
0010
1000
0000
,  // measure 17
0002
2003
3020
0230
,  // measure 18
0301
0100
1000
0000
1000
0100
0001
0000
,  // measure 19
2000
3020
0230
0302
,  // measure 20
1003
0100
0010
0000
0001
0100
0010
0000
,  // measure 21
0001
0010
0100
0000
0010
1000
0100
0000
,  // measure 22
1000
0100
1000
0000
0100
0000
1010
0000
,  // measure 23
0100
0011
0010
1100
,  // measure 24
0010
0101
2002
3003
,  // measure 25
0001
0100
0001
0000
1001
0000
0101
0000
,  // measure 26
1000
0100
1000
0000
1001
0000
1100
0000
,  // measure 27
0001
0010
0001
0000
1000
0010
0100
0010
,  // measure 28
0001
1001
0220
0330
,  // measure 29
1000
0010
1000
0000
1001
0000
1010
0000
,  // measure 30
0001
0010
0001
0000
1001
0000
0011
0000
,  // measure 31
1000
0001
1000
0000
0001
0010
0100
1000
,  // measure 32
0001
1000
0220
0330
,  // measure 33
1000
0001
0100
0000
1001
0000
1100
0000
,  // measure 34
0001
1000
0100
0000
1001
0000
0101
0000
,  // measure 35
1000
0001
0100
0000
0001
0010
0100
0001
,  // measure 36
0100
1100
0022
0033
,  // measure 37
0010
1000
0100
0000
1010
0000
1100
0000
,  // measure 38
0010
0001
0100
0000
0011
0000
0101
0000
,  // measure 39
0010
1000
0100
0000
0010
0001
0010
0100
,  // measure 40
1000
0000
1001
0000
0001
0010
0001
0000
,  // measure 41
1000
0100
1000
0000
0001
0100
1000
0100
,  // measure 42
0001
0010
0100
0000
1000
0100
1000
0000
,  // measure 43
0001
0100
0001
0000
1000
0010
0100
0000
,  // measure 44
0001
0100
0010
0000
1000
0010
1000
0000
,  // measure 45
0100
0001
0100
0000
1000
0010
0001
0010
,  // measure 46
1000
0100
0001
0000
1000
0010
0001
0000
,  // measure 47
1000
0010
0001
0000
1000
0100
0010
0000
,  // measure 48
1000
0100
0010
0000
0001
1000
0010
0000
,  // measure 49
0001
1000
0100
0000
0001
1000
0100
0000
,  // measure 50
0001
1000
0010
0000
0001
0100
1000
0100
,  // measure 51
0001
0010
1000
0010
0002
0000
0003
0000
,  // measure 52
1000
0100
0001
0000
1100
0000
0101
0000
,  // measure 53
1000
0100
0001
0000
0101
0000
1100
0000
,  // measure 54
0001
0010
1000
0000
0010
0001
0100
0010
,  // measure 55
1000
0101
2200
3300
,  // measure 56
0001
0100
1000
0000
0101
0000
1100
0000
,  // measure 57
0001
0100
1000
0000
1100
0000
0101
0000
,  // measure 58
0001
0010
0100
0000
1000
0100
0001
0100
,  // measure 59
1000
0001
2002
3003
,  // measure 60
1000
0010
0001
0000
1010
0000
0011
0000
,  // measure 61
1000
0100
0001
0000
1100
0000
0101
0000
,  // measure 62
1000
0100
0001
0000
0100
1000
0010
0100
,  // measure 63
0001
1010
0202
0303
,  // measure 64
1000
0100
0001
0000
1100
0000
0101
0000
,  // measure 65
1000
0010
0001
0000
1010
0000
0011
0000
,  // measure 66
1000
0010
0100
0000
0001
0000
1000
0000
,  // measure 67
0001
0000
1000
0000
0001
0010
0100
1000
,  // measure 68
0001
1100
0101
1000
,  // measure 69
0010
0000
0100
0000
0001
0010
1000
0010
,  // measure 70
0001
0000
1100
0000
0101
0000
1000
0100
,  // measure 71
0010
0001
1000
0100
0010
0000
0001
0010
,  // measure 72
0100
1000
0001
0010
0100
0000
1000
0010
,  // measure 73
0100
0001
0100
0010
1000
0000
0001
0010
,  // measure 74
0100
0010
0001
1000
0010
0000
0100
0000
,  // measure 75
0001
0100
0001
0010
,  // measure 76
0100
0010
0110
1000
,  // measure 77
1100
0001
0101
0010
,  // measure 78
0101
0010
2100
3002
,  // measure 79
0203
0320
1030
0000
,  // measure 80
0001
0000
0101
0000
,  // measure 81
1000
0000
1100
0000
,  // measure 82
0000
0000
0110
0000
;

//---------------dance-single - ----------------
#NOTES:
     dance-single:
     :
     Easy:
     7:
     0.418,0.647,0.131,0.327,0.000: // measure 1
0000
0000
0000
0000
,  // measure 2
0000
0000
0000
0000
,  // measure 3
0000
0000
0000
0000
,  // measure 4
0000
0000
0000
0000
,  // measure 5
1000
0100
1000
0100
,  // measure 6
0010
0001
0010
0000
,  // measure 7
0001
0100
0001
0100
,  // measure 8
0010
1000
0100
0000
,  // measure 9
0001
0010
0100
1000
,  // measure 10
0100
0010
0001
0000
,  // measure 11
1000
0100
0010
0001
,  // measure 12
0010
0100
1000
0000
,  // measure 13
0002
0000
0100
0103
,  // measure 14
0200
0000
0010
0310
,  // measure 15
0020
0000
1000
1030
,  // measure 16
2000
0000
0100
3100
,  // measure 17
0200
0000
0010
0310
,  // measure 18
0020
0000
0001
0031
,  // measure 19
0002
0000
1000
1003
,  // measure 20
1000
0001
0010
0100
,  // measure 21
1000
0100
0010
0100
,  // measure 22
1000
0100
0010
0001
,  // measure 23
0010
0001
0010
0001
,  // measure 24
0010
0100
0110
0000
,  // measure 25
1000
0001
1000
1000
,  // measure 26
0001
1000
0001
0001
,  // measure 27
0010
0100
0010
0010
,  // measure 28
0001
0001
1001
0000
,  // measure 29
1000
0010
1000
1000
,  // measure 30
0010
1000
0010
0010
,  // measure 31
0100
0001
0010
0100
,  // measure 32
1000
0001
1001
0000
,  // measure 33
0001
0100
0001
0001
,  // measure 34
0100
0001
0100
0100
,  // measure 35
0010
1000
0100
0010
,  // measure 36
0001
0010
0110
0000
,  // measure 37
0100
1000
0100
0100
,  // measure 38
0010
0001
0010
0010
,  // measure 39
0001
0100
0010
1000
,  // measure 40
0001
1000
0001
0001
,  // measure 41
1000
1000
0010
0100
,  // measure 42
0010
0000
1000
1000
,  // measure 43
0001
0001
0010
0100
,  // measure 44
1000
0000
0001
1000
,  // measure 45
0100
0010
0100
1000
,  // measure 46
0001
0000
2000
3000
,  // measure 47
0002
0003
0200
0300
,  // measure 48
0020
0030
2000
3000
,  // measure 49
0002
0003
0020
0030
,  // measure 50
0200
0300
2000
0000
,  // measure 51
0002
3003
1001
0000
,  // measure 52
0010
0100
0010
0010
,  // measure 53
1000
0100
1000
1000
,  // measure 54
0001
0010
0100
0010
,  // measure 55
0001
1000
1001
0000
,  // measure 56
0001
0010
0001
0001
,  // measure 57
0010
0100
0010
0010
,  // measure 58
0100
1000
0010
0100
,  // measure 59
0001
1000
1001
0000
,  // measure 60
0010
1000
0010
0010
,  // measure 61
1000
0100
0001
0001
,  // measure 62
0100
1000
0010
0100
,  // measure 63
0001
0010
0110
0000
,  // measure 64
0001
0100
0010
0010
,  // measure 65
0100
0001
0010
0010
,  // measure 66
0100
1000
0010
1000
,  // measure 67
1000
1000
1000
1000
,  // measure 68
1000
1000
1000
0001
,  // measure 69
0001
0001
0001
0001
,  // measure 70
0001
0001
0002
0023
,  // measure 71
0230
2300
3002
0023
,  // measure 72
0230
2300
3002
0203
,  // measure 73
0320
2030
3002
0203
,  // measure 74
0320
2030
3001
0000
,  // measure 75
1001
0000
1000
0000
,  // measure 76
1001
0000
0010
0000
,  // measure 77
0110
0000
0100
0000
,  // measure 78
0110
0000
1000
0100
,  // measure 79
0010
0001
1000
0000
,  // measure 80
0001
0000
0100
0000
,  // measure 81
0010
0000
0220
0000
,  // measure 82
0330
0000
1001
0000
;

//---------------dance-single - ----------------
#NOTES:
     dance-single:
     :
     Beginner:
     4:
     0.174,0.190,0.075,0.019,0.000: // measure 1
0000
0000
0000
0000
,  // measure 2
0000
0000
0000
0000
,  // measure 3
0000
0000
0000
0000
,  // measure 4
0000
0000
0000
0000
,  // measure 5
1000
0000
0001
0000
,  // measure 6
1000
0000
0000
0000
,  // measure 7
0001
0000
1000
0000
,  // measure 8
0001
0000
0000
0000
,  // measure 9
0010
0000
0100
0000
,  // measure 10
0010
0000
0000
0000
,  // measure 11
0100
0000
0010
0000
,  // measure 12
0100
0000
0000
0000
,  // measure 13
1001
0000
0000
0000
,  // measure 14
0000
0000
0000
0000
,  // measure 15
0110
0000
0000
0000
,  // measure 16
0000
0000
0000
0000
,  // measure 17
1001
0000
0000
0000
,  // measure 18
0000
0000
0000
0000
,  // measure 19
0110
0000
0000
0000
,  // measure 20
0000
0000
0010
0000
,  // measure 21
0010
0000
0010
0000
,  // measure 22
0010
0000
0100
0000
,  // measure 23
0100
0000
0100
0000
,  // measure 24
0100
0000
0100
0000
,  // measure 25
0000
0000
0001
0001
,  // measure 26
0000
0000
1000
1000
,  // measure 27
0000
0000
0010
0000
,  // measure 28
0010
0000
0010
0000
,  // measure 29
0000
0000
0001
0001
,  // measure 30
0000
0000
1000
1000
,  // measure 31
0000
0000
0010
0000
,  // measure 32
0010
0000
0010
0000
,  // measure 33
0000
0000
0100
0100
,  // measure 34
0000
0000
0010
0010
,  // measure 35
0000
0000
1000
0000
,  // measure 36
1000
0000
0001
0000
,  // measure 37
0000
0000
0010
0010
,  // measure 38
0000
0000
0100
0100
,  // measure 39
0000
0000
1000
0000
,  // measure 40
1000
0000
0001
0000
,  // measure 41
0001
0000
0010
0000
,  // measure 42
0000
0000
0010
0000
,  // measure 43
0100
0000
0100
0000
,  // measure 44
0000
0000
1000
0000
,  // measure 45
1000
0000
0001
0000
,  // measure 46
0000
0000
1000
0000
,  // measure 47
0001
0000
1000
0000
,  // measure 48
0001
0000
1000
0000
,  // measure 49
0001
0000
1000
0000
,  // measure 50
0001
0000
1000
0000
,  // measure 51
0000
0000
0010
0000
,  // measure 52
0000
0000
0010
0010
,  // measure 53
0000
0000
0100
0100
,  // measure 54
0000
0000
0001
0000
,  // measure 55
1000
0000
0010
0000
,  // measure 56
0000
0000
0100
0100
,  // measure 57
0000
0000
0010
0010
,  // measure 58
0000
0000
0100
0000
,  // measure 59
0001
0000
0010
0000
,  // measure 60
0000
0000
0100
0100
,  // measure 61
0000
0000
1000
1000
,  // measure 62
0000
0000
0100
0000
,  // measure 63
0010
0000
0001
0000
,  // measure 64
0000
0000
1000
1000
,  // measure 65
0000
0000
0010
0010
,  // measure 66
0000
0000
0100
0000
,  // measure 67
0001
0000
0100
0000
,  // measure 68
0001
0000
1000
0000
,  // measure 69
0010
0000
1000
0000
,  // measure 70
0010
0000
2000
0000
,  // measure 71
0000
3000
0000
0000
,  // measure 72
0000
0000
0002
0000
,  // measure 73
0000
0003
0000
0000
,  // measure 74
0000
0000
0010
0000
,  // measure 75
0010
0000
0010
0000
,  // measure 76
0010
0000
0100
0000
,  // measure 77
0100
0000
0100
0000
,  // measure 78
0100
0000
0010
0000
,  // measure 79
0100
0000
0110
0000
,  // measure 80
0000
0000
1001
0000
,  // measure 81
0000
0000
0110
0000
,  // measure 82
0000
0000
1001
0000
;
