#TITLE:TRANOID;
#SUBTITLE:;
#ARTIST:T&S seq. factory;
#TITLETRANSLIT:;
#SUBTITLETRANSLIT:;
#ARTISTTRANSLIT:;
#CREDIT:;
#BANNER:TRANOID.png;
#BACKGROUND:TRANOID-bg.png;
#LYRICSPATH:;
#CDTITLE:cdtitle.png;
#MUSIC:TRANOID.mp3;
#OFFSET:0.485;
#SAMPLESTART:59.860;
#SAMPLELENGTH:12.000;
#SELECTABLE:YES;
#BPMS:0.000=130.000,84.000=180.000,88.000=185.000,92.000=190.000;
#STOPS:;
#BGCHANGES:-0.125=TRANOID.avi=1.000=1=0=0,
99999=-nosongbg-=1.000=0=0=0 // don't automatically add -songbackground-
;

//---------------dance-single - ----------------
#NOTES:
     dance-single:
     :
     Hard:
     14:
     0.789,0.740,0.178,0.545,0.765:
0000
0000
0000
0000
,
0001
0000
1000
0100
1000
0100
1000
0000
0001
0100
0001
0100
,
0001
0000
1000
0010
1000
0010
1000
0000
0001
0100
0000
0001
,
0100
0000
0010
1000
0100
1000
0010
0000
0100
0001
0010
0001
,
0100
0000
0001
1000
0010
1000
0001
0000
1000
0001
0000
0100
,
0002
0000
0000
0000
0000
0000
1003
0001
0100
0001
1000
0010
,
0100
0010
1000
0100
0010
0001
0010
0100
1000
0010
0100
0001
,
0020
0000
0000
0000
0000
0000
0031
0100
0001
0100
0010
1000
,
0010
0000
0010
1000
0000
1000
0001
0000
0001
0100
0000
0001
,
0200
0000
0000
0000
0000
0000
0301
1000
0001
1000
0010
0100
,
0010
0000
0100
0010
1000
0010
0100
0001
0010
0100
0010
0001
,
2000
0000
0000
0000
0000
0000
3001
0010
0100
1000
0010
0100
,
0002
0000
0000
1003
0000
0001
0000
0000
1000
0001
0000
0001
,
2000
0000
0000
0000
0000
0000
3010
0100
0010
0100
0001
1000
,
0001
1000
0100
0010
0001
0010
0100
1000
0001
0010
0001
1000
,
0200
0000
0000
0000
0000
0000
0310
0001
1000
0100
1000
0001
,
0010
0100
1000
0001
0100
0100
0010
1000
1000
0001
0010
0010
,
0200
0000
0000
0000
0000
0000
1300
0010
1000
0010
1000
0001
,
0100
0001
0100
0001
0010
0100
0010
0100
0010
0001
0100
0010
,
2000
0000
0000
0000
0000
0000
3001
0010
0100
0010
0001
1000
,
0020
0000
0200
0000
,
0330
0000
0000
0000
,
1001
0000
0001
0100
0001
0000
1000
0000
0010
0000
0100
0000
0001
0000
0010
0000
,
0100
1000
0100
0010
0001
1000
0010
1000
,
0010
0100
0001
0100
0001
0010
0100
1000
,
0100
0000
0100
0000
0010
0000
0010
0000
0100
0000
1000
0000
0001
1000
0001
1000
,
0001
0000
1000
0100
1000
0000
0001
0000
0010
0000
0100
0000
1000
0000
0010
0000
,
0100
0010
1000
0100
0010
1000
0010
0001
,
0100
1000
0100
0001
0100
1000
0100
0001
,
1000
0000
1000
0000
0001
0000
0001
0000
0010
0000
0100
0000
1000
0001
1000
0000
,
0001
0100
0000
0010
0000
0100
0001
0000
1000
0100
0000
0010
0000
0100
1000
0000
,
0001
0000
0010
0000
0100
0000
1000
0000
0010
0000
1000
0000
0100
1000
0100
0000
,
0010
0001
0000
0010
0000
0001
0100
0000
0010
1000
0000
0100
0000
1000
0100
0000
,
1000
0010
0100
0010
1000
0110
0000
0001
,
1000
0001
0000
0100
0000
0001
1000
0000
0010
0100
0000
0001
0000
0100
0010
0000
,
1000
0000
0010
0000
0100
0000
0010
0000
1000
0100
1000
0000
0001
0010
0001
0000
,
1000
0010
0000
0100
0000
0010
0100
0000
0001
0010
0000
0100
0000
0010
0100
0000
,
1000
0000
0010
0000
0100
0000
0001
0000
0010
0000
0100
0000
1000
0001
1000
0001
,
2000
0000
3020
0000
0230
0000
0301
0010
,
0200
0320
0031
0110
,
2000
0000
3002
0000
0203
0000
0310
1000
,
0002
0000
0203
0000
1300
0000
0101
0100
,
0002
0000
0023
0000
0230
0000
1300
0001
,
0200
0320
2030
3002
,
1003
0001
1000
0000
0001
0000
0001
0000
0100
0010
0100
0000
0010
0000
0010
0000
,
1000
0000
0010
0000
0100
0000
0001
0000
1000
0100
1000
0000
0020
0000
0000
0000
,
0230
0000
0302
0000
2003
0000
3010
0100
,
0101
1010
0101
0110
,
2000
0000
3002
0000
0203
0000
0310
1000
,
1001
0000
0101
0000
0110
0000
1001
0001
,
2000
0000
3002
0000
0203
0000
0310
1000
,
0110
0101
0110
1100
,
1000
0100
1000
0000
0001
0000
0001
0000
1000
0010
1000
0000
0001
0000
0001
0000
,
1000
0000
0010
0000
1000
0000
0001
0000
1000
0010
1000
0000
0020
0000
0000
0000
,
1030
0010
1000
0000
0001
0000
0100
0000
0001
0100
0001
0000
1000
0000
0010
0000
,
0100
0000
0001
0000
0010
0000
0001
0000
1000
0100
1000
0000
0001
0010
0001
0000
,
1000
0010
1000
0000
0001
0000
0100
0000
0010
1000
0010
0000
1000
0000
0100
0000
,
2000
0100
3200
0010
0320
0001
0032
0100
,
0203
0010
0320
1000
1030
0010
0100
0002
,
2000
0000
0003
3020
,
0200
0000
0030
0302
,
1003
0000
2002
3003
0000
0000
0000
0000
;

//---------------dance-single - ----------------
#NOTES:
     dance-single:
     :
     Medium:
     11:
     0.542,0.482,0.157,0.377,0.220:
0000
0000
0000
0000
,
0001
0000
0001
0100
0000
0000
0010
0000
0010
1000
0000
0000
,
0001
0000
0001
0100
0000
0000
0010
0000
0010
1000
0000
0010
,
1000
0000
1000
0001
0000
0000
0100
0000
0100
0010
0000
0000
,
1000
0000
1000
0001
0000
0000
0010
0000
0010
0100
0000
0010
,
0200
0000
0000
0000
0000
0000
1300
0000
0001
0100
0000
0000
,
0010
0000
0010
1000
0000
0000
0001
0000
0001
1000
0000
0000
,
0020
0000
0000
0000
0000
0000
0130
0000
0100
0001
0000
0000
,
1000
0000
1000
0010
0000
0000
1000
0000
1000
0001
0000
1000
,
0002
0000
0000
0000
0000
0000
0103
0000
0100
0001
0000
0000
,
1000
0000
1000
0010
0000
0000
0100
0000
0100
0001
0000
0000
,
2000
0000
0000
0000
0000
0000
3001
0000
0001
1000
0000
0000
,
0020
0000
0000
0100
0000
0130
0000
0000
0000
1001
0000
0000
,
0002
0000
0000
0000
0000
0000
1003
0000
1000
0001
0000
0000
,
1000
0000
1000
0010
0000
0000
0100
0000
0100
0001
0000
0000
,
2000
0000
0000
0000
0000
0000
3001
0000
0001
0100
0000
0000
,
0010
0000
0010
1000
0000
0010
1000
0000
0001
0100
0000
0001
,
0200
0000
0000
0000
0000
0000
0310
0000
0010
1000
0000
0000
,
0100
0000
0100
0010
0000
0000
0001
0000
0001
0100
0000
0000
,
0002
0000
0000
0000
0000
0000
1003
0000
1000
0001
0000
0000
,
2000
0000
3002
0000
,
0003
0000
0000
0000
,
1001
0000
1000
0100
1000
0000
0001
0010
,
0001
0000
0010
0100
0010
0000
0001
0100
,
0001
0000
1000
0010
1000
0000
0001
0100
,
0001
0000
1000
0010
0100
0010
1000
0000
,
1001
0000
0001
0100
0001
0000
1000
0100
,
1000
0000
0001
0010
0001
0000
1000
0010
,
1000
0000
0001
0010
0100
0000
1000
0100
,
0010
0000
0001
0100
0010
0100
0001
0000
,
1000
0000
0000
1000
0000
0000
1000
0000
0001
0000
0000
0001
0000
0000
0001
0000
,
1000
0101
1000
0101
,
0001
0000
0000
0001
0000
0000
0001
0000
1000
0000
0000
1000
0000
0000
1000
0000
,
0001
0000
1010
0000
0002
1000
0003
0000
,
0010
0000
0000
0100
0000
0000
0010
0000
1000
0000
0000
0001
0000
0000
1000
0000
,
0001
1001
0001
1001
,
1000
0000
0000
0010
0000
0000
0100
0000
0001
0000
0000
0100
0000
0000
0010
0000
,
0100
0001
1000
0010
,
2000
0000
3001
0000
0002
0000
1003
0001
,
0200
0310
1000
1001
,
2000
0000
3010
0000
0200
0000
0301
0010
,
0002
1003
0010
0110
,
0002
0000
0013
0000
0200
0000
1300
0001
,
2000
3010
0200
0301
,
1000
0010
0100
0000
0001
0010
0100
0000
,
1000
0001
1000
0001
1000
0000
1001
0000
,
0020
0000
1030
0000
0002
0000
0103
0001
,
0200
0310
1000
1001
,
0002
0000
0103
0000
0020
0000
0130
0001
,
2000
3001
0100
0101
,
0020
0000
1030
0000
0002
0000
0103
0010
,
2000
3001
0200
0310
,
1000
0100
1000
0000
0001
0100
0001
0000
,
1000
0010
1000
0010
1000
0000
1001
0000
,
0001
0010
0001
0000
1000
0010
1000
0000
,
1000
0010
0100
0001
0100
0010
1000
0100
,
0010
0001
0010
0000
0100
1000
0100
0000
,
0010
0001
0010
0001
1000
0100
1000
0100
,
1000
0010
1000
0010
0100
0001
0100
0001
,
2000
0000
0000
3002
,
0203
0000
0000
0320
,
1030
1001
0000
0000
;

//---------------dance-single - ----------------
#NOTES:
     dance-single:
     :
     Easy:
     6:
     0.400,0.546,0.126,0.587,0.000:
0000
0000
0000
0000
,
1000
0001
1000
0001
,
1000
0010
1000
0000
,
0001
1000
0001
1000
,
0001
0010
0001
0000
,
2000
3000
0010
0100
,
0001
0000
0100
0001
,
2000
3000
0001
1000
,
0001
0000
0000
0000
,
0002
0003
0100
0010
,
0100
0000
0001
0100
,
0020
0030
1000
0100
,
1000
0000
1001
0000
,
2000
3000
0001
1000
,
0001
0000
0010
0100
,
0020
0030
0100
1000
,
0010
0100
0001
0100
,
0020
0030
1000
0100
,
1000
0000
0010
1000
,
0020
0030
0100
0010
,
0100
0000
0010
0000
,
1001
0000
0000
0000
,
1000
0001
1000
0010
,
1000
0100
1000
0000
,
0001
1000
0001
0100
,
0001
0010
0001
0000
,
1000
0010
0100
0001
,
0010
0100
1000
0000
,
0001
0100
0010
0100
,
0001
1000
0100
0000
,
2000
3001
0002
1003
,
0001
1000
1001
0000
,
0002
1003
2000
3001
,
1000
0001
1001
0000
,
0020
0130
0200
0310
,
0100
0010
0110
0000
,
0200
0310
0020
0130
,
0100
0001
1000
0100
,
2000
3200
0320
0032
,
1003
0001
1001
0000
,
2000
3020
0230
0302
,
1003
0001
1001
0000
,
0002
0023
0230
2300
,
3002
0203
0320
2030
,
3001
0001
1000
1000
,
0001
0010
0110
0000
,
0002
0023
0230
2300
,
3001
1000
1001
0000
,
0002
0203
0320
2030
,
3001
1000
1001
0000
,
2000
3020
0230
0302
,
2003
3200
0320
0032
,
1003
1000
0001
0001
,
1000
0100
0110
0000
,
2000
3001
0002
1003
,
0001
1000
0001
1000
,
0002
1003
2000
3001
,
2000
0010
0000
3010
,
0002
0100
0000
0103
,
2000
0000
3000
0010
,
0200
0000
0300
0001
,
1000
1001
0000
0000
;

//---------------dance-single - ----------------
#NOTES:
     dance-single:
     :
     Beginner:
     1:
     0.114,0.160,0.063,0.136,0.000:
0000
0000
0000
0000
,
1000
0000
0000
0000
,
1000
0000
0000
0000
,
2000
0000
0000
3000
,
0000
0000
0000
0000
,
0001
0000
0000
0000
,
0001
0000
0000
0000
,
0002
0000
0000
0003
,
0000
0000
0000
0000
,
0010
0000
0000
0000
,
0010
0000
0000
0000
,
0020
0000
0000
0030
,
0000
0000
0000
0000
,
0100
0000
0000
0000
,
0100
0000
0000
0000
,
0200
0000
0000
0300
,
0000
0000
0000
0000
,
1000
0000
0000
0000
,
0001
0000
0000
0000
,
0110
0000
0000
0000
,
0000
0000
0000
0000
,
1001
0000
0000
0000
,
1000
0000
0000
0000
,
0001
0000
0000
0000
,
0100
0000
0000
0000
,
0010
0000
0000
0000
,
1000
0000
2000
0000
,
0000
3000
0000
0000
,
0001
0000
0002
0000
,
0000
0003
0000
0000
,
1000
0000
1000
0000
,
2000
0000
3000
0000
,
0001
0000
0001
0000
,
0002
0000
0003
0000
,
0100
0000
0100
0000
,
0200
0000
0300
0000
,
0010
0000
0010
0000
,
0020
0000
0030
0000
,
1000
0000
0000
0000
,
0001
0000
0000
0000
,
0100
0000
0100
0000
,
0100
0000
0000
0000
,
0001
0000
0000
0000
,
1000
0000
0000
0000
,
0010
0000
0010
0000
,
0010
0000
0000
0000
,
0200
0000
0000
0300
,
0000
0000
0000
0000
,
0020
0000
0000
0030
,
0000
0000
0000
0000
,
2000
0000
0000
3000
,
0000
0000
0000
0000
,
0001
0000
0000
0000
,
1000
0000
0000
0000
,
1001
0000
0000
0000
,
0000
0000
0000
0000
,
1000
0000
0000
0000
,
0001
0000
0000
0000
,
1001
0000
0000
0000
,
0110
0000
0000
0000
,
0000
0000
0000
0000
,
1001
0000
0000
0000
;

//---------------dance-double - ----------------
#NOTES:
     dance-double:
     :
     Hard:
     14:
     0.731,0.674,0.241,0.430,0.587: // measure 1
00000000
00000000
00000000
00000000
,  // measure 2
00011000
00000000
00010000
00100000
01000000
00100000
00010000
00000000
00001000
00000100
00000010
00000100
,  // measure 3
00001000
00000000
00010000
01000000
00100000
01000000
00010000
00000000
00001000
00001000
00000000
00010000
,  // measure 4
00010000
00000000
00001000
00000100
00000010
00000100
00001000
00000000
00010000
00100000
01000000
00100000
,  // measure 5
00010000
00000000
00001000
00000010
00000100
00000010
00001000
00000000
00010000
00010000
00000000
00001000
,  // measure 6
00002000
00000000
00000000
00000000
00000000
00000000
00013000
01000000
00010000
01000000
10000000
00100000
,  // measure 7
01000000
00010000
01000000
00100000
10000000
01000000
00010000
00001000
00010000
00001000
00000100
00000001
,  // measure 8
00000200
00000000
00000000
00000000
00000000
00000000
00000310
00001000
00000100
00001000
00000010
00000100
,  // measure 9
00000001
00000000
00000001
00000100
00000000
00000100
00000010
00000000
00000010
00001000
00000000
00000010
,  // measure 10
00002000
00000000
00000000
00000000
00000000
00000000
00003100
00010000
00001000
00010000
00000100
00001000
,  // measure 11
00000010
00000000
00010000
00001000
00100000
00010000
01000000
00100000
10000000
01000000
00100000
00010000
,  // measure 12
02000000
00000000
00000000
00000000
00000000
00000000
03001000
00010000
00001000
01000000
00010000
01000000
,  // measure 13
00002000
00000000
00000000
00013000
00000000
00000100
00000000
00000000
00000000
00010100
00000000
00000000
,  // measure 14
00001200
00000000
00000000
00000000
00000000
00000000
00010300
00001000
00010000
00001000
00000100
00000001
,  // measure 15
00000010
00000001
00000010
00000100
00001000
00000010
00010000
00001000
00010000
00000100
00010000
00001000
,  // measure 16
02000000
00000000
00000000
00000000
00000000
00000000
03010000
00100000
01000000
10000000
01000000
00100000
,  // measure 17
00010000
01000000
01000000
00001000
00010000
00010000
00000100
00001000
00001000
00000010
00000100
00000100
,  // measure 18
00000002
00000000
00000000
00000000
00000000
00000000
00000103
00000001
00000100
00000010
00000100
00000001
,  // measure 19
00000010
00000100
00001000
00010000
00100000
01000000
10000000
00100000
01000000
00100000
10000000
01000000
,  // measure 20
00200000
00000000
00000000
00000000
00000000
00000000
00310000
01000000
00010000
00100000
00001000
00100000
,  // measure 21
00002000
00000000
00023000
00000000
,  // measure 22
00031000
00000000
00000000
00000000
,  // measure 23
11000000
01000000
00010000
01000000
10000000
01000000
00010000
01000000
,  // measure 24
10000000
00100000
00010000
00100000
10000000
00100000
00010000
00100000
,  // measure 25
00010000
00001000
00000010
00000001
00000010
00001000
00000010
00000001
,  // measure 26
00001000
00000010
00000001
00000010
00001000
00000100
00000001
00000100
,  // measure 27
00001000
00000010
00000001
00000010
00010000
00001000
00010000
00000010
,  // measure 28
00000100
00000001
00000100
00001000
00010000
00100000
10000000
00100000
,  // measure 29
00010000
00001000
00000100
00000010
00001000
00000100
00000010
00000001
,  // measure 30
00001000
00000000
00000001
00000000
00001000
00000010
00010000
00001000
,  // measure 31
00010000
00000000
00000000
00010000
00001000
00000000
00010000
00000000
00001000
00000000
00000000
00001000
00010000
00000000
00001000
00000000
,  // measure 32
00010000
01000000
10000000
00100000
00010000
00100000
10000000
01000000
,  // measure 33
00010000
00000000
00000000
00010000
00001000
00000000
00010000
00000000
00001000
00000000
00000000
00010000
00001000
00000000
00010000
00000000
,  // measure 34
00001000
00000010
00000001
00000100
00001000
00000100
00000001
00000010
,  // measure 35
00001000
00000000
00000000
00010000
00001000
00000000
00010000
00000000
00001000
00000000
00000000
00001000
00010000
00000000
00001000
00000000
,  // measure 36
00010000
00100000
10000000
01000000
00010000
01000000
10000000
00100000
,  // measure 37
00010000
00000000
00000000
00010000
00001000
00000000
00010000
00000000
00001000
00000000
00000000
00010000
00001000
00000000
00010000
00000000
,  // measure 38
00001000
00000000
00000010
00000000
00000001
00000000
00000100
00000000
00001000
00000000
00000100
00000000
00000001
00000100
00000001
00000100
,  // measure 39
00000002
00000000
00000203
00000000
00000320
00000000
00001030
00000100
,  // measure 40
00010000
00011000
01000000
10010000
,  // measure 41
20000000
00000000
30200000
00000000
02300000
00000000
03010000
00100000
,  // measure 42
00001000
00000000
00011000
00000000
00000100
00000000
00001001
00001000
,  // measure 43
00002000
00000000
00003200
00000000
00000320
00000000
00000031
00000100
,  // measure 44
00002000
00023000
02030000
23000000
,  // measure 45
30100000
00100000
01100000
00000000
10000000
10000000
10010000
00000000
,  // measure 46
10000000
00000000
01000000
00000000
00100000
00000000
00001000
00000000
00010000
00001000
00010000
00000000
00011000
00000000
00000000
00000000
,  // measure 47
00020000
00000000
00030020
00000000
00002030
00000000
00003100
00000010
,  // measure 48
00000001
00000101
00000010
00010100
,  // measure 49
00002000
00000000
00203000
00000000
00320000
00000000
01030000
00100000
,  // measure 50
10000000
00000000
01010000
00000000
00100000
00000000
00011000
00010000
,  // measure 51
00020000
00000000
00032000
00000000
00003020
00000000
00000031
00000100
,  // measure 52
00002000
00003200
00000320
00020030
,  // measure 53
00031000
00001000
00011000
00000000
00000100
00000100
00000110
00000000
,  // measure 54
00000001
00000000
00000100
00000000
00001000
00000000
00000100
00000000
00000010
00001000
00000010
00000000
00001010
00000000
00000000
00000000
,  // measure 55
00001000
00001000
00001100
00000000
00010000
00010000
00011000
00000000
,  // measure 56
00010000
00000000
01000000
00000000
10000000
00000000
00100000
00000000
01000000
00010000
01000000
00000000
00001000
00010000
00001000
00000000
,  // measure 57
00100000
00100000
00101000
00000000
00000010
00000010
00010010
00000000
,  // measure 58
00010000
00001000
00000010
00000001
00000010
00001000
00010000
01000000
,  // measure 59
10000000
00100000
00010000
00001000
00000100
00000001
00000010
00000100
,  // measure 60
00002000
00000000
00000000
00003020
,  // measure 61
00000200
00000000
00000030
00002300
,  // measure 62
00013000
00011000
00000000
00000000
;

//---------------dance-double - ----------------
#NOTES:
     dance-double:
     :
     Medium:
     10:
     0.440,0.450,0.199,0.199,0.110:
00000000
00000000
00000000
00000000
,
10000000
10000000
01000000
01000000
,
00100000
00000000
00000000
00100000
00000000
00000000
00010000
00000000
00010000
01000000
00000000
00001000
,
00010000
00010000
00000100
00000100
,
00001000
00000000
00000000
00001000
00000000
00000000
00000010
00000000
00001000
00000010
00000000
00010000
,
00002000
00000000
00000000
00003000
00000000
00000000
00001000
00000000
00001000
00010000
00000000
00000000
,
00010000
00000000
00010000
01000000
00000000
00000000
01000000
00000000
01000000
10000000
00000000
00000000
,
00020000
00000000
00000000
00030000
00000000
00000000
10000000
00000000
10000000
01000000
00000000
00000000
,
00020000
00000000
00031000
00010000
,
00000200
00000000
00000000
00000300
00000000
00000000
00010000
00000000
00010000
00000010
00000000
00000000
,
00000010
00000000
00000010
00001000
00000000
00000000
00001000
00000000
00001000
00000001
00000000
00000000
,
00000200
00000000
00000000
00000300
00000000
00000000
00001000
00000000
00001000
00010000
00000000
00000000
,
01000000
00000000
00000000
10000000
00000000
10000000
00000000
00000000
00000000
10010000
00000000
00000000
,
20000000
00000000
00000000
30000000
00000000
00000000
00010000
00000000
00010000
01000000
00000000
00000000
,
01000000
00000000
01000000
00010000
00000000
00000000
00010000
00000000
00010000
00100000
00000000
00000000
,
00002000
00000000
00000000
00003000
00000000
00000000
00010000
00000000
00010000
00001000
00000000
00000000
,
00020000
00032000
00003020
00000032
,
00000203
00000000
00000000
00000300
00000000
00000000
00000010
00000000
00000010
00001000
00000000
00000000
,
00001000
00000000
00001000
00000100
00000000
00000000
00000100
00000000
00000100
00010000
00000000
00000000
,
00002000
00000000
00000000
00003000
00000000
00000000
00001000
00000000
00001000
00100000
00000000
00000000
,
00002000
00000000
00023000
00000000
,
00031000
00000000
00000000
00000000
,
00001000
00100000
00001000
00010000
,
00001000
01000000
00100000
10000000
,
01000000
00010000
01000000
10000000
,
01000000
00000000
00010000
00000000
00001000
00010000
00001000
00010000
,
00001000
00010000
01000000
10000000
,
01000000
00010000
00001000
00000010
,
00000001
00000010
00000001
00000100
,
00000010
00000000
00001000
00000000
00000001
00001000
00000001
00001000
,
00000001
00001100
00001000
00000101
,
00000100
00001000
00010000
00100000
,
10000000
01010000
00010000
11000000
,
01000000
00010000
00022000
00033000
,
00001000
00011000
00010000
00011000
,
00010000
01000000
10000000
01000000
,
00010000
11000000
10000000
01010000
,
10000000
00100000
01000000
00010000
,
10000000
00000000
01000000
00000000
00100000
00000000
00010000
10000000
,
00010000
10010000
10000000
10010000
,
01000000
00000000
10000000
00000000
00010000
00000000
00100000
01000000
,
00100000
01100000
01000000
01100000
,
00010000
00000000
01000000
00000000
00001000
00000000
00010000
00001000
,
00010000
00000100
00001000
00000001
,
00001000
00001000
00000001
00000001
,
00000010
00000000
00000100
00000000
00001000
00000100
00010000
00000000
,
00010000
00000000
00001000
00000000
00010000
00000000
00001000
00010000
,
01000000
11000000
10000000
11000000
,
01000000
00000000
00010000
00000000
00001000
00000000
00010000
00001000
,
00010000
00011000
00001000
00011000
,
00010000
00000000
01000000
00000000
10000000
00000000
00100000
10000000
,
00100000
01000000
00001000
00010000
,
00001000
00001000
01000000
01000000
,
00001000
00000000
00100000
00000000
01000000
10000000
01000000
00000000
,
00100000
00100000
00001000
00001000
,
00010000
00000000
00000100
00000000
00001000
00000100
00001000
00000000
,
00000001
00000001
00000010
00000010
,
00000001
00000010
00000100
00001000
,
00010000
00100000
01000000
10000000
,
00020000
00000000
00030000
01000000
,
00002000
00000000
00003000
00010000
,
00001000
00011000
00000000
00000000
;

//---------------dance-double - ----------------
#NOTES:
     dance-double:
     :
     Easy:
     6:
     0.283,0.320,0.094,0.199,0.000:
00000000
00000000
00000000
00000000
,
00000000
00000000
00000000
00000000
,
00000000
00000000
00000000
00000000
,
00000000
00000000
00000000
00000000
,
00000000
00000000
00000000
00000000
,
00200000
00300000
00010000
10000000
,
00010000
00000000
01000000
00010000
,
02000000
03000000
00001000
00010000
,
00001000
00000000
00000000
00000000
,
00000200
00000300
00001000
00000001
,
00001000
00000000
00000010
00001000
,
00000020
00000030
00010000
00001000
,
00010000
00000000
00000000
00000000
,
00000020
00000030
00000100
00000001
,
00000100
00000000
00000010
00001000
,
00000020
00000030
00010000
00001000
,
00010000
00010000
00001000
00010000
,
00002000
00003000
01000000
00010000
,
01000000
00000000
00100000
10000000
,
02000000
03000000
00100000
00001000
,
00010000
00000000
00022000
00000000
,
00033000
00000000
00000000
00000000
,
00010000
00000010
00010000
00000100
,
00010000
00001000
00010000
00000000
,
00001000
01000000
00001000
00100000
,
00001000
00010000
00001000
00000000
,
00100000
00010000
01000000
00010000
,
00100000
00010000
10000000
00000000
,
10000000
00010000
10000000
01000000
,
00010000
00001000
00010000
00000000
,
00011000
00000000
00011000
00000000
,
00000020
00000030
00002000
00003000
,
00001001
00000000
00001001
00000000
,
00000002
00000003
00000200
00000300
,
00000110
00000000
00000110
00000000
,
00000200
00000300
00002000
00003000
,
00011000
00000000
00011000
00000000
,
00020000
00030000
02000000
03000000
,
00100000
00100000
00100000
00000000
,
00010000
00010000
00010000
00000000
,
10000000
10000000
10000000
00000000
,
01000000
01000000
01000000
00000000
,
00010000
00010000
00010000
00000000
,
00001000
00001000
00001000
00000000
,
00000100
00000001
00000100
00000001
,
00001000
00000100
00000010
00000001
,
00000010
00000100
00000010
00000000
,
00000001
00001000
00000001
00000000
,
00000001
00000100
00001000
00000000
,
00010000
00001000
00010000
00000000
,
00010000
01000000
10000000
00000000
,
10000000
00010000
10000000
00000000
,
01000000
00010000
00001000
00010000
,
00001000
00000100
00001000
00000000
,
00010000
00001000
00010000
01000000
,
00010000
00001000
00010000
00000000
,
00001000
00010000
00001000
00000100
,
00001000
00010000
00001000
00010000
,
01000000
00010000
00001000
00010000
,
00002000
00000000
00000000
00000000
,
00000000
00000000
00003000
00001000
,
00100000
00000000
00000000
00000000
;
