#TITLE:So Fabulous !! (ONLY ONE Remix);
#SUBTITLE:;
#ARTIST:Remixed by SUPER STAR 満-MITSURU-;
#TITLETRANSLIT:;
#SUBTITLETRANSLIT:;
#ARTISTTRANSLIT:Remixed by SUPER STAR MITSURU;
#CREDIT:;
#BANNER:So Fabulous !! (ONLY ONE Remix).png;
#BACKGROUND:So Fabulous !! (ONLY ONE Remix)-bg.png;
#LYRICSPATH:;
#CDTITLE:cdtitle.png;
#MUSIC:So Fabulous !! (ONLY ONE Remix).mp3;
#OFFSET:-0.030;
#SAMPLESTART:103.074;
#SAMPLELENGTH:12.000;
#SELECTABLE:YES;
#BPMS:0.000=170.000,80.000=85.000,96.000=170.000,167.000=42.500,172.000=85.000,188.000=170.000;
#STOPS:161.000=0.176
,162.500=0.176
,220.000=5.294
,289.667=0.353
,290.667=0.353
;
#BGCHANGES:;

//---------------dance-single - S.H----------------
#NOTES:
     dance-single:
     S.H:
     Hard:
     13:
     0.622,0.848,0.285,0.185,0.481:
0000
0000
0000
0000
,
0000
0000
0000
0000
,
0000
0000
0000
0000
,
0000
0000
0000
0000
,
1000
0001
0100
0000
0001
1000
0100
0000
,
0020
0000
0032
0000
1003
1001
0000
0000
,
0001
0100
0001
0000
1000
0010
1000
0000
,
1001
0000
0000
0110
0000
0000
1000
0010
0100
0001
0000
0000
,
1000
0001
0100
0001
1000
0100
0010
0000
,
0002
0000
2003
0000
3010
0110
0000
0000
,
0001
0100
0001
0010
0100
1000
0001
1000
,
0110
0000
0000
1001
0000
0001
1000
0010
,
0120
0000
0000
0000
0000
0000
1000
0000
0000
1000
0000
0000
1030
0000
0000
0000
,
1002
0000
0023
0000
0130
0110
0000
0000
,
0210
0000
0000
0000
0000
0000
0001
0000
0000
0001
0000
0000
0301
0000
0000
0000
,
1001
0000
0000
0110
0000
0000
0010
0100
0010
0100
0000
0000
,
1002
0000
0000
0000
0000
0000
0100
0000
0000
0100
0000
0000
0103
0000
0000
0000
,
2001
0000
0000
0000
0000
0000
0100
0000
0000
0100
0000
0000
3100
0000
0000
0000
,
2002
0000
3003
0010
2200
0000
3300
0010
,
0101
0000
0000
0000
1100
0000
0000
0000
0001
1000
0000
1000
0001
0000
0100
0000
,
0120
0100
0100
0100
,
0230
0001
0001
0001
,
0302
1000
1000
1000
,
2003
0000
0000
0000
0010
0000
0000
0000
0010
0000
0010
0000
0010
0010
3010
0000
,
1000
0100
0010
0000
0001
0100
0010
0000
,
1000
0001
1000
0001
0000
0000
0110
0000
,
0010
1000
0010
0000
0100
0001
0100
0000
,
0010
1000
0001
0100
0000
0010
0110
0000
,
1000
0100
0001
0000
1000
0010
0001
0000
,
1000
0010
0100
0001
0000
0010
0100
1000
,
0001
1000
0100
0000
1000
0001
0100
0000
,
0010
0100
0010
0100
0000
0000
0110
0000
,
0001
0100
0001
0100
0000
0010
1000
0010
,
0000
0100
0001
0010
0100
1000
0100
0010
,
0000
0001
0100
0001
0000
1000
0010
1000
,
0000
0001
0010
0100
1000
0010
0110
0000
,
0001
0010
0100
1000
0000
0010
0100
0001
,
0000
0010
1000
0100
1000
0010
0100
0001
,
0010
0100
0010
0001
0000
1000
0001
0100
,
0000
0010
0001
0100
0001
0010
1000
0000
,
0001
0000
0000
0001
0000
0000
1001
0000
0000
1000
0000
0000
1000
0000
0000
1001
0000
0000
0010
0000
0100
0000
0010
0000
,
0100
0000
0010
0000
1000
0000
0001
0000
0000
2002
0000
0000
0000
0000
0000
3003
0000
0000
0220
0000
0000
0000
0000
0000
,
0000
0000
0000
0000
0000
0000
0000
0000
0000
0000
0000
0000
0000
0000
0000
0330
,
1000
0100
1000
0100
1000
0100
0010
0001
0000
0001
0010
0100
0000
1000
0001
0000
,
0010
1000
0010
1000
0010
0100
0001
0010
0000
0010
0100
1000
0000
0001
1000
0000
,
0100
0001
0100
0001
0010
0001
0010
0001
0010
1000
0010
1000
0100
1000
0100
1000
,
0100
0001
0010
0001
1000
0001
0100
0010
1000
0100
0010
0001
0100
0000
1001
0000
,
0010
1000
0000
1000
0000
0000
0001
0000
0010
0100
0000
0100
0000
0000
1000
0000
,
0010
0100
0001
0110
0000
0001
1001
0000
,
1000
0010
0000
0010
0000
0000
1000
0000
0100
0010
0000
0010
0000
0000
0001
0000
,
0100
0010
1000
0110
0000
0110
0100
0000
,
0001
1000
0000
1000
0000
0000
0010
0000
0100
0001
0000
0001
0000
0000
1000
0000
,
0010
0000
0100
0000
0001
1000
0001
1000
0000
0000
0001
0000
1000
0000
0010
0000
,
0100
0001
0000
0001
0000
0000
1000
0000
0001
0100
0000
0100
0000
0000
0010
0000
,
1000
0000
0001
0000
0010
0000
0100
0000
1000
0001
0000
0001
1000
0000
0010
0000
,
0220
0330
0000
0000
0000
0000
0000
0000
0000
0000
0000
0000
0000
0000
0000
0000
0010
0000
0000
0000
0000
0000
0000
0000
1000
0000
0000
0000
0000
0000
0000
0000
0001
0000
0000
0000
0000
0000
0000
0000
1000
0000
0000
0000
0000
0000
0000
0000
0001
0000
0000
0000
0000
0000
0000
0000
0100
0000
0000
0000
0000
0000
0000
0000
,
0010
0100
0010
1000
0010
0100
0001
0010
,
0100
0000
1000
0000
0010
0100
0010
0000
1000
0100
0000
0100
0000
0000
0010
0000
,
0001
0100
0000
0100
0000
0000
0010
0000
1000
0001
0000
0001
0000
0000
1000
0000
,
0010
0000
0100
0000
0001
0100
0001
0000
1000
0010
0000
0010
0000
0000
0100
0000
,
0001
0010
0000
0010
0000
0000
0100
0000
1000
0010
0000
0010
1000
0000
0001
0000
,
0110
0000
0000
0000
0001
0100
0001
0000
1000
0001
0000
0100
0000
0000
0010
0000
,
1000
0100
0000
0010
0000
0000
0001
0000
0100
0001
0000
1000
0000
0000
0010
0000
,
0100
0000
0001
0000
1000
0001
1000
0000
0010
0100
0000
0001
0000
0000
1000
0000
,
0001
0010
0000
0100
0000
0000
1000
0000
0010
0100
0000
0100
0001
0000
1000
0000
,
0110
0000
0000
0000
0001
0100
0001
0000
1000
0100
1000
0100
0000
0000
0010
0000
,
0001
0100
0001
0100
0000
0000
0010
0000
1000
0001
1000
0001
0000
0000
1000
0000
,
0010
0000
0100
0000
0001
0100
0001
0000
1000
0010
1000
0010
0000
0000
0100
0000
,
0001
0010
0001
0010
0000
0000
0100
0000
1000
0001
1000
0100
0000
0000
0010
0000
,
0110
0000
0000
0000
0001
0100
0001
0000
1000
0010
1000
0100
0000
0000
1000
0000
,
0100
0010
0100
1000
0000
0000
0001
0000
1000
0010
1000
0100
0000
0000
0010
0000
,
0001
0000
1000
0000
0010
0100
0010
0000
1000
0001
0100
0010
0000
0000
1000
0000
,
0001
0000
0000
1000
0000
0000
0001
0000
0100
0000
0001
0000
1000
0000
0100
0000
1000
0000
0001
0000
0100
0000
1000
0000
,
0100
0001
1000
0010
0100
0010
1001
0000
0000
0000
0000
0000
;

//---------------dance-single - ----------------
#NOTES:
     dance-single:
     :
     Medium:
     10:
     0.466,0.707,0.185,0.462,0.058:
0000
0000
0000
0000
,
0000
0000
0000
0000
,
0000
0000
0000
0000
,
0000
0000
0000
0000
,
1000
0000
1000
0000
0001
0100
0001
0000
,
2000
0000
3002
0000
1003
0001
0000
0000
,
0010
0000
0010
0000
0100
0010
0100
0000
,
0002
2003
3002
1003
,
0010
0000
0010
0000
0100
0001
0100
0000
,
0020
0000
2030
0000
3001
0100
0000
0000
,
0010
0000
1000
0000
0001
1000
0001
1000
,
0100
0000
0000
0110
0000
0000
1001
0000
,
1000
0100
1000
0000
0001
0010
0001
0000
,
0200
0000
0320
0000
1030
0001
0000
0000
,
1000
0010
1000
0000
0001
0100
0001
0000
,
0200
0302
2003
3010
,
2000
0000
0001
3001
,
0002
0000
1000
1003
,
1001
0000
0110
0000
,
1000
0000
0001
0000
0100
0010
0100
0000
,
2001
0000
3020
0000
,
0230
0000
0302
0000
,
2003
0001
3002
0100
,
0203
0010
0320
1000
,
1030
0001
1000
0001
,
1000
0001
1000
0002
0000
0003
0000
0000
,
1000
0010
1000
0010
,
0100
0001
0100
0001
0000
0100
0001
0000
,
1001
0001
0100
0010
,
1000
0100
1000
0100
0000
0000
0001
0000
,
1000
0010
0100
0001
,
1000
0100
0010
0002
0000
0003
1000
0000
,
0010
1000
0010
0000
0100
0001
0100
0000
,
0001
1000
0001
0000
1000
0100
0010
0000
,
0001
0100
0001
0000
1000
0100
1000
0000
,
0010
1000
0100
0000
0010
0000
1001
0000
,
1000
0010
1000
0000
0001
0100
0001
0000
,
1000
0010
0100
0000
0001
0010
0100
0000
,
2000
0100
3100
0000
0020
0001
0031
0000
,
2000
0001
3001
0000
0100
0000
1001
0000
,
0002
0000
0000
0000
0000
0000
1003
0000
0000
2000
0000
0000
0000
0000
0000
3001
0000
0000
0001
0000
0000
0000
1000
0000
,
0000
0010
0000
0220
0000
0000
0330
0000
0000
2002
0000
0000
,
0000
0000
0000
0000
0000
0000
0000
3003
,
1000
0000
0001
0000
1000
0000
0001
0000
1000
0010
0100
0001
0000
0000
0000
0000
,
0001
0000
1000
0000
0010
0000
0100
0000
0001
0010
0100
1000
0000
1000
0010
0000
,
0100
0001
0100
0000
2002
0000
3003
0000
0010
1000
0010
0000
2002
0000
3003
0000
,
0010
1000
0010
0000
0100
0001
0100
0000
0001
1000
0100
0010
0000
0000
0000
0000
,
2001
0010
0000
0010
,
0000
0000
0010
0000
3000
0000
1000
0001
,
1002
1000
0000
1000
,
0000
1003
1001
1001
,
2001
3001
1002
1003
,
2000
3020
0230
0302
,
1003
0001
1000
0000
0001
1000
0001
0000
,
1000
0010
0100
0002
0000
0003
1000
0000
,
1001
0000
1000
0100
1000
0100
1000
0001
,
1000
0001
0100
0001
0100
0001
0100
0000
,
1001
0000
0010
1000
0010
0000
0100
0001
,
0100
0000
0020
0000
0130
0000
0001
0010
,
0100
0000
1000
0100
1000
0000
0001
0100
,
0001
0000
1000
0010
0100
0000
1001
0000
,
0110
0000
2000
3001
0100
0000
0002
1003
,
0100
0000
0020
0000
0130
0000
1000
0001
,
1000
0002
0023
0230
,
2300
0000
3001
0100
0001
0000
1001
0000
,
1001
0020
0100
1000
,
0130
0200
0010
0001
,
0310
0002
0100
1000
,
0103
2000
0001
0010
,
3001
0000
1000
0001
1000
0000
0001
1000
,
0001
0000
0100
0010
0100
0000
0010
0100
,
0010
0000
0001
0010
0100
1000
0001
0100
,
0010
0000
0000
1000
0000
0000
0002
0000
0000
0000
0003
0000
2000
0000
0000
0000
3000
0000
0001
0000
0000
0000
0000
0000
,
1000
0000
0000
0001
1000
0001
1000
0000
0000
0000
0000
0000
;

//---------------dance-single - ----------------
#NOTES:
     dance-single:
     :
     Easy:
     6:
     0.331,0.368,0.200,0.223,0.000:
0000
0000
0000
0000
,
0000
0000
0000
0000
,
0000
0000
0000
0000
,
0000
0000
0000
0000
,
1000
1000
0001
0001
,
1001
0000
0000
0000
0220
0330
0000
0000
,
0100
0100
0010
0010
,
1000
0001
2000
3001
,
1000
0001
0001
1000
,
0110
0000
0000
0000
2002
3003
0000
0000
,
1000
0001
1000
0010
,
0100
0000
0000
0100
0000
0000
0100
0000
,
0100
0001
0010
0100
,
1000
1000
2000
3000
,
0001
0100
0010
1000
,
0001
0001
0002
0003
,
1001
0000
0100
0100
,
0110
0000
0001
0001
,
1001
0000
0110
0000
,
1002
1000
1000
1003
,
1000
0000
0010
0000
,
0100
0000
0001
0000
,
0002
0003
2000
3000
,
1001
0000
0220
0330
,
1000
1000
0001
0001
,
1000
0100
1000
0000
0002
0000
0003
0000
,
0001
0001
1000
1000
,
0001
0100
0001
0000
2000
0000
3000
0000
,
0010
0010
0100
0100
,
0001
0001
1000
1000
,
0001
0010
0100
1000
,
0001
1000
0001
0000
2000
0000
3000
0000
,
0010
0010
1000
1000
,
0100
0100
0001
0001
,
0010
0010
1000
1000
,
0001
0000
0001
0000
0100
0010
0100
0000
,
0001
0001
1000
1000
,
0001
1000
0001
1000
,
1001
0000
0110
0000
,
0001
1000
0001
1000
,
0001
0000
0001
0000
0000
1000
0000
0000
,
1000
1001
0000
0020
,
0000
0000
0000
0000
0000
0000
0000
0030
,
0100
0100
0100
0000
0001
0001
0001
0000
,
1000
1000
1000
0000
0010
0010
0010
0000
,
1001
0110
1000
0001
,
1000
0000
0010
0000
0100
0000
0001
1000
,
1001
0001
1000
0010
,
0000
1000
0001
0100
,
0000
0001
0010
0100
,
0000
1000
0001
1000
,
1001
0000
0110
0000
,
1000
0001
1001
0000
,
0110
0000
1001
0000
,
0002
1003
2000
3001
,
1000
0000
1000
0000
,
0001
0000
1000
0000
,
1001
0001
0001
0001
,
0001
0000
1000
0000
1000
0000
1000
0001
,
1000
0010
0010
0010
,
0010
0100
0100
0100
,
0110
0001
1000
0001
,
1000
0000
0001
0000
1000
0000
0001
1000
,
0001
0100
0010
0100
,
0010
0000
0100
0000
0010
0000
0100
0010
,
0100
0002
1003
0200
,
0310
0002
0103
2000
,
3010
0200
0310
2000
,
3100
0000
0002
0000
0103
0000
1000
0010
,
1000
0002
0100
0100
,
0103
2000
0100
0100
,
3100
0010
1000
0001
,
0100
2002
0000
0000
,
0000
3003
1001
0000
;

//---------------dance-single - ----------------
#NOTES:
     dance-single:
     :
     Beginner:
     2:
     0.117,0.170,0.077,0.131,0.000: // measure 1
0000
0000
0000
0000
,  // measure 2
0000
0000
0000
0000
,  // measure 3
0000
0000
0000
0000
,  // measure 4
0000
0000
0000
0000
,  // measure 5
1000
0000
0000
0000
,  // measure 6
1000
0000
0000
0000
,  // measure 7
0001
0000
0000
0000
,  // measure 8
0001
0000
0000
0000
,  // measure 9
0100
0000
0000
0000
,  // measure 10
0100
0000
0000
0000
,  // measure 11
0010
0000
0000
0000
,  // measure 12
0010
0000
0000
0000
,  // measure 13
1000
0000
1000
0000
,  // measure 14
1000
0000
0000
0000
,  // measure 15
0001
0000
0000
0000
,  // measure 16
0000
0000
0000
0000
,  // measure 17
0100
0000
0100
0000
,  // measure 18
0100
0000
0000
0000
,  // measure 19
0010
0000
0000
0000
,  // measure 20
0000
0000
0000
0000
,  // measure 21
2002
0000
0000
3003
,  // measure 22
0000
0000
0000
0000
,  // measure 23
0220
0000
0000
0330
,  // measure 24
0000
0000
0000
0000
,  // measure 25
1000
0000
0000
0000
,  // measure 26
0001
0000
0000
0000
,  // measure 27
1000
0000
0000
0000
,  // measure 28
0001
0000
0000
0000
,  // measure 29
1000
0000
1000
0000
,  // measure 30
1000
0000
0000
0000
,  // measure 31
0002
0000
0003
0000
,  // measure 32
2000
0000
3000
0000
,  // measure 33
1001
0000
0000
0000
,  // measure 34
1000
0000
0000
0000
,  // measure 35
0001
0000
0000
0000
,  // measure 36
0100
0000
0010
0000
,  // measure 37
0110
0000
0000
0000
,  // measure 38
1000
0000
0000
0000
,  // measure 39
0001
0000
0001
0000
,  // measure 40
1000
0000
1000
0000
,  // measure 41
0002
0000
0000
0003
,  // measure 42
0000
0000
0000
2002
,  // measure 43
0000
0000
3003
0000
,  // measure 44
1000
0000
0001
0000
,  // measure 45
1000
0000
0000
0000
,  // measure 46
0100
0000
0010
0000
,  // measure 47
0100
0000
0000
0000
,  // measure 48
0100
0000
0000
0000
,  // measure 49
1000
0000
0000
0000
,  // measure 50
1000
0000
0000
0000
,  // measure 51
0001
0000
0000
0000
,  // measure 52
0001
0000
0000
0000
,  // measure 53
1001
0000
0000
0000
,  // measure 54
0010
0000
0010
0000
,  // measure 55
0010
0000
0010
0000
,  // measure 56
0000
0000
1000
0000
,  // measure 57
0001
0000
1000
0000
,  // measure 58
0001
0000
0000
0001
,  // measure 59
0000
0001
0000
0000
,  // measure 60
0000
1000
0000
1000
,  // measure 61
0000
1000
0000
0000
,  // measure 62
0000
0010
0000
0010
,  // measure 63
0000
0010
0000
0000
,  // measure 64
0000
0100
0000
0100
,  // measure 65
0000
0100
0000
0000
,  // measure 66
0000
0020
0000
0000
,  // measure 67
0030
0000
0000
0000
,  // measure 68
0000
0200
0000
0000
,  // measure 69
0300
0000
0000
0000
,  // measure 70
0000
2002
0000
3003
,  // measure 71
0000
0220
0000
0330
,  // measure 72
0000
0001
0000
1000
,  // measure 73
0000
2002
0000
0000
,  // measure 74
3003
0000
1001
0000
;
