#TITLE:SigSig;
#SUBTITLE:;
#ARTIST:kors k;
#TITLETRANSLIT:;
#SUBTITLETRANSLIT:;
#ARTISTTRANSLIT:;
#GENRE:;
#CREDIT:Silverhawke;
#MENUCOLOR:;
#METERTYPE:DDR;
#BANNER:SigSig.png;
#BACKGROUND:;
#LYRICSPATH:;
#CDTITLE:;
#MUSIC:SigSig.mp3;
#OFFSET:-0.037;
#SAMPLESTART:76.440;
#SAMPLELENGTH:12.000;
#SELECTABLE:YES;
#LISTSORT:;
#DISPLAYBPM:179.000;
#BPMS:0.000=179.000;
#STOPS:195.938=0.335
;
#BGCHANGES:;
#ATTACKS:;

//---------------dance-single - ----------------
#NOTES:
     dance-single:
     :
     Hard:
     11:
     0.637,0.678,0.520,0.255,0.034:
0000
0000
0000
0000
,
0000
0000
0000
0000
,
0000
0000
0000
0000
,
0000
0000
0000
0000
,
1001
0000
0000
0000
0000
0000
0000
0010
,
0010
0010
0000
0000
0000
0000
0000
0001
,
0001
0000
0000
0100
0100
0000
0000
0010
,
0010
1000
1000
0001
0001
0010
0010
0100
,
0200
1000
0010
0001
,
0310
0000
0001
0100
0001
0000
1100
0000
,
0101
0000
1000
0100
0010
0100
1000
0000
,
0001
0000
0100
0010
0100
0000
0101
0000
,
1100
0000
0001
0010
0100
1000
0001
0010
,
0100
0000
0010
0001
0100
0000
0110
0000
,
1001
0000
0010
1000
0100
1000
0010
0000
,
0100
0000
0001
0010
0100
0000
1100
0000
,
0101
0000
1000
0100
1000
0100
0010
0100
,
1000
0000
0001
0000
0000
0100
0000
0000
0001
0000
1000
0000
0100
0000
0010
0000
,
0200
0010
1000
0310
,
0001
0000
0100
0000
0000
0010
0000
0000
1000
0000
0100
0000
1000
0000
0001
0000
,
0100
0010
1001
1001
,
0010
0000
1000
0000
0000
0001
0000
0000
0100
0000
0010
0000
1000
0000
0001
0000
,
0200
0010
0001
0310
,
1000
0000
0001
0000
0000
0100
0000
0000
0010
0000
0100
0000
0001
0000
0010
0000
,
0200
2300
3002
0003
,
1000
0100
0010
0100
1000
0001
0100
0010
,
0100
0101
0010
1010
,
1000
0100
0001
0100
1000
0010
0100
0001
,
0010
1100
0010
0101
,
0001
0010
0100
1000
0100
0001
0100
1000
,
0010
0101
0010
1010
,
0001
0100
0001
0100
0010
1000
0100
0001
,
0100
1100
0010
0101
,
0001
1000
0100
0010
0000
0100
1000
0001
,
0000
0100
0001
0010
0000
0100
1000
0010
,
0000
1000
0001
0100
0000
0010
0001
0100
,
0000
0010
1000
0100
1000
0001
0100
0010
,
0000
0001
0100
1000
0000
0001
0010
1000
,
0000
0001
0010
0100
0000
1000
0010
0100
,
0000
1000
0001
0100
0000
0001
0100
0010
,
1000
0110
2002
3003
,
1100
0000
0001
0100
1000
0000
0100
0000
,
0001
0000
1000
0000
1001
0010
0000
0010
,
0010
0000
0100
0001
0010
0000
0100
0000
,
1000
0000
0001
0000
1001
0000
0000
0010
,
0010
0000
0100
1000
0001
0000
2000
0000
,
0010
3002
0100
1003
,
0001
0000
0000
0000
1000
0000
0100
0000
0010
0000
0001
1000
0001
0000
1000
0000
,
0010
0101
2200
3300
,
0101
1100
0101
0010
,
0100
2002
3003
0010
,
0001
0100
1000
0000
0100
0000
1010
0000
,
0011
2002
3003
1001
,
0010
1000
0100
0000
0010
0000
1100
0000
,
0101
1001
0010
0110
,
0010
0000
1000
0000
0100
0000
0010
0001
0010
0000
0100
0000
0001
0000
0000
0000
,
1100
0000
0202
0000
0303
0000
0010
1000
,
0010
1000
0001
0100
0001
0100
0101
0000
,
1010
0000
2002
0000
3003
0000
0001
0010
,
0001
0010
0100
1000
0010
1000
1100
0000
,
0011
0000
2002
0000
3003
0000
1000
0100
,
0001
0100
1000
0100
0001
0100
1000
0010
,
0001
0010
1000
0010
0001
0010
1000
0001
,
0100
0000
0010
0000
1000
0000
0100
0010
0001
0000
0100
0000
0110
0000
0000
0000
,
1001
0000
0220
0000
0330
0000
0100
1000
,
0010
0100
0000
0001
0010
0100
0000
0001
,
1000
0010
0000
1000
0100
0010
0000
1000
,
0100
0001
0000
0010
0100
0001
0000
1000
,
0100
0001
0100
0010
0100
1000
0000
0001
,
0100
0010
0000
1000
0001
0100
0000
0010
,
1000
0100
0000
0001
0100
0010
0000
1000
,
0001
0100
0000
0010
1000
0100
0110
0000
,
1001
0220
0330
1001
;

//---------------dance-single - ----------------
#NOTES:
     dance-single:
     :
     Medium:
     7:
     0.420,0.464,0.059,0.245,0.000:
0000
0000
0000
0000
,
0000
0000
0000
0000
,
0000
0000
0000
0000
,
0000
0000
0000
0000
,
0110
0000
0000
0000
0000
0000
0000
0001
,
1000
0001
0000
0000
0000
0000
0000
1000
,
0100
0000
0000
0100
0010
0000
0000
0010
,
0001
1000
0010
0100
,
0220
0000
0000
0330
,
0001
0000
1000
0000
0001
0010
0001
0000
,
1000
0100
0010
0000
,
1000
0000
0010
0000
0100
0001
0100
0000
,
0010
1000
0100
0000
,
1000
0000
0100
0000
0001
0010
0001
0000
,
0100
1000
0010
0000
,
0001
0000
0100
0000
0010
1000
0010
0000
,
0100
0001
0010
0000
,
2000
0000
0001
3001
,
1000
0010
0100
0001
,
0020
0000
0100
0130
,
1000
0001
2000
3002
,
0203
0000
0010
0310
,
1000
0100
0001
0100
,
2000
0000
0010
3010
,
0200
0302
2000
3003
,
0001
1000
0001
0000
1000
0001
1000
0000
,
0001
1000
0010
0100
,
0001
0100
0001
0000
1000
0100
1000
0000
,
0001
0010
0100
1000
,
0001
0010
0100
0000
1000
0010
0100
0000
,
0001
0100
0010
1000
,
0001
0100
0010
0000
1000
0100
0010
0000
,
0100
1000
0001
0100
,
0001
0010
0100
0000
0000
1000
0100
0000
,
0000
0001
0100
0000
0000
1000
0010
0000
,
0100
0001
0010
0000
0000
0100
1000
0000
,
0000
0001
0100
0000
0100
0000
0100
0000
,
0001
0010
0100
0000
0000
1000
0100
0000
,
0000
0010
0001
0000
0000
0100
0001
0000
,
1000
0100
0001
0000
0000
0100
1000
0000
,
0002
0203
2300
3000
,
0100
0001
0010
0100
,
1000
0001
2000
3000
,
0001
0010
0001
1000
,
0100
0010
0002
0003
,
1000
0010
0100
0001
,
0100
0010
1000
0100
,
0001
0100
1000
0010
,
0100
0001
2000
3000
,
0001
0001
1000
1000
,
0001
1000
0000
0010
,
1000
0001
1000
0000
0000
0000
0010
0000
,
0010
0010
0000
0001
,
0100
0010
0100
0000
0000
0000
1000
0000
,
1000
1000
0001
0100
,
0100
0100
0100
0020
,
2030
3002
0003
1000
,
0001
1000
0001
0000
0000
0000
0010
0000
,
0100
0110
0000
0001
,
0010
0100
1000
0000
0000
0000
0001
0000
,
1000
1001
0000
0010
,
1000
0100
1000
0000
0000
0000
0001
0000
,
0010
0100
1000
0001
,
0100
0001
0100
0000
0010
1000
0010
0000
,
0200
0002
0303
1000
,
0001
0100
0000
0000
1000
0100
0000
0000
,
0001
0010
0000
0000
1000
0010
0000
0000
,
0100
0001
0000
0000
0010
0100
0000
0100
,
1000
0001
1001
0000
,
0010
1000
0000
0000
0001
0100
0000
0000
,
0010
1000
0000
0000
0100
0010
0000
0000
,
0001
1000
0000
0000
0100
0001
0200
0000
,
2300
0002
3003
1001
;

//---------------dance-single - ----------------
#NOTES:
     dance-single:
     :
     Easy:
     5:
     0.221,0.285,0.010,0.118,0.000:
0000
0000
0000
0000
,
0000
0000
0000
0000
,
0000
0000
0000
0000
,
0000
0000
0000
0000
,
1000
0000
0000
0000
,
0001
0000
0000
0000
,
0100
0000
0010
0000
,
1000
0000
0001
0000
,
0100
0000
0000
0000
,
0001
0000
0001
0000
,
0010
0000
0000
0000
,
0100
0000
0100
0000
,
1000
0000
0000
0000
,
0001
0000
0001
0000
,
0100
0000
0000
0000
,
1000
0000
1000
0000
,
0010
0000
0000
0000
,
0001
0000
0100
0001
,
0000
0000
0000
0000
,
1000
0000
0100
1000
,
0000
0000
0000
0000
,
0001
0000
0010
0001
,
0000
0000
0000
0000
,
1000
0000
0010
1000
,
0020
0000
0200
0330
,
0001
0000
0001
0000
,
0010
0000
0010
0000
,
0100
0000
0100
0000
,
1000
0000
1000
0000
,
0010
0000
0100
0000
,
0001
0000
0010
0000
,
0100
0000
1000
0000
,
0001
0000
0100
0000
,
0020
0000
0000
0030
,
2000
0000
0000
3000
,
0002
0000
0000
0003
,
0200
0000
0000
0300
,
0002
0000
0100
0003
,
0020
0000
1000
0030
,
0200
0000
0010
0300
,
1000
0001
1000
0000
,
1000
0000
1000
0000
,
0100
0100
0100
0000
,
0001
0000
0001
0000
,
0100
0100
0100
0000
,
0010
0000
0010
0000
,
1000
1000
1000
0000
,
0001
0000
0001
0000
,
0010
0010
0010
0000
,
0001
0000
0001
0000
,
1000
1000
0000
0000
,
0010
0000
0010
0000
,
0100
0100
0000
0000
,
0001
0000
0001
0000
,
0010
0010
0000
0100
,
0000
1000
0000
0001
,
1000
0001
0000
1000
,
0000
0100
0000
0010
,
0100
1000
0000
0001
,
0000
0100
0000
0001
,
0010
0100
0000
1000
,
0000
0001
0000
1000
,
0100
0010
0000
0001
,
0010
0100
1000
0001
,
0100
0020
0030
1000
,
0100
0000
0100
0100
,
0010
0000
0010
0010
,
0001
0000
0001
0001
,
1000
0001
0000
1000
,
0010
0000
0010
0010
,
0100
0000
0100
0100
,
0001
0000
0001
0001
,
1000
2002
0000
3003
;

//---------------dance-single - ----------------
#NOTES:
     dance-single:
     :
     Beginner:
     2:
     0.127,0.214,0.010,0.078,0.000: // measure 1
0000
0000
0000
0000
,  // measure 2
0000
0000
0000
0000
,  // measure 3
0000
0000
0000
0000
,  // measure 4
0000
0000
0000
0000
,  // measure 5
0001
0000
0000
0000
,  // measure 6
0001
0000
0000
0000
,  // measure 7
0001
0000
0000
0000
,  // measure 8
0001
0000
0000
0000
,  // measure 9
0001
0000
0000
0000
,  // measure 10
1000
0000
0000
0000
,  // measure 11
0000
0000
0000
0000
,  // measure 12
0010
0000
0000
0000
,  // measure 13
0000
0000
0000
0000
,  // measure 14
0100
0000
0000
0000
,  // measure 15
0000
0000
0000
0000
,  // measure 16
0001
0000
0000
0000
,  // measure 17
0000
0000
0000
0000
,  // measure 18
0010
0000
0010
0000
,  // measure 19
0010
0000
0000
0000
,  // measure 20
0100
0000
0100
0000
,  // measure 21
0100
0000
0000
0000
,  // measure 22
1000
0000
1000
0000
,  // measure 23
1000
0000
0000
0000
,  // measure 24
0001
0000
0001
0000
,  // measure 25
0001
0000
0000
0000
,  // measure 26
1000
0000
0000
0000
,  // measure 27
1000
0000
0000
0000
,  // measure 28
0001
0000
0000
0000
,  // measure 29
0001
0000
0000
0000
,  // measure 30
1000
0000
0000
0000
,  // measure 31
1000
0000
0000
0000
,  // measure 32
0001
0000
0000
0000
,  // measure 33
0001
0000
0000
0000
,  // measure 34
1000
0000
0000
0000
,  // measure 35
0000
0000
0000
0000
,  // measure 36
0001
0000
0000
0000
,  // measure 37
0000
0000
0000
0000
,  // measure 38
0100
0000
0000
0000
,  // measure 39
0000
0000
0000
0000
,  // measure 40
0001
0000
0000
0000
,  // measure 41
0000
0000
0000
0000
,  // measure 42
1000
0000
0000
0000
,  // measure 43
1000
0000
0000
0000
,  // measure 44
0001
0000
0000
0000
,  // measure 45
0001
0000
0000
0000
,  // measure 46
0100
0000
0000
0000
,  // measure 47
0100
0000
0000
0000
,  // measure 48
0010
0000
0000
0000
,  // measure 49
0010
0000
0000
0000
,  // measure 50
0000
0000
0000
1000
,  // measure 51
0000
1000
0000
0000
,  // measure 52
0000
0010
0000
0010
,  // measure 53
0000
0010
0000
0000
,  // measure 54
0000
0100
0000
0100
,  // measure 55
0000
0100
0000
0000
,  // measure 56
0000
1000
0000
1000
,  // measure 57
1000
1000
0000
0001
,  // measure 58
0000
0001
0000
0001
,  // measure 59
0001
0001
0000
0100
,  // measure 60
0000
0100
0000
0100
,  // measure 61
0100
0100
0000
0010
,  // measure 62
0000
0010
0000
0010
,  // measure 63
0010
0010
0000
1000
,  // measure 64
0000
1000
0000
1000
,  // measure 65
1000
1000
0000
0200
,  // measure 66
0000
0300
0000
0020
,  // measure 67
0000
0030
0000
0002
,  // measure 68
0000
0003
0000
2000
,  // measure 69
0000
3000
0000
0002
,  // measure 70
0000
0003
0000
2000
,  // measure 71
0000
3000
0000
0002
,  // measure 72
0000
0003
0000
2000
,  // measure 73
0000
3000
0000
1001
;
