#TITLE:Scatman (Ski-Ba-Bop-Ba-Dop-Bop);
#SUBTITLE:;
#ARTIST:Scatman John;
#TITLETRANSLIT:;
#SUBTITLETRANSLIT:;
#ARTISTTRANSLIT:;
#GENRE:;
#CREDIT:;
#MENUCOLOR:;
#METERTYPE:DDR;
#BANNER:Scatman (Ski-Ba-Bop-Ba-Dop-Bop).png;
#BACKGROUND:Scatman (Ski-Ba-Bop-Ba-Dop-Bop)-bg.png;
#LYRICSPATH:;
#CDTITLE:cdtitle.png;
#MUSIC:Scatman (Ski-Ba-Bop-Ba-Dop-Bop).mp3;
#OFFSET:-0.056;
#SAMPLESTART:74.163;
#SAMPLELENGTH:14.000;
#SELECTABLE:YES;
#LISTSORT:;
#BPMS:0.000=135.999;
#STOPS:;
#BGCHANGES:0.000=Scatman (Ski-Ba-Bop-Ba-Dop-Bop).avi=1.000=1=0=0,
99999=-nosongbg-=1.000=0=0=0 // don't automatically add -songbackground-
;
#ATTACKS:;

//---------------dance-single - ----------------
#NOTES:
     dance-single:
     :
     Hard:
     12:
     0.556,0.533,0.273,0.117,0.298:
0000
0000
0000
0000
,
0000
0000
0000
0000
,
0000
0000
0000
0000
,
0000
0000
0000
0000
,
0000
0000
0000
0000
,
0010
0000
0100
0000
0010
0000
1000
0000
0001
0000
0000
0001
0000
0000
0000
0000
,
1001
0000
0000
0000
0001
0000
0010
0000
0100
0000
0000
0100
0000
0000
0000
0000
,
1000
0000
0001
0000
0100
0000
0001
0000
0010
0000
0000
0010
0000
0000
0000
0000
,
0110
0000
0000
0000
0100
0000
1000
0000
0001
0000
0000
1000
0001
0000
1000
0001
,
2000
0000
0000
0000
3001
0000
0100
0000
0001
0010
0000
0010
0000
0000
0000
0000
,
0110
0000
0000
0000
0100
0000
1000
0000
0001
0100
0000
0100
0000
0000
0000
0000
,
0020
0000
0000
0000
1030
0000
0001
0000
0100
0001
0000
0001
0000
0000
0000
0000
,
0011
0000
0000
0000
0010
0000
0100
0000
1000
0010
0000
0100
0000
0010
1000
0000
,
2001
0000
0000
0000
3010
0000
0100
0000
0001
0100
0000
0010
0000
0000
0000
0000
,
1010
0000
0000
0000
1000
0000
0001
0000
0100
0001
0000
0010
0000
0000
0000
0000
,
0120
0000
0000
0000
0130
0000
1000
0000
0001
0100
0000
0010
0000
0000
0100
0000
,
0101
0000
0000
0000
0001
0000
1000
0000
0010
1000
0000
1000
0010
0000
0100
0000
,
0102
0010
0100
0010
,
0203
1000
0010
1000
,
0320
1000
0100
1000
,
0130
1001
0110
1001
,
0010
1000
0100
1000
0010
0100
0001
0010
,
0001
0001
1000
1000
0020
0000
0000
0130
,
0001
0010
0100
1000
0010
0100
0010
0100
,
0001
0001
1000
1000
0010
0100
0110
0000
,
0001
1000
0100
1000
0001
1000
0010
0100
,
0010
0010
0100
0100
0002
0000
0000
0000
,
1003
1000
0010
0100
0001
0010
0100
1000
,
0001
0001
1000
1000
0010
0100
0001
0000
,
1100
0000
0000
0101
0000
0000
0001
0000
0000
0000
1000
0000
0001
0000
0100
0000
,
0010
0000
0000
0010
0000
0000
0010
0000
0000
0000
0100
0000
0001
0000
1000
0000
,
1100
0000
0000
1010
0000
0000
0010
0000
0000
0000
0100
0000
0001
0000
0100
0000
,
0110
0000
0000
1010
0000
0000
1000
0000
0000
0000
0001
0000
0100
0000
0001
0000
,
1000
0100
0010
0100
1000
0100
0001
0100
,
1000
0010
0100
0001
0002
0000
0000
0000
,
1003
1000
0010
1000
0001
1000
0100
0001
,
0100
1000
0010
0010
1000
1000
1010
0000
,
0001
0010
0001
0100
1000
0100
0001
1000
,
0100
0010
0100
0100
2000
0000
0000
3001
,
1000
0100
0001
0100
0010
0001
0100
0001
,
1000
1000
0010
0010
1000
0100
0001
0100
,
1000
0000
0000
1000
0000
0000
0100
0000
0000
0000
0110
0000
0000
0000
0010
0000
,
0001
0000
0100
0000
0001
0000
0010
0000
0100
1000
0000
0100
0000
0000
0010
0000
,
0001
0000
0010
0000
0001
0000
0100
0000
0010
1000
0000
0100
0000
0000
0000
0000
,
1000
0000
0010
0000
0100
0000
0010
0000
0100
0001
0000
0010
0000
0000
0100
0000
,
1000
0000
0001
0000
0100
0000
0001
0000
1000
0001
0000
0001
0100
0000
0010
0000
,
0100
0000
0001
0000
1000
0000
0001
0000
0100
0010
0000
1000
0000
0000
0001
0000
,
1000
0000
0100
0000
0010
0000
0100
0000
1000
0010
0000
0100
0000
0000
0000
0000
,
0001
0000
0010
0000
0001
0000
1000
0000
0100
0010
0000
0100
0000
0000
1000
0000
,
0010
0000
0100
0000
0001
0000
1000
0000
0001
0100
0000
0010
0000
0000
0000
0000
,
1000
0100
1000
0000
0001
0000
0100
0000
0010
1000
0000
1010
0000
0000
0010
0000
,
1000
0000
0010
0000
0100
0000
0010
0000
1000
0100
0000
1100
0000
0000
0000
0000
,
0010
1000
0010
0000
0100
0000
0001
0000
0100
0001
0000
0101
0000
0000
0000
0000
,
0010
0000
1000
0000
0010
0000
0100
0000
0001
0100
0000
0101
0000
0000
0000
0000
,
0100
0010
0100
0000
0001
0000
0100
0000
0010
1000
0000
1010
0000
0000
1000
0000
,
0010
0000
0100
0000
0001
0000
1000
0000
0001
0100
0000
0101
0000
0000
0000
0000
,
0010
1000
0100
0000
1000
0000
0010
0000
0100
0001
0000
0101
0000
0000
0100
0000
,
0002
1000
0000
1000
0003
0000
0000
0000
;

//---------------dance-single - ----------------
#NOTES:
     dance-single:
     :
     Medium:
     8:
     0.418,0.393,0.068,0.371,0.005:
0000
0000
0000
0000
,
0000
0000
0000
0000
,
0000
0000
0000
0000
,
0000
0000
0000
0000
,
0000
0000
0000
0000
,
2000
0000
3001
1000
0100
0000
1100
0000
,
0002
0000
1003
0001
0100
0000
0101
0000
,
0010
0010
0010
0010
,
1000
1000
0001
0001
,
1000
0100
0001
0100
2000
0000
0001
0000
,
3020
0100
0001
0130
,
0001
0100
1000
0100
0002
0000
1000
0000
,
0203
0000
0010
0000
0001
0001
0301
0000
,
1000
0010
0001
0010
2000
0000
0010
0000
,
3200
1000
0001
1300
,
0001
0010
1000
0010
0002
0000
0100
0000
,
0023
1000
0001
1030
,
0001
0100
0001
0000
0100
1000
0100
0000
,
1000
0010
1000
0000
0010
0001
0010
0000
,
0001
0100
0001
0000
1000
0000
0001
0000
,
2000
0001
0001
3001
,
0001
0000
1000
0000
0001
0010
0100
0000
,
1000
0010
0100
0000
2002
0000
3003
0000
,
0010
1000
0100
0001
,
0010
0000
1000
0000
0001
0001
0001
0000
,
1000
0000
0100
0000
0001
0100
1000
0000
,
0010
1000
0100
0000
0220
0000
0330
0000
,
0010
0100
1000
0010
,
0100
0000
0001
0000
1000
1000
1000
0000
,
0002
0010
0100
0013
,
2000
0100
0010
3100
,
2001
3100
1002
0103
,
2000
3200
0302
0023
,
1030
0010
0001
1000
,
0010
0100
0001
0100
0020
0000
0030
0000
,
1000
0001
1000
0000
0001
1000
0001
0000
,
1000
0000
0100
0000
0010
0010
0010
0000
,
0001
0100
0010
0100
,
0001
0100
0010
0100
2000
0000
3000
0000
,
0100
0001
0010
1000
,
0001
0000
0100
0000
1000
0000
0010
0100
,
0001
0000
0000
1001
0000
0000
0000
0000
0000
0000
0000
0000
0000
0000
0000
0000
,
2000
0000
0001
0000
3010
0200
0001
0000
,
1000
0000
0001
0000
0310
1000
0001
0000
,
0002
0000
0010
0000
0103
0020
1000
0000
,
0100
0000
0001
0000
1030
0100
0001
0100
,
0020
0000
0001
0000
0130
2000
0001
0000
,
0010
0000
0100
0000
3010
0100
0001
0000
,
0200
0000
1000
0000
0301
0020
1000
0000
,
0100
0000
0001
0000
1030
0010
0001
0000
,
1000
0100
1000
0000
0001
0100
0001
0000
,
2000
0000
0010
0000
0001
0100
3100
0000
,
0001
0010
0001
0000
1000
0010
1000
0000
,
0002
0000
0010
0000
1000
0100
0103
0000
,
1000
0001
0100
0000
0001
1000
0100
0000
,
2000
0000
0100
0000
3002
0100
0103
0000
,
0001
1000
0010
0000
1000
0001
0010
0000
,
0002
1000
1003
0000
;

//---------------dance-single - ----------------
#NOTES:
     dance-single:
     :
     Easy:
     6:
     0.273,0.281,0.020,0.156,0.000:
0000
0000
0000
0000
,
0000
0000
0000
0000
,
0000
0000
0000
0000
,
0000
0000
0000
0000
,
0000
0000
0000
0000
,
1000
0001
0100
0100
,
0001
1000
0100
0100
,
1000
0001
1000
0001
,
0020
0000
0200
0330
,
1000
0100
1000
0100
,
0010
0100
1000
0000
,
0001
0010
0001
0010
,
0100
0010
0001
0000
,
1000
0001
1000
1000
,
0001
1000
0001
0000
,
0001
1000
0001
0001
,
1000
0001
1000
0000
,
0020
0000
0000
0030
2000
0000
0000
3000
,
0002
0000
0000
0003
0200
0000
0000
0300
,
0020
0000
0000
0030
2000
0000
0000
3000
,
0200
0010
0010
0310
,
0001
0100
0001
0000
,
1000
0100
1000
0000
,
0010
0000
1001
0000
,
0010
0000
0000
0000
0100
0100
0100
0000
,
0001
0000
0100
0000
,
1000
0100
0001
0000
,
1001
0000
0010
0000
,
1000
0000
0000
0000
0001
0001
0001
0000
,
2000
0010
0000
3010
,
0020
0100
0000
0130
,
0200
0001
0000
0301
,
0002
0100
0000
0103
,
0100
0001
0100
0001
,
1000
0100
1000
0000
,
0010
1000
0010
1000
,
0001
0000
0100
0000
0001
0001
0001
0000
,
1000
0100
0010
0100
,
1000
0001
0100
0000
,
0010
1000
0001
0100
,
0001
0010
0100
1000
,
0002
1000
0000
1003
,
0010
0010
0100
0100
,
0001
1000
0100
0000
,
0010
0010
0100
0100
,
1000
0001
0100
0000
,
0010
0010
0100
0100
,
1000
0001
0100
0000
,
0010
0010
0100
0100
,
0001
1000
0200
0310
,
0001
0100
0001
0100
,
0001
0100
0010
0000
,
1000
0010
1000
0010
,
1000
0010
0100
0000
,
0001
0010
0100
1000
,
0001
0100
0010
0000
,
1000
0001
1000
0001
,
0200
0010
0310
0000
;

//---------------dance-single - ----------------
#NOTES:
     dance-single:
     :
     Beginner:
     3:
     0.162,0.168,0.039,0.059,0.000: // measure 1
0000
0000
0000
0000
,  // measure 2
0000
0000
0000
0000
,  // measure 3
0000
0000
0000
0000
,  // measure 4
0000
0000
0000
0000
,  // measure 5
0000
0000
0000
0000
,  // measure 6
1000
0000
0010
0000
,  // measure 7
0001
0000
0010
0000
,  // measure 8
1000
0000
0010
0000
,  // measure 9
0001
0000
0010
0000
,  // measure 10
1000
0100
0100
0000
,  // measure 11
0010
0000
0010
0000
,  // measure 12
0001
0100
0100
0000
,  // measure 13
0010
0000
0010
0000
,  // measure 14
0100
0100
0100
0000
,  // measure 15
0010
0000
1000
0000
,  // measure 16
0100
0100
0100
0000
,  // measure 17
0010
0000
0001
0000
,  // measure 18
1001
0000
0000
0000
,  // measure 19
0110
0000
0000
0000
,  // measure 20
1001
0000
0000
0000
,  // measure 21
0110
0000
0000
0000
,  // measure 22
0001
0000
0100
0000
,  // measure 23
0100
0000
0010
0000
,  // measure 24
1000
0000
0100
0000
,  // measure 25
0100
0000
0010
0000
,  // measure 26
0001
0000
0100
0000
,  // measure 27
0010
0000
0001
0000
,  // measure 28
1000
0000
0100
0000
,  // measure 29
0010
0000
1000
0000
,  // measure 30
0002
0000
0003
0000
,  // measure 31
2000
0000
3000
0000
,  // measure 32
0020
0000
0030
0000
,  // measure 33
0200
0000
0300
0000
,  // measure 34
0001
0000
0010
0000
,  // measure 35
1000
0000
0010
0000
,  // measure 36
0001
0000
0100
0000
,  // measure 37
1000
0000
0100
0000
,  // measure 38
1000
0000
0010
0000
,  // measure 39
0001
0000
0010
0000
,  // measure 40
1000
0000
0100
0000
,  // measure 41
0001
0000
0100
0000
,  // measure 42
0020
0000
0000
0130
,  // measure 43
0100
1000
1000
0000
,  // measure 44
0001
0000
0100
0000
,  // measure 45
0100
0001
0001
0000
,  // measure 46
1000
0000
0100
0000
,  // measure 47
0010
0010
0010
0000
,  // measure 48
1000
0000
0001
0000
,  // measure 49
0010
0010
0010
0000
,  // measure 50
0001
0000
1000
0000
,  // measure 51
0001
0000
0010
0000
,  // measure 52
1000
0000
0100
0000
,  // measure 53
0001
0000
0010
0000
,  // measure 54
1000
1000
1000
0000
,  // measure 55
0001
0000
0010
0000
,  // measure 56
1000
0000
0100
0000
,  // measure 57
0001
0000
0010
0000
,  // measure 58
0200
0000
0300
0000
;
